osu file format v6

[General]
AudioFilename: Playing with Dolls.mp3
AudioLeadIn: 0
PreviewTime: 64540
Countdown: 1
SampleSet: Soft
StackLeniency: 0.7
Mode: 0
LetterboxInBreaks: 1

[Editor]
DistanceSpacing: 0.930000007152557
BeatDivisor: 4
GridSize: 8

[Metadata]
Title:Playing with Dolls
Artist:IOSYS
Creator:pieguy1372
Version:Hard
Source:
Tags:touhou iosys innocent key playing with dolls play oningyou asobi

[Difficulty]
HPDrainRate:6
CircleSize:5
OverallDifficulty:7
SliderMultiplier:1.4
SliderTickRate:1

[Events]
//Background and Video events
Video,-100,"nengaranenju_tr03pv.avi"
0,0,"bg.png"
//Break Periods
//Storyboard Layer 0 (Background)
//Storyboard Layer 1 (Fail)
//Storyboard Layer 2 (Pass)
//Storyboard Layer 3 (Foreground)
//Storyboard Sound Samples
//Background Colour Transformations
3,100,163,162,255

[TimingPoints]
517,363.636363636364,4,2,0,100,1,0
64517,-100,4,2,0,100,0,1
87789,-100,4,2,0,100,0,0

[Colours]
Combo1 : 88,120,192
Combo2 : 255,255,255
Combo3 : 250,245,198
Combo4 : 50,50,50

[HitObjects]
256,192,3426,1,0
256,192,4698,5,0
256,192,4880,1,2
160,96,6153,5,0
160,96,6335,1,2
352,96,7062,5,2
352,288,7607,5,0
352,288,7789,1,2
288,288,7971,1,0
224,288,8153,1,2
160,288,8335,1,0
160,224,8517,1,2
160,160,8698,1,0
160,96,8880,1,2
160,96,9062,1,0
224,96,9244,6,0,C|296:96,1,70,4|0
384,192,9789,1,2
384,320,10153,1,2
256,320,10516,2,0,C|192:288,2,70
144,256,11244,1,2
80,144,11607,1,2
192,80,11971,6,0,C|224:64|272:88,2,70
192,208,12698,1,2
320,208,13062,1,2
320,336,13426,2,0,C|392:336,2,70
224,240,14153,1,2
320,152,14516,1,2
200,104,14880,6,0,C|168:88|136:104,4,70,0|4|0|0|0
168,232,15971,1,2
288,176,16335,2,0,C|320:160|352:176,4,70
320,304,17426,1,2
192,304,17789,6,0,C|112:304,4,70
320,304,18880,1,2
320,176,19244,2,0,C|320:104,4,70
192,176,20335,1,2
256,288,20698,5,0
320,288,20880,1,4
384,288,21062,1,0
384,160,21426,2,2,B|384:120|368:88|336:72|296:72,1,140
168,72,22153,1,0
136,128,22335,1,0
104,72,22517,1,0
104,200,22880,2,2,B|104:240|120:272|152:288|192:288,1,140
192,160,23607,5,0
208,96,23789,1,0
272,80,23971,1,0
360,168,24335,2,2,B|360:208|344:240|312:256|272:256,1,140
144,256,25062,1,0
128,192,25244,1,0
144,128,25426,1,0
272,128,25789,2,2,L|336:160|400:128,1,140
400,256,26517,5,0
400,320,26698,1,4
336,320,26880,1,0
272,304,27062,1,0
208,288,27244,2,0,L|64:288,1,140
64,224,27789,1,0
64,160,27971,1,0
128,160,28153,2,0,L|192:128,3,70
384,152,29244,5,0
328,184,29426,1,0
384,208,29607,1,0
272,280,29971,1,0
216,312,30153,1,0
160,280,30335,1,0
56,200,30698,1,0
56,136,30880,1,0
120,136,31062,2,2,L|192:120,1,70
256,120,31426,2,2,L|296:192,1,70
432,320,32698,5,0
368,320,32880,1,0
304,344,33062,1,0
240,320,33244,1,0
176,344,33426,1,0
112,320,33607,1,0
80,264,33789,1,0
80,200,33971,2,0,L|80:120,1,70
128,88,34335,2,0,L|192:48,1,70
384,48,35062,5,0
448,48,35244,1,0
448,112,35426,2,0,L|376:152,1,70
384,208,35789,2,0,L|456:248,1,70
448,304,36153,1,0
384,304,36335,2,0,L|312:304|256:264,3,140
256,264,37516,1,0
256,264,37607,2,2,L|256:120,1,140
64,64,38516,5,0
64,128,38698,2,0,L|64:200,1,70
64,264,39062,2,0,L|64:336,3,70
128,336,39789,1,0
176,288,39971,1,0
224,240,40153,1,0
272,192,40335,1,0
464,192,40880,5,0
464,128,41062,1,0
464,64,41244,2,0,L|312:64,1,140
256,64,41789,1,0
192,64,41971,2,0,L|48:64,1,140
48,192,42698,1,2
96,232,42880,1,2
160,232,43062,1,2
216,192,43244,1,2
336,152,43607,6,0,L|336:232,3,70,0|0|0|4
336,288,44335,1,0
280,328,44516,2,0,L|216:360,1,70
152,360,44880,2,0,L|88:328,1,70
32,296,45244,2,0,L|32:216,1,70
88,192,45607,1,0
144,160,45789,1,0
200,128,45971,1,0
256,96,46153,1,0
448,96,46698,6,0,L|448:168,1,70
448,232,47062,1,4
448,360,47426,1,4
320,360,47789,1,4
320,296,47971,1,4
320,168,48335,2,4,C|288:88|256:168|224:88|192:168,1,350
72,264,49971,5,4
72,64,50516,1,0
200,64,50880,1,0
256,96,51062,1,0
312,64,51244,1,0
376,64,51426,2,0,C|448:96,1,70
440,152,51789,2,0,C|368:184,1,70
376,248,52153,1,2
192,264,52698,6,0,C|192:224,1,35,0|0
192,192,52880,2,0,C|192:40,1,140
256,48,53426,2,0,C|296:48,1,35
320,56,53607,2,0,C|320:208,1,140
256,80,54335,2,2,C|256:224,3,140
256,288,55607,6,0,C|256:328,1,35
248,352,55789,2,0,C|96:352,1,140,4|0
40,352,56335,2,0,C|40:192,1,140
96,184,56880,1,0
152,208,57062,1,0
208,184,57244,1,0
336,184,57607,2,0,C|408:184,1,70
472,184,57971,2,0,L|472:32,1,140
408,40,58516,6,0,L|368:40,1,35
336,40,58698,2,4,L|224:40,2,105
336,104,59426,2,4,L|448:104,2,105
336,168,60153,2,4,L|224:168,2,105
336,232,60880,1,0
256,336,61244,1,0
128,336,61607,2,4,C|32:272|128:208|32:144|128:80|32:16,1,560
256,192,64516,5,4
288,280,64789,1,0
320,192,65062,1,0
384,192,65244,5,0
416,104,65516,1,0
448,192,65789,1,0
448,256,65971,5,2
352,288,66244,1,2
256,288,66516,1,2
192,288,66698,5,2
96,288,66971,1,2
64,192,67244,1,2
64,128,67426,5,4
64,64,67607,1,0
128,64,67789,1,0
192,64,67971,1,0
256,64,68153,1,0
352,64,68426,1,0
448,64,68698,1,0
448,128,68880,2,2,C|448:200,1,70
392,232,69244,2,2,C|312:280,1,70
264,272,69607,2,0,C|104:272,1,140
112,144,70335,5,4
168,64,70607,1,0
208,152,70880,1,0
168,200,71062,5,0
264,208,71335,1,0
208,296,71607,1,0
256,344,71789,5,2
352,344,72062,1,2
448,344,72335,1,2
448,280,72516,5,2
448,184,72789,1,2
448,88,73062,1,2
256,64,73607,5,0
128,64,73971,2,0,C|128:176,2,105
64,64,74698,1,2
64,160,74971,1,2
64,256,75244,1,2
64,320,75426,2,2,C|208:320,1,140
336,320,76153,6,0,C|432:272,1,105,4|0
432,176,76698,1,0
432,112,76880,2,0,C|336:64,1,105
336,160,77426,1,0
288,208,77607,1,0
256,112,77880,1,0
224,208,78153,1,0
184,264,78335,1,0
152,168,78607,1,0
120,264,78880,1,0
224,344,79244,5,0
288,344,79426,1,0
288,280,79607,1,0
352,280,79789,2,0,C|360:336|416:344,2,105
320,224,80516,1,2
320,160,80698,1,0
264,128,80880,1,2
208,96,81062,1,0
152,64,81244,2,2,B|112:64|80:80|64:112|64:152,1,140
64,280,81971,6,0,L|120:368|184:272,1,210,4|0
240,280,82698,2,0,L|296:368|360:272,1,210
416,280,83426,1,0
488,208,83698,1,0
416,144,83971,1,0
416,208,84153,1,0
344,144,84426,1,0
416,80,84698,1,0
360,48,84880,6,0,L|248:48,1,105,4|2
152,48,85426,1,2
88,48,85607,2,0,L|64:96|88:144,1,105,4|2
184,144,86153,1,2
144,192,86335,5,4
256,304,86607,1,2
368,192,86880,1,2
304,112,87062,5,4
112,48,87335,1,2
48,240,87607,1,2
256,192,87789,12,0,89062
256,192,89244,5,0
216,192,90516,6,0,L|288:192,1,70
256,328,91426,1,0
120,192,91971,1,0
120,128,92153,5,2
120,64,92335,1,0
184,64,92516,1,2
248,64,92698,1,0
296,104,92880,1,2
344,144,93062,1,0
392,104,93244,1,2
440,64,93426,1,0
176,192,94426,5,0
336,192,94607,1,0
256,192,95062,5,4
256,192,95244,1,4
256,192,95426,1,4
256,192,95607,1,4
