osu file format v6

[General]
AudioFilename: Playing with Dolls.mp3
AudioLeadIn: 0
PreviewTime: 64540
Countdown: 1
SampleSet: Soft
StackLeniency: 0.7
Mode: 0
LetterboxInBreaks: 1

[Editor]
DistanceSpacing: 0.730000019073486
BeatDivisor: 4
GridSize: 8

[Metadata]
Title:Playing with Dolls
Artist:IOSYS
Creator:pieguy1372
Version:Easy
Source:
Tags:touhou iosys innocent key playing with dolls play oningyou asobi

[Difficulty]
HPDrainRate:5
CircleSize:4
OverallDifficulty:4
SliderMultiplier:1
SliderTickRate:1

[Events]
//Background and Video events
Video,-100,"nengaranenju_tr03pv.avi"
0,0,"bg.png"
//Break Periods
//Storyboard Layer 0 (Background)
//Storyboard Layer 1 (Fail)
//Storyboard Layer 2 (Pass)
//Storyboard Layer 3 (Foreground)
//Storyboard Sound Samples
//Background Colour Transformations
3,100,163,162,255

[TimingPoints]
517,363.636363636364,4,2,0,100,1,0
64517,-100,4,2,0,100,0,1
87789,-100,4,2,0,100,0,0

[Colours]
Combo1 : 80,120,192
Combo2 : 255,255,255
Combo3 : 250,245,198
Combo4 : 50,50,50

[HitObjects]
256,192,3426,1,0
256,192,4880,1,0
184,120,6335,5,0
328,120,7062,1,0
328,264,7789,1,0
184,264,8517,1,0
184,120,9244,5,4
256,120,9607,1,0
256,264,10335,1,2
400,264,11062,1,0
400,120,11789,1,2
296,224,12516,5,0
192,328,13244,1,2
88,224,13971,1,0
192,120,14698,1,2
256,160,15062,5,4
320,200,15426,1,0
256,328,16153,1,2
192,200,16880,1,0
256,64,17607,1,2
384,128,18335,5,0
256,192,19062,1,2
384,256,19789,1,0
256,320,20516,1,2
184,320,20880,5,4
128,272,21244,2,0,L|88:232,1,50
88,128,21971,1,2
208,48,22698,2,0,L|272:48,1,50
336,128,23426,1,2
256,248,24153,6,0,L|256:304,1,50
144,296,24880,1,2
40,192,25607,2,0,L|40:136,1,50
112,64,26335,1,2
256,64,27062,5,0
256,136,27426,1,0
256,208,27789,1,0
328,208,28153,2,0,L|360:272|328:344,1,150
144,344,29607,5,0
144,200,30335,1,0
144,56,31062,2,2,L|200:56,3,50
448,56,32880,5,0
424,120,33244,1,0
360,152,33607,1,0
296,120,33971,1,0
232,152,34335,2,0,L|168:152,1,50
184,264,35062,5,0
184,336,35426,2,0,L|288:336|368:264,3,200
464,176,38698,5,0
464,104,39062,1,0
392,104,39426,1,0
320,104,39789,2,0,L|256:144|192:104,1,150
80,104,40880,5,0
80,176,41244,2,0,B|80:224|96:256|128:288|160:304|208:304,2,200,0|0|2
80,176,42880,1,2
80,176,43062,1,2
80,176,43244,1,2
328,104,44516,5,0
376,152,44880,1,0
376,224,45244,1,0
336,280,45607,1,0
264,280,45971,2,0,B|192:280,1,50
104,280,46698,5,0
104,208,47062,2,0,B|184:136,1,100
248,144,47789,2,0,B|328:216,1,100
312,280,48516,2,2,B|200:280,3,100
136,280,49971,5,4
136,168,50516,1,0
136,56,51062,1,0
64,56,51426,2,0,L|24:152|64:240,1,200
208,240,52880,6,0,L|360:240,1,150
392,240,53607,2,2,L|392:120,2,100
104,192,55789,5,4
200,136,56335,1,0
296,80,56880,1,0
368,80,57244,2,0,L|472:80,2,100
368,224,58698,6,4,L|232:320,1,150
208,312,59426,2,4,L|56:272,1,150
24,256,60153,2,4,L|24:104,1,150
56,104,60880,1,4
128,104,61244,1,4
256,192,61607,12,4,63062
256,192,64516,5,4
184,168,64880,1,0
232,112,65244,1,0
304,112,65607,1,0
336,176,65971,1,0
320,248,66335,1,0
256,280,66698,1,0
184,256,67062,1,0
144,192,67426,6,0,L|88:104|40:192,2,200,0|0|2
144,264,69244,1,2
144,336,69607,1,2
288,336,70335,5,4
352,304,70698,1,0
392,240,71062,1,0
376,168,71426,1,0
328,112,71789,1,0
256,88,72153,1,0
200,136,72516,1,0
232,200,72880,1,0
360,272,73607,5,0
288,272,73971,2,0,L|176:272,1,100
112,272,74698,1,0
112,272,75062,1,0
112,272,75426,1,2
232,192,76153,6,0,B|264:224|312:192|312:144|264:120|240:128|240:128|216:120|128:144|144:192|128:248|192:336|280:336|384:272|432:208|408:104|312:56|248:24|168:72,1,800
96,176,79789,1,0
176,296,80516,1,2
176,296,80880,1,2
176,296,81244,1,2
320,296,81971,6,0,L|368:208|320:120,4,200,4|0|0|0|0
248,296,85244,1,0
184,264,85607,1,0
120,232,85971,1,0
56,200,86335,1,4
120,160,86698,1,4
184,128,87062,2,4,C|224:104|280:136,1,100
256,192,87789,12,4,89244
184,120,90698,5,0
328,120,91426,1,0
328,264,92153,1,2
256,264,92516,1,0
184,264,92880,1,2
184,192,93244,1,0
184,120,93607,1,2
232,192,95062,6,4,C|288:192,3,50
