osu file format v5

[General]
AudioFilename: Phantasmagoria mystical expectation - IOSYS (EDIT).mp3
AudioLeadIn: 2515
PreviewTime: -1
Countdown: 1
SampleSet: Soft
StackLeniency: 0.7
Mode: 0
LetterboxInBreaks: 1

[Metadata]
Title:Phantasmagoria Mystical Expectation
Artist:IOSYS
Creator:Cyclone
Version:Hard
Source:Touhou
Tags:

[Difficulty]
HPDrainRate:4
CircleSize:4
OverallDifficulty:6
SliderMultiplier:0.9
SliderTickRate:0.5

[Events]
//Background and Video events
0,0,"toho1_sp1.jpg"
//Break Periods
2,108153,119053
//Storyboard Layer 0 (Background)
//Storyboard Layer 1 (Failing)
//Storyboard Layer 2 (Passing)
//Storyboard Layer 3 (Foreground)
//Storyboard Sound Samples
//Background Colour Transformations
3,100,163,162,255

[TimingPoints]
1689,428.571428571429,4,2,0,100,1
15408,428.571428571429,4,1,0,100,0
15622,428.571428571429,4,2,0,100,0
16051,428.571428571429,4,1,0,100,0
16479,428.571428571429,4,2,0,100,0
16694,428.571428571429,4,1,0,100,0
18194,428.571428571429,4,2,0,100,0
18408,428.571428571429,4,1,0,100,0
19051,428.571428571429,4,2,0,100,0
19479,428.571428571429,4,1,0,100,0
19908,428.571428571429,4,2,0,100,0
20122,428.571428571429,4,1,0,100,0
22479,428.571428571429,4,2,0,100,0
22908,428.571428571429,4,1,0,100,0
23336,428.571428571429,4,2,0,100,0
23551,428.571428571429,4,1,0,100,0
23765,428.571428571429,4,2,0,100,0
23979,428.571428571429,4,1,0,100,0
24408,428.571428571429,4,2,0,100,0
24622,428.571428571429,4,1,0,100,0
25051,428.571428571429,4,2,0,100,0
25265,428.571428571429,4,1,0,100,0
25479,428.571428571429,4,2,0,100,0
29117,-100,4,1,0,100,0
29974,-100,4,2,0,100,0
30831,-100,4,1,0,100,0
31689,-100,4,2,0,100,0
32546,-100,4,1,0,100,0
37668,428.571428571429,4,2,1,100,1
54805,428.571428571429,4,1,1,100,0
58234,428.571428571429,4,2,1,100,0
135377,428.571428571429,4,1,1,100,0
138805,428.571428571429,4,2,1,100,0
161091,444.444444444444,4,2,0,100,1
161550,461.538461538462,4,2,0,100,1
162011,470.588235294118,4,2,0,100,1
163893,470.588235294118,4,1,0,100,0
164834,470.588235294118,4,2,0,100,0
165775,470.588235294118,4,1,0,100,0
166011,470.588235294118,4,2,0,100,0
166246,470.588235294118,4,1,0,100,0
166481,470.588235294118,4,2,0,100,0
167658,470.588235294118,4,1,0,100,0
168011,470.588235294118,4,2,0,100,0
168363,470.588235294118,4,1,0,100,0
168716,470.588235294118,4,2,0,100,0
169069,470.588235294118,4,1,0,100,0
169540,470.588235294118,4,2,0,100,0
170481,428.571428571429,4,2,0,100,1

[HitObjects]
72,96,1688,2,0,B|224:96,1,135
288,96,2760,1,2
336,152,3081,1,2
288,200,3403,2,0,B|112:200,1,135
64,208,4474,1,2
96,264,4796,1,2
64,320,5117,2,0,B|216:320,1,135
288,320,6188,1,2
288,248,6510,1,2
288,176,6831,1,4
480,40,7903,5,0
360,40,8546,2,0,B|208:40,1,135,4|0
136,40,9617,1,2
88,88,9938,1,2
40,136,10260,2,0,B|40:280,1,135
128,272,11331,1,2
256,192,11760,12,4,12831
256,24,14331,5,0
256,72,14546,1,0
256,160,14974,1,0
208,232,15403,1,0
240,264,15617,1,0
272,264,15831,1,0
304,232,16046,1,0
256,160,16474,1,0
256,160,16688,1,0
168,160,17117,1,0
120,160,17331,1,0
32,160,17760,1,0
32,248,18189,1,0
72,248,18403,1,0
144,304,18831,5,0
176,272,19046,1,0
216,272,19260,1,0
248,304,19474,1,0
336,304,19903,1,0
336,304,20117,1,0
336,216,20546,1,0
384,168,20867,1,0
336,120,21189,1,0
288,120,21403,1,0
200,120,21831,1,0
128,64,22260,5,0
128,104,22474,1,0
128,144,22689,1,0
128,184,22903,1,0
128,272,23331,1,0
168,272,23546,1,0
208,272,23760,1,0
248,272,23974,1,0
336,272,24403,1,0
336,272,24617,1,0
408,320,25046,1,0
408,272,25260,1,0
408,224,25474,1,0
408,176,25689,1,4
256,192,25903,12,0,28689
400,112,29117,5,0
312,112,29546,1,0
224,112,29974,1,2
176,112,30189,1,2
128,112,30403,1,4
80,192,30831,5,0
168,192,31260,1,0
256,192,31689,1,2
296,192,31903,1,2
336,192,32117,1,4
376,272,32546,5,0
288,272,32974,1,0
200,272,33403,1,0
112,272,33831,1,0
256,192,34260,12,4,37260
256,64,37668,5,4
256,128,37989,1,0
256,192,38310,1,0
256,240,38525,1,0
48,336,39596,1,2
80,312,39810,1,2
144,248,40239,1,0
232,248,40667,1,0
320,248,41096,1,4
368,200,41417,1,0
320,152,41739,1,2
320,104,41953,1,2
256,320,44525,5,4
256,256,44846,1,0
256,192,45167,1,0
256,144,45382,1,0
464,48,46453,1,2
432,72,46667,1,2
368,136,47096,1,0
280,136,47525,1,0
192,136,47953,1,4
144,184,48275,1,0
192,232,48596,1,2
192,280,48810,1,2
72,208,49453,5,2
72,208,49667,1,0
40,240,49882,1,2
40,240,50096,1,0
40,280,50310,1,2
40,280,50525,1,0
72,312,50739,1,6
72,312,50953,1,6
144,256,51382,5,4
208,256,51703,1,0
272,256,52025,1,0
312,256,52239,1,0
312,32,53310,1,2
312,80,53525,1,2
312,168,53953,1,0
240,168,54275,1,0
168,168,54596,1,0
120,168,54810,5,0
56,168,55132,1,0
80,272,55667,1,0
144,272,55989,1,0
256,272,56525,1,0
320,272,56846,1,0
280,168,57382,1,0
344,168,57703,1,0
456,168,58239,5,4
456,232,58560,1,0
456,296,58882,1,0
456,336,59096,1,0
232,336,60167,1,2
184,336,60382,1,2
184,248,60810,1,0
184,176,61132,1,0
184,104,61453,1,0
184,56,61667,5,2
136,48,61882,1,2
88,56,62096,1,2
56,88,62310,1,2
48,128,62525,1,2
56,168,62739,1,2
88,192,62953,1,2
136,200,63167,1,2
184,192,63382,1,4
120,128,63810,5,0
208,128,64239,1,0
296,128,64667,1,0
384,128,65096,2,0,B|384:272,1,135
296,264,66167,1,4
256,320,66489,1,4
216,264,66810,2,0,B|216:112,1,135
128,128,67882,1,2
80,80,68203,1,2
32,128,68525,2,0,B|32:280,1,135
96,328,69596,1,0
144,280,69917,1,0
192,328,70239,1,0
416,328,71310,5,0
416,280,71525,1,0
416,192,71953,2,0,B|296:88,1,135,2|0
256,32,73025,1,2
256,32,73346,1,2
200,72,73667,2,0,B|72:152,1,135
8,192,74739,1,0
80,240,75167,1,0
256,192,75382,12,4,77096
416,80,78167,5,0
328,80,78596,1,0
280,80,78810,2,0,B|216:56|136:80,1,135
80,136,79882,1,4
40,192,80203,1,4
80,248,80525,2,0,B|148:267|232:240,1,135
288,192,81596,1,2
352,192,81917,1,2
416,192,82239,2,0,B|418:271|328:304,1,135
256,296,83310,1,0
176,296,83632,1,0
216,240,83953,2,0,B|216:152,2,67.5,0|0|0
216,288,84810,1,0
304,296,85239,5,0
392,296,85667,2,0,B|392:152,1,135,0|0
320,104,86739,1,2
248,104,87060,1,2
208,160,87382,2,0,B|208:312,1,135,0|0
136,344,88453,1,0
64,344,88775,1,0
256,192,89096,12,0,91667
256,192,92096,5,0
256,192,92525,1,0
256,192,93167,1,0
256,192,93810,1,0
256,192,94025,1,0
256,192,94239,1,0
256,192,94560,1,0
256,192,94882,1,0
256,192,95953,1,0
256,192,96275,1,0
256,192,96596,1,0
256,192,96810,1,0
256,192,97132,1,0
256,192,97453,1,0
256,192,97667,1,0
256,192,98310,1,0
256,192,98525,1,0
256,192,99382,1,0
256,192,99596,1,0
256,192,99810,1,0
256,192,100025,1,0
256,192,100239,1,0
256,192,100453,1,0
256,192,100667,1,0
256,192,100882,1,0
256,192,101096,1,0
256,192,101525,1,0
256,192,101953,1,0
256,192,102167,1,0
256,192,102382,1,0
256,192,102596,1,0
256,192,102810,1,0
256,192,103239,1,0
256,192,103453,1,0
256,192,103667,1,0
256,192,104096,1,0
256,192,104310,1,0
256,192,104525,1,0
256,192,104953,1,0
256,192,105167,1,0
256,192,106453,1,0
256,192,106775,1,0
256,192,107096,1,0
256,192,107417,1,0
256,192,107953,1,4
152,192,119953,5,0
152,192,120275,1,0
152,192,120596,1,0
152,192,120810,1,0
152,192,121132,1,0
152,192,121453,1,0
152,192,121667,1,0
136,136,122525,5,0
136,136,122846,1,0
136,136,123167,1,0
136,136,123382,1,0
216,144,124239,1,0
216,144,124560,1,0
216,144,124882,1,0
216,144,125096,2,0,B|304:256,1,135
336,152,126382,1,0
336,152,126596,1,0
336,152,126810,1,0
88,176,127882,5,0
88,176,128096,1,0
88,176,128525,1,0
88,176,129810,1,0
88,176,130239,1,0
88,176,131096,1,0
88,176,131417,1,0
88,176,131739,1,0
88,176,131953,1,0
256,192,132167,12,0,133667
352,128,134096,6,0,B|240:128,2,90
336,240,135382,1,4
88,224,136453,1,4
88,224,136775,1,0
88,224,137096,1,4
144,152,138167,1,4
144,152,138489,1,0
144,152,138810,2,4,B|184:112|272:88,1,135,4|0
280,200,139882,1,0
280,200,140203,1,0
280,200,140525,1,0
112,264,141596,5,0
112,264,141810,1,0
112,264,142239,2,0,B|248:280,1,135
336,256,143310,1,0
336,256,143632,1,0
344,216,143953,2,0,B|256:104,1,135
72,128,145025,1,0
256,192,145453,12,0,147382
88,208,148453,5,0
88,208,148882,1,0
88,208,149096,2,0,B|224:272,1,135
304,208,150168,1,0
304,208,150489,1,0
104,112,150810,2,0,B|248:112,1,135
144,224,151882,1,0
144,224,152203,1,0
104,320,152525,2,0,B|256:320,1,135
384,232,153596,1,0
384,232,154239,1,0
120,128,154560,1,0
120,128,154882,1,0
120,128,155096,1,0
64,200,155525,5,0
72,280,155953,2,0,B|224:280,1,135
288,264,157025,1,0
288,264,157346,1,0
360,264,157668,2,0,B|360:120,1,135
112,112,158739,1,0
112,112,159060,1,0
112,112,159382,1,0
248,192,160668,5,0
248,192,161091,1,0
248,192,161550,1,0
248,192,162011,1,0
248,192,162481,1,0
248,192,162716,1,0
248,192,162952,1,4
96,192,163187,6,0,B|56:192,2,22.5
96,272,163658,1,0
96,272,163893,1,0
192,280,164599,1,0
192,280,164834,1,4
312,280,165540,1,0
312,280,165658,1,0
312,280,165775,1,0
312,280,166010,1,0
312,280,166246,1,0
312,280,166481,1,0
312,280,166716,1,4
304,176,167069,5,0
304,176,167422,1,0
304,176,167658,1,0
304,176,168010,1,0
304,176,168363,1,0
304,176,168716,1,0
304,176,169069,1,0
304,176,169305,1,0
304,176,169422,1,0
304,176,169540,1,4
88,208,170481,6,0,B|224:272,1,135
304,208,171552,1,0
304,208,171873,1,0
104,112,172195,2,0,B|248:112,1,135
144,224,173266,1,0
128,152,173695,1,0
256,192,173909,12,0,175623
136,152,176695,5,0
136,152,177123,1,0
88,208,177338,2,0,B|224:272,1,135
304,208,178409,1,0
304,208,178731,1,0
104,112,179052,2,0,B|248:112,1,135
144,224,180123,1,0
144,224,180445,1,0
104,320,180766,2,0,B|256:320,1,135
296,232,181838,1,0
296,232,182481,1,0
296,232,182802,1,0
296,232,183123,1,0
296,232,183338,1,0
104,168,183766,5,0
88,208,184195,2,0,B|224:272,1,135
304,208,185266,1,0
304,208,185588,1,0
104,112,185909,2,0,B|248:112,1,135
144,224,186981,1,0
144,224,187302,1,0
120,248,187623,1,0
152,128,189338,5,0
152,128,189766,1,0
152,128,190195,1,0
152,128,190623,1,0
152,128,191052,1,4
152,128,191909,1,0
152,128,192766,1,4
152,128,193623,1,0
152,128,194481,5,2
152,128,194909,1,2
152,128,195338,1,2
152,128,195766,1,2
152,128,196195,1,4
152,128,196623,1,2
152,128,197052,1,4
152,128,197481,1,2
152,128,197909,1,4
256,192,198123,12,0,200909
