osu file format v5

[General]
AudioFilename: oyome.mp3
AudioLeadIn: 0
PreviewTime: -1
Countdown: 1
SampleSet: None
StackLeniency: 0.7
Mode: 0
LetterboxInBreaks: 1
EditorBookmarks: 49199,84699,119366

[Metadata]
Title:Oyome Ni Shinasai
Artist:IOSYS
Creator:Mafiamaster
Version:Hard
Source:
Tags:

[Difficulty]
HPDrainRate:6
CircleSize:5
OverallDifficulty:6
SliderMultiplier:1.4
SliderTickRate:1

[Events]
//Background and Video events
0,0,"3cda4d4f1756209e3f60952eeb9e4c6e.jpg"
1,0,"Oyome Ni Shinasai English.avi"
//Break Periods
2,35408,36008
2,38074,38674
2,40741,41299
2,47866,48049
2,94908,95658
2,97574,98324
2,100241,100991
2,107366,107508
//Storyboard Layer 0 (Background)
//Storyboard Layer 1 (Failing)
//Storyboard Layer 2 (Passing)
//Storyboard Layer 3 (Foreground)
//Storyboard Sound Samples
//Background Colour Transformations
3,100,163,162,255

[TimingPoints]
1200,333.333333333333,4,0,0,100

[Colours]
Combo1 : 255,150,0
Combo2 : 255,255,0
Combo3 : 5,5,240
Combo4 : 240,5,5

[HitObjects]
64,128,1200,1,2
128,80,1533,1,2
208,80,1866,1,2
176,112,2033,1,0
144,144,2199,1,0
80,192,2533,1,2
112,208,2699,1,0
144,192,2866,1,0
176,208,3033,1,0
208,192,3200,1,0
240,208,3311,2,2,C|254:121,1,87.5
336,112,3866,5,2
320,80,4033,1,0
336,48,4200,1,0
416,48,4533,1,2
448,80,4700,1,0
464,112,4866,1,0
464,144,5033,1,0
464,176,5200,1,0
448,208,5366,1,0
416,224,5533,1,0
384,224,5700,1,0
352,224,5866,1,0
304,224,6033,2,2,C|272:144,1,70
224,224,6533,5,2
192,240,6700,1,0
160,256,6866,1,0
80,256,7200,1,2
64,224,7366,1,0
48,192,7533,1,0
64,160,7700,1,0
96,128,7866,1,0
128,96,8033,1,0
160,80,8200,1,0
128,48,8366,1,0
96,32,8533,1,0
48,32,8700,2,2,C|48:105,1,70
144,144,9199,5,2
176,128,9366,1,0
208,112,9533,1,0
288,80,9866,1,2
320,64,10033,1,0
352,48,10199,1,0
384,64,10366,1,0
416,80,10533,1,0
416,160,10866,2,2,C|344:160,1,70
384,224,11366,2,2,C|314:224,1,70
352,288,11866,2,2,C|280:288,1,70
256,224,12366,2,2,C|186:224,1,70
224,160,12866,2,4,B|368:160,1,140
432,112,13533,5,2
432,112,13700,1,2
368,64,14033,1,2
288,16,14367,1,2
240,64,14644,6,2,B|320:96,1,70
352,128,15033,2,2,B|320:192,1,70
432,272,15866,5,2
368,208,16199,1,2
368,208,16366,1,0
368,128,16699,1,2
288,80,17033,1,2
288,144,17311,5,4
240,144,17477,2,2,B|176:170,1,70
176,192,17755,2,2,B|232:234,1,70
80,272,18533,5,2
144,208,18866,1,2
144,208,19033,1,2
144,128,19366,1,2
224,80,19700,1,2
224,176,20088,6,0,B|336:176,1,93.3333333333333
384,176,20588,5,4
176,192,21866,5,2
336,192,22533,1,2
256,112,23199,1,2
256,272,23866,1,2
256,192,24866,1,4
176,192,25199,5,2
192,160,25366,1,0
208,128,25533,1,0
288,128,25866,1,2
304,96,26032,1,0
320,64,26199,1,0
384,112,26533,1,2
416,144,26699,1,0
432,176,26866,1,0
416,208,27033,1,0
384,240,27199,2,0,C|336:288|281:238,1,140
256,208,27699,1,0
208,208,27866,5,2
176,176,28033,1,0
144,144,28199,1,0
144,64,28533,5,2
176,96,28699,1,0
208,128,28866,1,0
288,128,29199,5,2
288,80,29366,1,0
272,48,29533,1,0
224,32,29699,1,0
176,48,29866,2,0,C|166:64|118:80,1,70
80,96,30199,1,0
48,128,30366,1,0
32,160,30533,5,2
16,192,30699,1,0
32,224,30866,1,0
112,256,31199,5,2
144,272,31366,1,0
176,256,31533,1,0
256,256,31866,5,2
288,272,32033,1,0
320,256,32199,1,0
400,256,32533,5,2
432,272,32699,1,0
464,256,32866,1,0
432,224,33033,1,0
400,192,33199,2,2,C|320:192,1,70
320,144,33533,2,2,C|390:144,1,70
400,96,33866,2,2,C|320:96,1,70
288,96,34199,1,4
224,160,34533,5,4
160,112,34866,1,2
96,64,35199,1,4
64,160,37199,5,4
144,192,37533,1,2
224,224,37866,1,4
432,160,39866,5,4
352,112,40199,1,2
272,64,40533,1,4
64,224,42533,5,2
96,240,42699,1,0
128,256,42866,1,0
160,256,43033,1,0
192,240,43199,1,0
224,224,43366,1,2
288,176,43699,1,2
432,80,44366,5,2
272,80,45033,5,2
112,80,45699,5,2
64,240,46366,2,4,C|96:368|487:353,1,536.666666666667
64,128,49199,5,2
96,96,49366,1,0
128,64,49533,1,0
208,64,49866,1,2
176,96,50033,1,0
144,128,50199,1,0
80,192,50533,1,2
112,224,50699,1,0
144,240,50866,1,0
192,240,51033,1,0
224,224,51199,1,0
256,192,51311,2,2,C|270:105,1,87.5
352,112,51866,5,2
320,80,52033,1,0
352,48,52199,1,0
432,48,52533,1,2
448,80,52699,1,0
464,112,52866,1,0
464,144,53033,1,0
464,176,53199,1,0
448,208,53366,1,0
416,224,53533,1,0
384,240,53699,1,0
352,240,53866,1,0
304,240,54033,2,2,C|256:160,1,70
208,240,54533,5,2
176,272,54699,1,0
144,304,54866,1,0
64,304,55199,5,2
96,272,55366,1,0
128,240,55533,1,0
144,208,55699,1,0
160,176,55866,1,0
160,144,56033,1,0
144,112,56199,1,0
128,80,56366,1,0
96,64,56533,1,0
64,96,56699,2,2,C|64:169,1,70
144,144,57199,5,2
176,128,57366,1,0
208,112,57533,1,0
288,80,57866,1,2
320,64,58033,1,0
352,48,58199,1,0
384,64,58366,1,0
400,96,58533,2,2,C|400:166,1,70
352,176,58866,2,2,C|352:248,1,70
304,256,59199,1,4
448,128,59866,5,2
384,80,60199,1,2
304,80,60532,1,2
336,112,60699,1,0
368,144,60865,1,0
432,192,61199,1,2
400,208,61365,1,0
368,192,61532,1,0
336,208,61699,1,0
304,192,61866,1,0
272,208,61977,2,2,C|258:121,1,87.5
176,112,62532,5,2
192,80,62699,1,0
176,48,62866,1,0
96,48,63199,1,2
64,80,63366,1,0
48,112,63532,1,0
48,144,63699,1,0
48,176,63866,1,0
64,208,64032,1,0
96,224,64199,1,0
128,224,64366,1,0
160,224,64532,1,0
192,224,64699,2,2,C|224:144,1,70
288,224,65199,5,2
320,240,65366,1,0
352,256,65532,1,0
432,256,65866,1,2
448,224,66032,1,0
464,192,66199,1,0
448,160,66366,1,0
416,128,66532,1,0
384,96,66699,1,0
352,80,66866,1,0
384,48,67032,1,0
416,32,67199,1,0
464,32,67366,2,2,C|464:105,1,70
368,144,67865,5,2
336,128,68032,1,0
304,112,68199,1,0
224,80,68532,1,2
192,64,68699,1,0
160,48,68865,1,0
128,64,69032,1,0
96,80,69199,1,0
96,160,69532,2,2,C|168:160,1,70
128,224,70032,2,2,C|198:224,1,70
160,288,70532,2,2,C|232:288,1,70
256,224,71032,2,2,C|326:224,1,70
288,160,71532,2,2,B|144:160,1,140
112,96,72866,5,2
16,272,73644,6,2,B|112:272,1,93.3333333333333
224,272,74311,6,2,B|448:272,1,210
432,112,75366,6,2,B|176:112,1,233.333333333333
16,112,76811,6,2,B|16:336,1,210
80,288,77588,6,2,B|208:288,1,116.666666666667
448,304,79366,6,2,B|480:176|464:80|368:32,1,303.333333333333
288,80,80477,6,2,B|192:144,1,93.3333333333333
144,192,81033,6,2,B|288:192,1,140
368,192,81699,6,2,B|368:336,1,140
192,320,82755,6,2,B|64:320,1,116.666666666667
80,256,83311,6,2,B|144:256,1,46.6666666666667
272,256,84033,5,4
336,176,84699,5,2
320,144,84866,1,0
304,112,85033,1,0
224,112,85366,1,2
208,80,85532,1,0
192,48,85699,1,0
128,96,86033,1,2
96,128,86199,1,0
80,160,86366,1,0
96,192,86533,1,0
128,224,86699,2,0,C|176:272|231:222,1,140
256,192,87199,1,0
304,192,87366,5,2
336,160,87533,1,0
368,128,87699,1,0
368,48,88033,5,2
336,80,88199,1,0
304,112,88366,1,0
224,112,88699,5,2
224,64,88866,1,0
240,32,89033,1,0
288,16,89199,1,0
336,32,89366,2,0,C|346:48|394:64,1,70
432,80,89699,1,0
464,112,89866,1,0
480,144,90033,5,2
496,176,90199,1,0
480,208,90366,1,0
400,240,90699,5,2
368,256,90866,1,0
336,240,91033,1,0
256,240,91366,5,2
224,256,91533,1,0
192,240,91699,1,0
112,240,92033,5,2
80,256,92199,1,0
48,240,92366,1,0
80,208,92533,1,0
112,176,92699,2,2,C|192:176,1,70
192,128,93033,2,2,C|122:128,1,70
112,80,93366,2,2,C|192:80,1,70
224,80,93699,1,4
288,144,94033,5,2
352,96,94366,1,4
416,48,94699,1,2
448,144,96699,5,2
368,176,97033,1,4
288,208,97366,1,2
80,144,99366,5,2
160,96,99699,1,4
240,48,100033,1,2
448,208,102033,5,2
416,224,102199,1,0
384,240,102366,1,0
352,240,102533,1,0
320,224,102699,1,0
288,208,102866,1,2
224,160,103199,1,4
80,64,103866,5,4
240,64,104533,5,4
400,64,105199,5,4
448,224,105866,2,2,C|416:352|25:337,1,536.666666666667
448,128,108699,5,2
416,96,108866,1,0
384,64,109033,1,0
304,64,109366,1,2
336,96,109533,1,0
368,128,109699,1,0
432,192,110033,1,2
400,224,110199,1,0
368,240,110366,1,0
320,240,110533,1,0
288,224,110699,1,0
256,192,110811,2,2,C|242:105,1,87.5
160,112,111366,5,2
192,80,111533,1,0
160,48,111699,1,0
80,48,112033,1,2
64,80,112199,1,0
48,112,112366,1,0
48,144,112533,1,0
48,176,112699,1,0
64,208,112866,1,0
96,224,113033,1,0
128,240,113199,1,0
160,240,113366,1,0
208,240,113533,2,2,C|256:160,1,70
304,240,114033,5,2
336,272,114199,1,0
368,304,114366,1,0
448,304,114699,5,2
416,272,114866,1,0
384,240,115033,1,0
368,208,115199,1,0
352,176,115366,1,0
352,144,115533,1,0
368,112,115699,1,0
384,80,115866,1,0
416,64,116033,1,0
448,96,116199,2,2,C|448:169,1,70
368,144,116699,5,2
336,128,116866,1,0
304,112,117033,1,0
224,80,117366,1,2
192,64,117533,1,0
160,48,117699,1,0
128,64,117866,1,0
112,96,118033,2,2,C|112:166,1,70
160,176,118366,2,2,C|160:248,1,70
208,256,118699,1,4
64,128,119366,5,2
128,80,119699,1,2
208,80,120032,1,2
176,112,120199,1,0
144,144,120365,1,0
80,192,120699,1,2
112,208,120865,1,0
144,192,121032,1,0
176,208,121199,1,0
208,192,121366,1,0
240,208,121477,2,2,C|254:121,1,87.5
336,112,122032,5,2
320,80,122199,1,0
336,48,122366,1,0
416,48,122699,1,2
448,80,122866,1,0
464,112,123032,1,0
464,144,123199,1,0
464,176,123366,1,0
448,208,123532,1,0
416,224,123699,1,0
384,224,123866,1,0
352,224,124032,1,0
304,224,124199,2,2,C|272:144,1,70
224,224,124699,5,2
192,240,124866,1,0
160,256,125032,1,0
80,256,125366,1,2
64,224,125532,1,0
48,192,125699,1,0
64,160,125866,1,0
96,128,126032,1,0
128,96,126199,1,0
160,80,126366,1,0
128,48,126532,1,0
96,32,126699,1,0
48,32,126866,2,2,C|48:105,1,70
144,144,127365,5,2
176,128,127532,1,0
208,112,127699,1,0
288,80,128032,1,2
320,64,128199,1,0
352,48,128365,1,0
384,64,128532,1,0
416,80,128699,1,0
416,160,129032,2,2,C|344:160,1,70
384,224,129532,2,2,C|314:224,1,70
352,288,130032,2,2,C|280:288,1,70
256,224,130532,2,2,C|186:224,1,70
224,160,131032,2,2,B|368:160,1,140
432,112,131699,5,2
432,112,131866,1,2
368,64,132199,1,2
288,16,132533,1,2
240,64,132810,6,2,B|320:96,1,70
352,128,133199,2,2,B|320:192,1,70
432,272,134032,5,2
368,208,134365,1,2
368,208,134532,1,2
368,128,134865,1,2
288,80,135199,1,2
288,144,135477,5,0
240,144,135643,2,2,B|176:170,1,70
176,192,135921,2,2,B|232:234,1,70
80,272,136699,5,2
144,208,137032,1,2
144,208,137199,1,2
144,128,137532,1,2
224,80,137866,1,2
224,176,138254,6,0,B|336:176,1,93.3333333333333
384,176,138754,5,4
176,192,140032,5,0
336,192,140699,1,0
256,112,141365,1,0
256,272,142032,1,0
256,192,143144,1,4
352,192,143588,1,4
496,192,144588,2,6,B|336:272|144:288|64:208,1,443.333333333333
