osu file format v10

[General]
AudioFilename: watch.mp3
AudioLeadIn: 0
PreviewTime: 121926
Countdown: 0
SampleSet: Soft
StackLeniency: 0.2
Mode: 1
LetterboxInBreaks: 0

[Editor]
Bookmarks: 15154,24707,31871,34334,72729,91911,196326
DistanceSpacing: 0.8
BeatDivisor: 8
GridSize: 8

[Metadata]
Title:Overdrive! (Remix)
TitleUnicode:Overdrive! (Remix)
Artist:IOSYS
ArtistUnicode:IOSYS
Creator:Verdisphena
Version:lepidon! - Taiko Oni
Source:Touhou
Tags:epidopodus Project Invisible Full Moon Udongein usagi miko Kanbu Tomatte Kyouki Japanese
BeatmapID:77014
BeatmapSetID:22165

[Difficulty]
HPDrainRate:5
CircleSize:5
OverallDifficulty:5
ApproachRate:5
SliderMultiplier:1.4
SliderTickRate:2

[Events]
//Background and Video events
0,0,"creoqueestoesparaverdi.jpg"
//Break Periods
//Storyboard Layer 0 (Background)
//Storyboard Layer 1 (Fail)
//Storyboard Layer 2 (Pass)
//Storyboard Layer 3 (Foreground)
//Storyboard Sound Samples
//Background Colour Transformations
3,100,163,162,255

[TimingPoints]
711,300,4,2,0,100,1,0
150726,-100,4,2,0,100,0,1
178326,-100,4,2,0,100,0,0

[Colours]
Combo1 : 202,0,86
Combo2 : 255,191,222
Combo3 : 2,10,77

[HitObjects]
336,192,15126,1,0,0:0:0
392,184,15276,1,8,0:0:0
440,160,15426,1,0,0:0:0
480,264,15576,1,8,0:0:0
480,208,15726,1,0,0:0:0
432,184,15876,1,8,0:0:0
424,240,16026,1,0,0:0:0
408,184,16176,1,8,0:0:0
336,192,16326,1,0,0:0:0
392,184,16476,1,8,0:0:0
440,160,16626,1,0,0:0:0
480,264,16776,1,8,0:0:0
480,208,16926,1,0,0:0:0
432,184,17076,1,8,0:0:0
424,240,17226,1,0,0:0:0
408,184,17376,1,8,0:0:0
336,192,17526,1,0,0:0:0
392,184,17676,1,8,0:0:0
440,160,17826,1,0,0:0:0
480,264,17976,1,8,0:0:0
480,208,18126,1,0,0:0:0
432,184,18276,1,8,0:0:0
424,240,18426,1,0,0:0:0
408,184,18576,1,8,0:0:0
352,176,18726,1,0,0:0:0
312,136,18876,1,8,0:0:0
368,136,19026,1,0,0:0:0
424,144,19176,1,8,0:0:0
384,104,19326,1,0,0:0:0
384,160,19476,1,0,0:0:0
376,184,19551,1,0,0:0:0
376,208,19626,1,8,0:0:0
376,224,19676,1,8,0:0:0
376,240,19726,1,8,0:0:0
376,256,19776,1,8,0:0:0
328,224,19926,5,0,0:0:0
336,168,20076,1,8,0:0:0
392,160,20226,1,0,0:0:0
448,168,20376,1,8,0:0:0
440,224,20526,1,0,0:0:0
408,176,20676,1,8,0:0:0
408,120,20826,1,0,0:0:0
376,168,20976,1,8,0:0:0
328,224,21126,1,0,0:0:0
336,168,21276,1,8,0:0:0
392,160,21426,1,0,0:0:0
448,168,21576,1,8,0:0:0
440,224,21726,1,0,0:0:0
408,176,21876,1,8,0:0:0
408,120,22026,1,0,0:0:0
376,168,22176,1,8,0:0:0
320,168,22326,1,0,0:0:0
376,168,22476,1,8,0:0:0
384,192,22551,1,8,0:0:0
392,216,22626,1,0,0:0:0
432,176,22776,1,8,0:0:0
408,224,22926,1,0,0:0:0
384,192,23076,1,8,0:0:0
408,200,23151,1,8,0:0:0
416,224,23226,1,0,0:0:0
368,192,23376,1,8,0:0:0
328,232,23526,1,0,0:0:0
280,200,23676,1,0,0:0:0
256,184,23751,1,0,0:0:0
280,168,23826,1,8,0:0:0
432,176,23976,1,0,0:0:0
448,200,24051,1,0,0:0:0
456,224,24126,1,8,0:0:0
176,256,24276,1,0,0:0:0
200,240,24351,1,0,0:0:0
384,192,24426,1,8,0:0:0
384,192,24476,1,8,0:0:0
384,192,24526,1,8,0:0:0
384,192,24576,1,8,0:0:0
336,192,24726,5,0,0:0:0
392,184,24876,1,8,0:0:0
440,160,25026,1,0,0:0:0
480,264,25176,1,8,0:0:0
480,208,25326,1,0,0:0:0
432,184,25476,1,8,0:0:0
424,240,25626,1,0,0:0:0
408,184,25776,1,8,0:0:0
336,192,25926,1,0,0:0:0
392,184,26076,1,8,0:0:0
440,160,26226,1,0,0:0:0
480,264,26376,1,8,0:0:0
480,208,26526,1,0,0:0:0
432,184,26676,1,8,0:0:0
424,240,26826,1,0,0:0:0
408,184,26976,1,8,0:0:0
336,192,27126,1,0,0:0:0
392,184,27276,1,8,0:0:0
440,160,27426,1,0,0:0:0
480,264,27576,1,8,0:0:0
480,208,27726,1,0,0:0:0
432,184,27876,1,8,0:0:0
424,240,28026,1,0,0:0:0
408,184,28176,1,8,0:0:0
352,176,28326,1,0,0:0:0
312,136,28476,1,8,0:0:0
368,136,28626,1,0,0:0:0
424,144,28776,1,8,0:0:0
384,104,28926,1,0,0:0:0
384,160,29076,1,0,0:0:0
376,184,29151,1,0,0:0:0
376,208,29226,1,8,0:0:0
376,224,29276,1,8,0:0:0
376,240,29326,1,8,0:0:0
376,256,29376,1,8,0:0:0
328,224,29526,5,0,0:0:0
312,136,29676,1,8,0:0:0
384,160,29826,1,0,0:0:0
440,176,29976,1,8,0:0:0
472,224,30126,1,0,0:0:0
432,184,30276,1,8,0:0:0
384,160,30426,1,0,0:0:0
440,144,30576,1,8,0:0:0
392,120,30726,1,0,0:0:0
432,184,30876,1,8,0:0:0
432,184,30951,1,8,0:0:0
432,184,31026,1,0,0:0:0
416,128,31176,1,8,0:0:0
416,184,31326,1,0,0:0:0
472,224,31476,1,8,0:0:0
448,240,31551,1,8,0:0:0
440,216,31626,1,0,0:0:0
384,208,31776,1,8,0:0:0
336,240,31926,1,0,0:0:0
312,256,32001,1,0,0:0:0
312,232,32076,1,8,0:0:0
336,184,32226,1,0,0:0:0
360,168,32301,1,0,0:0:0
432,184,32376,1,8,0:0:0
440,128,32526,1,0,0:0:0
456,152,32601,1,0,0:0:0
440,216,32676,1,8,0:0:0
416,264,32826,1,0,0:0:0
416,264,32901,1,0,0:0:0
432,240,32976,1,8,0:0:0
328,272,33126,1,0,0:0:0
304,280,33201,1,0,0:0:0
280,264,33276,1,0,0:0:0
232,232,33426,1,0,0:0:0
208,216,33501,1,0,0:0:0
184,208,33576,1,0,0:0:0
192,152,33726,1,0,0:0:0
176,176,33801,1,0,0:0:0
232,184,33876,1,0,0:0:0
256,176,33951,1,0,0:0:0
280,176,34026,1,8,0:0:0
296,176,34076,1,8,0:0:0
312,176,34126,1,8,0:0:0
328,176,34176,1,8,0:0:0
352,128,34326,5,0,0:0:0
408,144,34476,1,0,0:0:0
440,192,34626,1,8,0:0:0
424,248,34776,1,8,0:0:0
376,272,34926,1,0,0:0:0
352,280,35001,1,0,0:0:0
328,288,35076,1,0,0:0:0
280,264,35226,1,8,0:0:0
272,208,35376,1,0,0:0:0
320,176,35526,1,4,0:0:0
432,168,35826,1,4,0:0:0
368,256,36126,1,4,0:0:0
392,208,36276,1,8,0:0:0
448,224,36426,1,8,0:0:0
352,128,36726,1,0,0:0:0
408,144,36876,1,0,0:0:0
440,192,37026,1,8,0:0:0
424,248,37176,1,8,0:0:0
376,272,37326,1,0,0:0:0
352,280,37401,1,0,0:0:0
328,288,37476,1,0,0:0:0
280,264,37626,1,8,0:0:0
272,208,37776,1,8,0:0:0
320,176,37926,1,4,0:0:0
432,168,38226,1,4,0:0:0
368,256,38526,1,4,0:0:0
392,208,38676,1,8,0:0:0
448,224,38826,1,8,0:0:0
424,176,38976,1,8,0:0:0
368,168,39126,5,0,0:0:0
472,128,39426,1,8,0:0:0
448,224,39576,1,0,0:0:0
400,256,39726,1,0,0:0:0
312,184,40026,1,8,0:0:0
304,240,40176,1,0,0:0:0
264,280,40326,1,0,0:0:0
312,184,40626,1,8,0:0:0
304,240,40776,1,0,0:0:0
264,280,40926,1,0,0:0:0
312,184,41226,1,8,0:0:0
304,240,41376,1,0,0:0:0
264,280,41526,1,0,0:0:0
352,216,41826,1,8,0:0:0
400,240,41976,1,0,0:0:0
392,296,42126,1,0,0:0:0
368,304,42276,1,0,0:0:0
320,272,42426,1,0,0:0:0
272,248,42576,1,0,0:0:0
224,224,42726,1,0,0:0:0
176,192,42876,1,0,0:0:0
208,144,43026,1,0,0:0:0
264,144,43176,1,0,0:0:0
320,144,43326,1,0,0:0:0
376,160,43476,1,0,0:0:0
400,208,43626,1,8,0:0:0
392,296,43701,1,8,0:0:0
368,304,43776,1,8,0:0:0
312,296,43926,5,0,0:0:0
248,240,44151,1,0,0:0:0
224,224,44226,1,0,0:0:0
280,216,44376,1,0,0:0:0
336,224,44526,1,0,0:0:0
360,240,44601,1,0,0:0:0
384,256,44676,1,0,0:0:0
416,208,44826,1,8,0:0:0
464,184,44976,1,8,0:0:0
416,216,45126,1,0,0:0:0
352,264,45351,1,0,0:0:0
328,280,45426,1,0,0:0:0
272,272,45576,1,0,0:0:0
216,264,45726,1,0,0:0:0
192,256,45801,1,0,0:0:0
192,256,45876,1,0,0:0:0
248,232,46026,1,8,0:0:0
304,208,46176,1,8,0:0:0
352,240,46326,1,0,0:0:0
304,312,46551,1,0,0:0:0
280,320,46626,1,0,0:0:0
232,296,46776,1,0,0:0:0
216,264,46926,1,0,0:0:0
216,240,47001,1,0,0:0:0
216,216,47076,1,0,0:0:0
264,192,47226,1,8,0:0:0
320,176,47376,1,8,0:0:0
368,152,47526,1,0,0:0:0
384,232,47751,1,0,0:0:0
376,256,47826,1,0,0:0:0
336,296,47976,1,0,0:0:0
280,312,48126,1,0,0:0:0
256,312,48201,1,0,0:0:0
232,320,48276,1,0,0:0:0
280,288,48426,1,8,0:0:0
320,248,48576,1,8,0:0:0
280,208,48726,5,0,0:0:0
336,152,48951,1,0,0:0:0
360,160,49026,1,0,0:0:0
416,176,49176,1,8,0:0:0
440,232,49326,1,0,0:0:0
432,256,49401,1,0,0:0:0
416,280,49476,1,0,0:0:0
368,256,49626,1,8,0:0:0
312,248,49776,1,8,0:0:0
288,248,49851,1,8,0:0:0
280,224,49926,1,0,0:0:0
352,184,50151,1,0,0:0:0
376,176,50226,1,0,0:0:0
416,136,50376,1,8,0:0:0
360,120,50526,1,0,0:0:0
336,112,50601,1,0,0:0:0
312,112,50676,1,0,0:0:0
256,112,50826,1,0,0:0:0
232,120,50901,1,0,0:0:0
208,128,50976,1,0,0:0:0
168,200,51126,1,0,0:0:0
248,232,51351,1,0,0:0:0
272,240,51426,1,0,0:0:0
328,224,51576,1,8,0:0:0
384,232,51726,1,0,0:0:0
392,256,51801,1,0,0:0:0
384,280,51876,1,0,0:0:0
416,232,52026,1,8,0:0:0
416,176,52176,1,8,0:0:0
408,152,52251,1,8,0:0:0
384,168,52326,1,0,0:0:0
328,176,52551,1,0,0:0:0
304,168,52626,1,0,0:0:0
336,120,52776,1,8,0:0:0
392,136,52926,1,0,0:0:0
416,144,53001,1,0,0:0:0
440,152,53076,1,0,0:0:0
416,232,53226,1,0,0:0:0
400,256,53301,1,0,0:0:0
376,272,53376,1,0,0:0:0
327,243,53526,5,4,0:0:0
215,231,53826,1,4,0:0:0
288,272,54126,1,4,0:0:0
395,302,54426,1,4,0:0:0
370,251,54576,1,0,0:0:0
358,226,54651,1,0,0:0:0
378,206,54726,1,0,0:0:0
432,220,54876,1,0,0:0:0
406,207,54951,1,0,0:0:0
403,179,55026,1,8,0:0:0
378,206,55176,1,0,0:0:0
378,234,55251,1,0,0:0:0
370,251,55326,1,0,0:0:0
315,265,55476,1,0,0:0:0
288,272,55551,1,0,0:0:0
304,249,55626,1,8,0:0:0
328,198,55776,1,8,0:0:0
293,154,55926,1,4,0:0:0
223,241,56226,1,4,0:0:0
288,272,56526,1,4,0:0:0
393,310,56826,1,4,0:0:0
319,225,57126,2,4,L|112:164|108:81|233:83,1,420
325,139,58326,5,4,0:0:0
308,249,58626,1,4,0:0:0
234,290,58926,1,4,0:0:0
342,263,59226,1,0,0:0:0
387,230,59376,1,0,0:0:0
402,206,59451,1,0,0:0:0
412,179,59526,1,8,0:0:0
447,135,59676,1,0,0:0:0
449,190,59826,1,8,0:0:0
419,237,59976,1,0,0:0:0
390,285,60051,1,0,0:0:0
371,263,60126,1,8,0:0:0
335,219,60276,1,0,0:0:0
297,177,60426,1,8,0:0:0
349,157,60576,1,8,0:0:0
376,160,60651,1,8,0:0:0
398,177,60726,1,0,0:0:0
349,157,60876,1,8,0:0:0
376,160,60951,1,8,0:0:0
398,177,61026,1,0,0:0:0
349,157,61176,1,8,0:0:0
376,160,61251,1,8,0:0:0
398,177,61326,1,0,0:0:0
349,157,61476,1,8,0:0:0
376,160,61551,1,8,0:0:0
398,177,61626,1,0,0:0:0
435,218,61776,1,8,0:0:0
402,263,61926,2,0,L|148:232|176:47,1,420
320,266,63126,5,0,0:0:0
272,236,63276,1,0,0:0:0
249,219,63351,1,0,0:0:0
231,196,63426,1,0,0:0:0
223,169,63501,1,0,0:0:0
223,141,63576,1,0,0:0:0
250,141,63651,1,8,0:0:0
440,152,63726,1,0,0:0:0
272,236,63876,1,0,0:0:0
249,219,63951,1,0,0:0:0
231,196,64026,1,0,0:0:0
223,169,64101,1,0,0:0:0
223,141,64176,1,0,0:0:0
250,141,64251,1,8,0:0:0
440,152,64326,1,0,0:0:0
385,163,64476,1,0,0:0:0
387,190,64551,1,0,0:0:0
414,186,64626,1,8,0:0:0
431,207,64701,1,0,0:0:0
432,234,64776,1,0,0:0:0
414,186,64851,1,8,0:0:0
396,164,64926,1,0,0:0:0
317,84,65226,1,4,0:0:0
320,266,65526,1,0,0:0:0
272,236,65676,1,0,0:0:0
249,219,65751,1,0,0:0:0
231,196,65826,1,0,0:0:0
223,169,65901,1,0,0:0:0
223,141,65976,1,0,0:0:0
250,141,66051,1,8,0:0:0
440,152,66126,1,0,0:0:0
272,236,66276,1,0,0:0:0
249,219,66351,1,0,0:0:0
231,196,66426,1,0,0:0:0
223,169,66501,1,0,0:0:0
223,141,66576,1,0,0:0:0
250,141,66651,1,8,0:0:0
440,152,66726,1,0,0:0:0
426,206,66876,1,8,0:0:0
420,233,66951,1,8,0:0:0
408,258,67026,1,8,0:0:0
363,291,67176,1,8,0:0:0
336,301,67251,1,8,0:0:0
309,309,67326,1,8,0:0:0
320,266,67926,5,0,0:0:0
272,236,68076,1,0,0:0:0
249,219,68151,1,0,0:0:0
231,196,68226,1,0,0:0:0
223,169,68301,1,0,0:0:0
223,141,68376,1,0,0:0:0
250,141,68451,1,8,0:0:0
440,152,68526,1,0,0:0:0
272,236,68676,1,0,0:0:0
249,219,68751,1,0,0:0:0
231,196,68826,1,0,0:0:0
223,169,68901,1,0,0:0:0
223,141,68976,1,0,0:0:0
250,141,69051,1,8,0:0:0
440,152,69126,1,0,0:0:0
385,163,69276,1,0,0:0:0
387,190,69351,1,0,0:0:0
414,186,69426,1,8,0:0:0
431,207,69501,1,0,0:0:0
432,234,69576,1,0,0:0:0
414,186,69651,1,8,0:0:0
396,164,69726,1,0,0:0:0
317,84,70026,1,4,0:0:0
257,179,70326,1,0,0:0:0
264,234,70476,1,0,0:0:0
267,261,70551,1,0,0:0:0
287,280,70626,1,0,0:0:0
308,297,70701,1,0,0:0:0
335,304,70776,1,0,0:0:0
350,280,70851,1,8,0:0:0
414,186,70926,1,0,0:0:0
412,241,71076,1,0,0:0:0
410,268,71151,1,0,0:0:0
396,292,71226,1,0,0:0:0
371,305,71301,1,0,0:0:0
344,313,71376,1,0,0:0:0
414,186,71451,1,8,0:0:0
414,186,71526,1,0,0:0:0
264,234,71676,1,0,0:0:0
240,249,71751,1,0,0:0:0
214,261,71826,1,0,0:0:0
170,225,71976,1,0,0:0:0
146,209,72051,1,0,0:0:0
120,196,72126,1,0,0:0:0
229,171,72426,1,4,0:0:0
322,108,72726,5,0,0:0:0
350,155,72876,1,0,0:0:0
351,182,72951,1,0,0:0:0
378,181,73026,1,8,0:0:0
433,176,73176,1,8,0:0:0
415,122,73326,1,0,0:0:0
445,168,73476,1,8,0:0:0
441,195,73551,1,8,0:0:0
434,222,73626,1,0,0:0:0
415,169,73776,1,8,0:0:0
441,195,73926,1,0,0:0:0
401,234,74076,1,0,0:0:0
375,244,74151,1,0,0:0:0
347,246,74226,1,8,0:0:0
291,250,74376,1,8,0:0:0
378,181,74526,1,0,0:0:0
433,186,74676,1,8,0:0:0
408,199,74751,1,8,0:0:0
408,199,74826,1,8,0:0:0
410,254,74976,1,8,0:0:0
322,108,75126,1,0,0:0:0
350,155,75276,1,0,0:0:0
351,182,75351,1,0,0:0:0
378,181,75426,1,8,0:0:0
433,176,75576,1,8,0:0:0
415,122,75726,1,0,0:0:0
445,168,75876,1,8,0:0:0
441,195,75951,1,8,0:0:0
434,222,76026,1,0,0:0:0
415,169,76176,1,8,0:0:0
441,195,76326,1,0,0:0:0
401,234,76476,1,0,0:0:0
375,244,76551,1,0,0:0:0
347,246,76626,1,8,0:0:0
291,250,76776,1,8,0:0:0
378,181,76926,1,0,0:0:0
433,186,77076,1,8,0:0:0
408,199,77151,1,8,0:0:0
408,199,77226,1,8,0:0:0
322,108,77526,5,0,0:0:0
350,155,77676,1,0,0:0:0
351,182,77751,1,0,0:0:0
378,181,77826,1,8,0:0:0
433,176,77976,1,8,0:0:0
415,122,78126,1,0,0:0:0
445,168,78276,1,8,0:0:0
441,195,78351,1,8,0:0:0
434,222,78426,1,0,0:0:0
415,169,78576,1,8,0:0:0
441,195,78726,1,0,0:0:0
401,234,78876,1,0,0:0:0
375,244,78951,1,0,0:0:0
347,246,79026,1,8,0:0:0
291,250,79176,1,8,0:0:0
378,181,79326,1,0,0:0:0
433,186,79476,1,8,0:0:0
408,199,79551,1,8,0:0:0
408,199,79626,1,8,0:0:0
410,254,79776,1,8,0:0:0
322,108,79926,1,0,0:0:0
350,155,80076,1,0,0:0:0
351,182,80151,1,0,0:0:0
378,181,80226,1,8,0:0:0
433,176,80376,1,8,0:0:0
415,122,80526,1,0,0:0:0
445,168,80676,1,8,0:0:0
441,195,80751,1,8,0:0:0
434,222,80826,1,0,0:0:0
415,169,80976,1,8,0:0:0
441,195,81126,1,0,0:0:0
401,234,81276,1,0,0:0:0
375,244,81351,1,0,0:0:0
347,246,81426,1,8,0:0:0
291,250,81576,1,8,0:0:0
378,181,81726,1,0,0:0:0
433,186,81876,1,8,0:0:0
408,199,81951,1,8,0:0:0
408,199,82026,1,8,0:0:0
298,176,82326,5,0,0:0:0
245,196,82476,1,0,0:0:0
225,216,82551,1,0,0:0:0
252,219,82626,1,8,0:0:0
307,209,82776,1,0,0:0:0
356,183,82926,1,8,0:0:0
401,215,83076,1,0,0:0:0
413,239,83151,1,0,0:0:0
415,211,83226,1,8,0:0:0
443,259,83376,1,0,0:0:0
393,285,83526,1,0,0:0:0
365,291,83601,1,0,0:0:0
337,295,83676,1,0,0:0:0
309,298,83751,1,0,0:0:0
318,271,83826,1,8,0:0:0
347,223,83976,1,0,0:0:0
389,186,84126,1,8,0:0:0
415,193,84201,1,0,0:0:0
437,210,84276,1,0,0:0:0
460,224,84351,1,0,0:0:0
443,201,84426,1,8,0:0:0
429,146,84576,1,0,0:0:0
365,291,84726,1,0,0:0:0
331,246,84876,1,0,0:0:0
314,223,84951,1,0,0:0:0
308,195,85026,1,8,0:0:0
331,246,85176,1,0,0:0:0
314,223,85251,1,0,0:0:0
308,195,85326,1,8,0:0:0
331,246,85476,1,0,0:0:0
314,223,85551,1,0,0:0:0
308,195,85626,1,8,0:0:0
253,183,85776,1,0,0:0:0
262,127,85926,1,0,0:0:0
289,120,86001,1,0,0:0:0
316,120,86076,1,0,0:0:0
342,130,86151,1,0,0:0:0
367,141,86226,1,8,0:0:0
367,196,86376,1,0,0:0:0
371,251,86526,1,0,0:0:0
426,247,86676,1,12,0:0:0
339,317,86976,1,12,0:0:0
291,288,87126,5,0,0:0:0
247,252,87276,1,0,0:0:0
233,227,87351,1,0,0:0:0
367,141,87426,1,8,0:0:0
415,169,87576,1,0,0:0:0
470,174,87726,1,8,0:0:0
472,201,87801,1,0,0:0:0
470,228,87876,1,0,0:0:0
414,222,88026,1,8,0:0:0
388,210,88101,1,0,0:0:0
360,207,88176,1,0,0:0:0
348,152,88326,1,0,0:0:0
367,141,88476,1,0,0:0:0
386,160,88551,1,0,0:0:0
415,169,88626,1,8,0:0:0
414,222,88776,1,0,0:0:0
416,249,88851,1,0,0:0:0
426,223,88926,1,8,0:0:0
399,232,89001,1,0,0:0:0
384,256,89076,1,0,0:0:0
418,212,89226,1,8,0:0:0
374,315,89526,1,0,0:0:0
277,258,89826,1,0,0:0:0
305,149,90126,1,0,0:0:0
411,184,90426,1,0,0:0:0
418,212,90576,1,0,0:0:0
389,259,90726,1,0,0:0:0
277,258,90876,1,0,0:0:0
245,211,91026,1,0,0:0:0
286,248,91176,1,0,0:0:0
329,283,91326,1,0,0:0:0
377,310,91476,1,0,0:0:0
401,323,91551,1,0,0:0:0
401,323,91626,1,0,0:0:0
401,323,91776,1,0,0:0:0
368,277,91926,5,0,0:0:0
345,225,92076,1,0,0:0:0
355,199,92151,1,0,0:0:0
382,191,92226,1,8,0:0:0
435,176,92376,1,8,0:0:0
368,277,92526,1,0,0:0:0
349,297,92601,1,0,0:0:0
321,303,92676,1,0,0:0:0
382,191,92826,1,8,0:0:0
377,246,92976,1,0,0:0:0
368,277,93051,1,0,0:0:0
368,277,93126,1,0,0:0:0
379,302,93201,1,0,0:0:0
398,281,93276,1,0,0:0:0
399,220,93426,1,8,0:0:0
396,164,93576,1,8,0:0:0
349,194,93726,1,0,0:0:0
324,207,93801,1,0,0:0:0
299,220,93876,1,0,0:0:0
273,230,93951,1,0,0:0:0
247,241,94026,1,0,0:0:0
288,203,94176,1,8,0:0:0
396,164,94326,1,0,0:0:0
429,209,94476,1,0,0:0:0
437,235,94551,1,0,0:0:0
437,207,94626,1,8,0:0:0
429,209,94776,1,0,0:0:0
437,235,94851,1,0,0:0:0
437,207,94926,1,8,0:0:0
429,209,95076,1,0,0:0:0
437,235,95151,1,0,0:0:0
437,207,95226,1,8,0:0:0
429,209,95376,1,0,0:0:0
437,235,95451,1,0,0:0:0
437,207,95526,1,8,0:0:0
429,209,95676,1,0,0:0:0
437,235,95751,1,0,0:0:0
437,207,95826,1,8,0:0:0
409,202,95901,1,0,0:0:0
381,199,95976,1,0,0:0:0
353,196,96051,1,0,0:0:0
359,168,96126,1,8,0:0:0
406,137,96276,1,8,0:0:0
431,147,96351,1,0,0:0:0
452,165,96426,1,8,0:0:0
340,159,96726,5,0,0:0:0
312,162,96801,1,0,0:0:0
258,177,96951,1,0,0:0:0
232,187,97026,1,0,0:0:0
180,208,97176,1,0,0:0:0
234,221,97326,1,8,0:0:0
287,236,97476,1,8,0:0:0
313,244,97551,1,8,0:0:0
339,253,97626,1,8,0:0:0
340,159,97926,1,0,0:0:0
312,162,98001,1,0,0:0:0
258,177,98151,1,0,0:0:0
232,187,98226,1,0,0:0:0
180,208,98376,1,0,0:0:0
234,221,98526,1,8,0:0:0
287,236,98676,1,8,0:0:0
313,244,98751,1,8,0:0:0
339,253,98826,1,8,0:0:0
279,157,99126,1,0,0:0:0
300,138,99201,1,0,0:0:0
356,138,99351,1,0,0:0:0
382,147,99426,1,0,0:0:0
394,201,99576,1,0,0:0:0
387,228,99651,1,0,0:0:0
345,266,99801,1,0,0:0:0
320,279,99876,1,0,0:0:0
349,231,100026,1,8,0:0:0
404,240,100176,1,8,0:0:0
321,164,100476,1,4,0:0:0
235,236,100776,1,4,0:0:0
326,301,101076,1,4,0:0:0
216,173,101526,5,0,0:0:0
243,168,101601,1,8,0:0:0
270,170,101676,1,0,0:0:0
297,173,101751,1,0,0:0:0
324,173,101826,1,8,0:0:0
373,198,101976,1,0,0:0:0
393,217,102051,1,0,0:0:0
409,194,102126,1,8,0:0:0
423,170,102201,1,8,0:0:0
412,115,102351,1,8,0:0:0
423,140,102426,1,0,0:0:0
427,167,102501,1,0,0:0:0
439,191,102576,1,8,0:0:0
216,173,102726,1,0,0:0:0
243,168,102801,1,8,0:0:0
270,170,102876,1,0,0:0:0
297,173,102951,1,0,0:0:0
324,173,103026,1,8,0:0:0
373,198,103176,1,0,0:0:0
393,217,103251,1,0,0:0:0
409,194,103326,1,8,0:0:0
423,170,103401,1,8,0:0:0
412,115,103551,1,8,0:0:0
423,140,103626,1,0,0:0:0
427,167,103701,1,0,0:0:0
439,191,103776,1,8,0:0:0
216,173,103926,1,0,0:0:0
243,168,104001,1,8,0:0:0
270,170,104076,1,0,0:0:0
297,173,104151,1,0,0:0:0
324,173,104226,1,8,0:0:0
373,198,104376,1,0,0:0:0
393,217,104451,1,0,0:0:0
409,194,104526,1,8,0:0:0
423,170,104601,1,8,0:0:0
412,115,104751,1,8,0:0:0
423,140,104826,1,0,0:0:0
427,167,104901,1,0,0:0:0
439,191,104976,1,8,0:0:0
412,199,105051,1,0,0:0:0
385,206,105126,1,0,0:0:0
411,214,105201,1,8,0:0:0
431,233,105276,1,0,0:0:0
408,181,105426,1,8,0:0:0
423,170,105576,1,0,0:0:0
450,167,105651,1,8,0:0:0
447,194,105726,1,0,0:0:0
438,220,105801,1,0,0:0:0
450,167,105951,1,8,0:0:0
439,191,106101,1,0,0:0:0
411,214,106176,1,0,0:0:0
399,188,106251,1,8,0:0:0
431,233,106326,5,0,0:0:0
408,215,106401,1,8,0:0:0
383,227,106476,1,0,0:0:0
357,239,106551,1,0,0:0:0
337,218,106626,1,8,0:0:0
360,167,106776,1,0,0:0:0
387,162,106851,1,0,0:0:0
423,170,106926,1,8,0:0:0
450,167,107001,1,8,0:0:0
450,167,107151,1,8,0:0:0
438,220,107226,1,0,0:0:0
438,220,107301,1,0,0:0:0
423,170,107376,1,8,0:0:0
432,196,107451,1,0,0:0:0
425,223,107526,1,0,0:0:0
423,170,107601,1,8,0:0:0
430,197,107676,1,0,0:0:0
428,224,107751,1,0,0:0:0
400,217,107826,1,8,0:0:0
344,209,107976,1,0,0:0:0
316,212,108051,1,0,0:0:0
292,196,108126,1,8,0:0:0
283,169,108201,1,8,0:0:0
450,167,108351,1,8,0:0:0
438,220,108426,1,0,0:0:0
438,220,108501,1,0,0:0:0
423,170,108576,1,8,0:0:0
432,196,108651,1,0,0:0:0
425,223,108726,1,0,0:0:0
423,170,108801,1,8,0:0:0
430,197,108876,1,0,0:0:0
428,224,108951,1,0,0:0:0
400,217,109026,1,8,0:0:0
344,209,109176,1,0,0:0:0
316,212,109251,1,0,0:0:0
292,196,109326,1,8,0:0:0
283,169,109401,1,8,0:0:0
332,143,109551,1,8,0:0:0
356,155,109626,1,0,0:0:0
432,196,109701,1,0,0:0:0
451,175,109776,1,8,0:0:0
437,229,109926,1,0,0:0:0
418,250,110001,1,0,0:0:0
451,175,110076,1,8,0:0:0
457,202,110151,1,0,0:0:0
456,229,110226,1,0,0:0:0
457,256,110301,1,0,0:0:0
423,170,110376,1,8,0:0:0
457,256,110451,1,0,0:0:0
457,256,110526,1,0,0:0:0
431,176,110751,1,4,0:0:0
405,96,110976,1,0,0:0:0
424,115,111051,1,8,0:0:0
396,119,111126,5,0,0:0:0
361,163,111276,1,8,0:0:0
334,212,111426,1,0,0:0:0
315,232,111501,1,0,0:0:0
341,242,111576,1,8,0:0:0
388,211,111726,1,0,0:0:0
424,168,111876,1,8,0:0:0
440,190,111951,1,0,0:0:0
411,238,112101,1,0,0:0:0
411,238,112176,1,8,0:0:0
396,119,112326,1,0,0:0:0
361,163,112476,1,8,0:0:0
334,212,112626,1,0,0:0:0
315,232,112701,1,0,0:0:0
341,242,112776,1,8,0:0:0
333,196,112926,1,0,0:0:0
305,192,113001,1,0,0:0:0
361,163,113076,1,8,0:0:0
388,168,113151,1,8,0:0:0
388,168,113226,1,0,0:0:0
388,168,113376,1,8,0:0:0
419,214,113526,1,0,0:0:0
416,241,113601,1,0,0:0:0
396,119,113676,1,8,0:0:0
341,133,113826,1,0,0:0:0
419,214,113976,1,8,0:0:0
380,254,114126,1,0,0:0:0
358,272,114201,1,0,0:0:0
361,163,114276,1,8,0:0:0
415,176,114426,1,0,0:0:0
466,198,114576,1,8,0:0:0
419,214,114726,1,0,0:0:0
412,241,114801,1,0,0:0:0
361,163,114876,1,8,0:0:0
334,173,114951,1,8,0:0:0
361,174,115026,1,0,0:0:0
419,214,115101,1,0,0:0:0
428,187,115176,1,8,0:0:0
452,173,115251,1,8,0:0:0
444,199,115326,1,0,0:0:0
434,225,115401,1,0,0:0:0
428,187,115476,1,8,0:0:0
428,187,115551,1,8,0:0:0
418,160,115626,1,0,0:0:0
434,106,115776,1,8,0:0:0
378,107,115926,5,0,0:0:0
334,142,116076,1,0,0:0:0
312,160,116151,1,0,0:0:0
330,181,116226,1,8,0:0:0
359,228,116376,1,0,0:0:0
368,254,116451,1,0,0:0:0
395,259,116526,1,8,0:0:0
341,241,116676,1,0,0:0:0
314,231,116751,1,0,0:0:0
288,220,116826,1,8,0:0:0
262,209,116976,1,8,0:0:0
378,107,117126,1,0,0:0:0
334,142,117276,1,0,0:0:0
312,160,117351,1,0,0:0:0
330,181,117426,1,8,0:0:0
359,228,117576,1,0,0:0:0
368,254,117651,1,0,0:0:0
395,259,117726,1,8,0:0:0
390,231,117801,1,8,0:0:0
341,241,117876,1,0,0:0:0
314,231,117951,1,0,0:0:0
288,220,118026,1,8,0:0:0
262,209,118176,1,8,0:0:0
317,200,118326,1,0,0:0:0
344,192,118401,1,0,0:0:0
320,192,118476,1,0,0:0:0
296,192,118551,1,0,0:0:0
272,192,118626,1,0,0:0:0
216,192,118776,1,0,0:0:0
160,176,118926,1,0,0:0:0
136,168,119001,1,0,0:0:0
112,160,119076,1,0,0:0:0
88,144,119151,1,0,0:0:0
88,144,119226,1,0,0:0:0
144,144,119376,1,0,0:0:0
200,144,119526,1,8,0:0:0
224,144,119601,1,8,0:0:0
248,152,119676,1,0,0:0:0
272,160,119751,1,0,0:0:0
296,168,119826,1,8,0:0:0
320,176,119901,1,8,0:0:0
344,184,119976,1,0,0:0:0
368,200,120051,1,0,0:0:0
392,216,120126,1,8,0:0:0
408,240,120201,1,8,0:0:0
392,264,120276,1,0,0:0:0
376,288,120351,1,0,0:0:0
352,304,120426,1,0,0:0:0
208,160,121926,5,0,0:0:0
320,184,122226,1,8,0:0:0
432,208,122526,1,0,0:0:0
408,256,122676,1,0,0:0:0
392,200,122826,1,8,0:0:0
464,112,123126,1,0,0:0:0
432,208,123276,1,0,0:0:0
416,232,123351,1,0,0:0:0
424,208,123426,1,8,0:0:0
416,152,123576,1,0,0:0:0
392,208,123726,1,8,0:0:0
416,232,123876,1,0,0:0:0
384,280,124026,1,0,0:0:0
384,280,124101,1,0,0:0:0
392,256,124176,1,8,0:0:0
360,208,124326,1,8,0:0:0
384,96,124626,1,0,0:0:0
456,176,124926,1,8,0:0:0
440,232,125076,1,8,0:0:0
424,176,125226,1,0,0:0:0
392,128,125376,1,8,0:0:0
392,128,125526,1,0,0:0:0
424,176,125676,1,8,0:0:0
408,232,125826,1,0,0:0:0
384,248,125901,1,0,0:0:0
384,224,125976,1,8,0:0:0
376,200,126051,1,0,0:0:0
352,192,126126,1,0,0:0:0
296,176,126276,1,0,0:0:0
304,120,126426,1,8,0:0:0
216,184,126726,5,0,0:0:0
424,176,127026,1,8,0:0:0
440,184,127326,1,0,0:0:0
432,240,127476,1,0,0:0:0
440,184,127626,1,8,0:0:0
464,136,127776,1,0,0:0:0
408,144,127926,1,8,0:0:0
456,168,128076,1,0,0:0:0
512,176,128226,1,8,0:0:0
424,176,128376,1,0,0:0:0
392,216,128526,1,0,0:0:0
376,240,128601,1,0,0:0:0
376,240,128676,1,0,0:0:0
368,184,128826,1,8,0:0:0
400,232,128976,1,0,0:0:0
424,176,129126,1,8,0:0:0
424,176,129276,1,8,0:0:0
424,176,129351,1,8,0:0:0
456,168,129426,1,0,0:0:0
400,160,129576,1,8,0:0:0
416,104,129726,1,8,0:0:0
440,152,129876,1,0,0:0:0
424,176,130026,1,8,0:0:0
416,232,130176,1,0,0:0:0
368,256,130326,1,0,0:0:0
312,264,130476,1,0,0:0:0
328,240,130551,1,8,0:0:0
344,216,130626,1,8,0:0:0
352,192,130701,1,8,0:0:0
352,168,130776,1,0,0:0:0
352,144,130851,1,8,0:0:0
456,168,130926,1,0,0:0:0
488,120,131076,1,8,0:0:0
480,176,131226,1,0,0:0:0
496,232,131376,1,8,0:0:0
352,144,131526,5,8,0:0:0
352,200,131676,1,0,0:0:0
344,224,131751,1,0,0:0:0
368,232,131826,1,8,0:0:0
336,280,131976,1,0,0:0:0
360,288,132051,1,0,0:0:0
352,168,132126,1,8,0:0:0
408,176,132276,1,0,0:0:0
416,200,132351,1,0,0:0:0
424,176,132426,1,8,0:0:0
400,224,132576,1,0,0:0:0
416,248,132651,1,0,0:0:0
408,224,132726,1,8,0:0:0
352,200,132876,1,0,0:0:0
344,224,132951,1,0,0:0:0
368,232,133026,1,8,0:0:0
336,280,133176,1,0,0:0:0
360,288,133251,1,0,0:0:0
352,168,133326,1,8,0:0:0
408,176,133476,1,0,0:0:0
416,200,133551,1,0,0:0:0
424,176,133626,1,8,0:0:0
400,224,133776,1,0,0:0:0
416,248,133851,1,0,0:0:0
408,224,133926,1,8,0:0:0
352,200,134076,1,0,0:0:0
344,224,134151,1,0,0:0:0
368,232,134226,1,8,0:0:0
336,280,134376,1,0,0:0:0
360,288,134451,1,0,0:0:0
352,168,134526,1,8,0:0:0
408,176,134676,1,0,0:0:0
416,200,134751,1,0,0:0:0
424,176,134826,1,8,0:0:0
400,224,134976,1,0,0:0:0
416,248,135051,1,0,0:0:0
408,224,135126,1,8,0:0:0
352,200,135276,1,0,0:0:0
344,224,135351,1,0,0:0:0
368,232,135426,1,8,0:0:0
336,280,135576,1,0,0:0:0
360,288,135651,1,0,0:0:0
352,168,135726,1,8,0:0:0
408,176,135876,1,0,0:0:0
416,200,135951,1,0,0:0:0
424,176,136026,1,8,0:0:0
400,224,136176,1,0,0:0:0
416,248,136251,1,0,0:0:0
408,224,136326,5,8,0:0:0
352,200,136476,1,0,0:0:0
344,224,136551,1,0,0:0:0
368,232,136626,1,8,0:0:0
336,280,136776,1,0,0:0:0
360,288,136851,1,0,0:0:0
352,168,136926,1,8,0:0:0
408,176,137076,1,0,0:0:0
416,200,137151,1,0,0:0:0
424,176,137226,1,8,0:0:0
400,224,137376,1,0,0:0:0
416,248,137451,1,0,0:0:0
408,224,137526,1,8,0:0:0
352,200,137676,1,0,0:0:0
344,224,137751,1,0,0:0:0
368,232,137826,1,8,0:0:0
336,280,137976,1,0,0:0:0
360,288,138051,1,0,0:0:0
352,168,138126,1,8,0:0:0
408,176,138276,1,0,0:0:0
416,200,138351,1,0,0:0:0
424,176,138426,1,8,0:0:0
400,224,138576,1,0,0:0:0
416,248,138651,1,0,0:0:0
408,224,138726,1,8,0:0:0
352,200,138876,1,0,0:0:0
344,224,138951,1,0,0:0:0
368,232,139026,1,8,0:0:0
336,280,139176,1,0,0:0:0
360,288,139251,1,0,0:0:0
352,168,139326,1,8,0:0:0
408,176,139476,1,0,0:0:0
416,200,139551,1,0,0:0:0
424,176,139626,1,8,0:0:0
400,224,139776,1,0,0:0:0
416,248,139851,1,0,0:0:0
408,224,139926,1,8,0:0:0
352,168,140001,1,8,0:0:0
344,224,140076,1,0,0:0:0
320,224,140151,1,0,0:0:0
320,200,140226,1,8,0:0:0
352,168,140301,1,8,0:0:0
352,200,140376,1,0,0:0:0
368,232,140451,1,0,0:0:0
352,168,140526,1,8,0:0:0
376,176,140601,1,8,0:0:0
376,200,140676,1,0,0:0:0
392,144,140826,1,4,0:0:0
280,128,141126,5,0,0:0:0
272,184,141276,1,0,0:0:0
264,208,141351,1,0,0:0:0
288,216,141426,1,8,0:0:0
328,256,141576,1,0,0:0:0
376,288,141726,1,0,0:0:0
400,304,141801,1,0,0:0:0
408,280,141876,1,8,0:0:0
360,256,142026,1,0,0:0:0
304,272,142176,1,0,0:0:0
280,280,142251,1,0,0:0:0
256,288,142326,1,0,0:0:0
296,248,142476,1,8,0:0:0
320,232,142551,1,8,0:0:0
368,208,142701,1,8,0:0:0
392,200,142776,1,8,0:0:0
448,184,142926,1,8,0:0:0
424,192,143001,1,8,0:0:0
424,192,143151,1,8,0:0:0
424,192,143226,1,8,0:0:0
400,240,143376,1,8,0:0:0
368,192,143526,1,0,0:0:0
352,168,143601,1,0,0:0:0
336,144,143676,1,0,0:0:0
360,144,143751,1,8,0:0:0
384,152,143826,1,0,0:0:0
368,192,143976,1,0,0:0:0
352,168,144051,1,0,0:0:0
336,144,144126,1,0,0:0:0
360,144,144201,1,8,0:0:0
384,152,144276,1,0,0:0:0
368,192,144426,1,0,0:0:0
352,168,144501,1,0,0:0:0
336,144,144576,1,0,0:0:0
360,144,144651,1,8,0:0:0
384,152,144726,1,0,0:0:0
416,200,144876,1,8,0:0:0
440,216,144951,1,8,0:0:0
440,216,145101,1,8,0:0:0
416,232,145176,1,8,0:0:0
368,264,145326,1,8,0:0:0
344,272,145401,1,8,0:0:0
288,272,145476,1,8,0:0:0
256,168,145776,1,0,0:0:0
200,168,145926,5,0,0:0:0
176,184,146001,1,0,0:0:0
152,200,146076,1,0,0:0:0
112,240,146226,1,0,0:0:0
112,264,146301,1,0,0:0:0
128,288,146376,1,0,0:0:0
184,280,146526,1,0,0:0:0
208,280,146601,1,0,0:0:0
232,272,146676,1,8,0:0:0
256,264,146751,1,8,0:0:0
280,256,146826,1,0,0:0:0
304,248,146901,1,0,0:0:0
328,240,146976,1,0,0:0:0
376,224,147126,1,0,0:0:0
368,200,147201,1,0,0:0:0
360,176,147276,1,0,0:0:0
344,120,147426,1,0,0:0:0
336,96,147501,1,0,0:0:0
336,96,147576,1,0,0:0:0
384,120,147726,1,0,0:0:0
392,144,147801,1,0,0:0:0
400,168,147876,1,8,0:0:0
416,192,147951,1,8,0:0:0
432,216,148026,1,0,0:0:0
408,264,148176,1,8,0:0:0
280,256,148326,1,0,0:0:0
256,240,148401,1,0,0:0:0
240,216,148476,1,0,0:0:0
224,192,148551,1,0,0:0:0
248,184,148626,1,8,0:0:0
400,168,148776,1,0,0:0:0
400,168,148851,1,0,0:0:0
392,192,148926,1,0,0:0:0
416,192,149001,1,8,0:0:0
440,200,149076,1,8,0:0:0
392,144,149226,1,0,0:0:0
392,144,149301,1,0,0:0:0
392,144,149376,1,0,0:0:0
400,168,149451,1,0,0:0:0
424,168,149526,1,8,0:0:0
448,168,149601,1,8,0:0:0
424,168,149676,1,8,0:0:0
440,200,149751,1,8,0:0:0
448,224,149826,1,0,0:0:0
440,248,149901,1,0,0:0:0
440,200,149976,1,8,0:0:0
416,192,150051,1,8,0:0:0
416,216,150126,1,0,0:0:0
400,240,150201,1,0,0:0:0
376,256,150276,1,0,0:0:0
352,264,150351,1,0,0:0:0
328,272,150426,1,0,0:0:0
232,216,150726,5,0,0:0:0
208,200,150801,1,0,0:0:0
192,176,150876,1,0,0:0:0
248,168,151026,1,8,0:0:0
272,168,151101,1,8,0:0:0
296,168,151176,1,8,0:0:0
352,168,151326,1,0,0:0:0
376,176,151401,1,0,0:0:0
400,176,151476,1,0,0:0:0
400,176,151626,1,8,0:0:0
416,216,151701,1,8,0:0:0
400,240,151776,1,8,0:0:0
232,216,151926,1,0,0:0:0
208,200,152001,1,0,0:0:0
192,176,152076,1,0,0:0:0
248,168,152226,1,8,0:0:0
272,168,152301,1,8,0:0:0
296,168,152376,1,8,0:0:0
352,168,152526,1,0,0:0:0
376,176,152601,1,0,0:0:0
400,176,152676,1,0,0:0:0
400,176,152826,1,8,0:0:0
416,216,152901,1,8,0:0:0
400,240,152976,1,8,0:0:0
232,216,153126,1,0,0:0:0
208,200,153201,1,0,0:0:0
192,176,153276,1,0,0:0:0
208,200,153351,1,0,0:0:0
248,168,153426,1,8,0:0:0
272,168,153501,1,8,0:0:0
296,168,153576,1,8,0:0:0
400,176,153651,1,8,0:0:0
352,168,153726,1,0,0:0:0
376,176,153801,1,0,0:0:0
400,176,153876,1,0,0:0:0
424,160,153951,1,0,0:0:0
400,176,154026,1,8,0:0:0
416,216,154101,1,8,0:0:0
400,240,154176,1,8,0:0:0
408,216,154251,1,8,0:0:0
392,240,154326,1,0,0:0:0
376,264,154401,1,0,0:0:0
352,280,154476,1,0,0:0:0
400,176,154626,1,8,0:0:0
368,128,154776,1,8,0:0:0
344,176,154926,1,0,0:0:0
328,200,155001,1,0,0:0:0
312,224,155076,1,0,0:0:0
296,248,155151,1,0,0:0:0
272,264,155226,1,0,0:0:0
288,208,155376,1,8,0:0:0
248,168,155526,5,0,0:0:0
224,152,155601,1,0,0:0:0
200,136,155676,1,0,0:0:0
184,112,155751,1,0,0:0:0
208,104,155826,1,8,0:0:0
232,96,155901,1,8,0:0:0
256,96,155976,1,8,0:0:0
248,168,156126,1,0,0:0:0
224,152,156201,1,0,0:0:0
200,136,156276,1,0,0:0:0
184,112,156351,1,0,0:0:0
208,104,156426,1,8,0:0:0
232,96,156501,1,8,0:0:0
256,96,156576,1,8,0:0:0
248,168,156726,1,0,0:0:0
224,152,156801,1,0,0:0:0
200,136,156876,1,0,0:0:0
184,112,156951,1,0,0:0:0
208,104,157026,1,8,0:0:0
232,96,157101,1,8,0:0:0
256,96,157176,1,8,0:0:0
248,168,157326,1,0,0:0:0
224,152,157401,1,0,0:0:0
200,136,157476,1,0,0:0:0
184,112,157551,1,0,0:0:0
208,104,157626,1,8,0:0:0
232,96,157701,1,8,0:0:0
256,96,157776,1,8,0:0:0
296,136,157926,1,0,0:0:0
320,152,158001,1,0,0:0:0
344,160,158076,1,8,0:0:0
368,176,158151,1,8,0:0:0
392,192,158226,1,0,0:0:0
408,216,158301,1,0,0:0:0
392,232,158376,1,8,0:0:0
368,248,158451,1,8,0:0:0
296,136,158526,1,0,0:0:0
320,152,158601,1,0,0:0:0
344,160,158676,1,8,0:0:0
368,176,158751,1,8,0:0:0
392,192,158826,1,0,0:0:0
408,216,158901,1,0,0:0:0
392,232,158976,1,8,0:0:0
368,248,159051,1,8,0:0:0
344,256,159126,1,0,0:0:0
288,264,159276,1,0,0:0:0
232,256,159426,1,0,0:0:0
200,208,159576,1,0,0:0:0
240,176,159726,1,0,0:0:0
264,160,159801,1,0,0:0:0
264,160,159876,1,0,0:0:0
264,160,159951,1,0,0:0:0
264,160,160026,1,0,0:0:0
264,160,160101,1,0,0:0:0
264,160,160176,1,0,0:0:0
320,136,160326,5,4,0:0:0
376,152,160476,1,8,0:0:0
432,160,160626,1,4,0:0:0
456,208,160776,1,8,0:0:0
416,248,160926,1,4,0:0:0
368,272,161076,1,0,0:0:0
344,280,161151,1,0,0:0:0
320,280,161226,1,8,0:0:0
336,224,161376,1,0,0:0:0
352,168,161526,1,4,0:0:0
392,128,161676,1,0,0:0:0
424,176,161826,1,12,0:0:0
376,152,161976,1,0,0:0:0
432,160,162126,1,12,0:0:0
384,184,162276,1,0,0:0:0
336,224,162351,1,0,0:0:0
312,232,162426,1,0,0:0:0
256,232,162576,1,0,0:0:0
272,176,162726,1,4,0:0:0
328,168,162876,1,8,0:0:0
336,112,163026,1,4,0:0:0
392,128,163176,1,8,0:0:0
432,168,163326,1,4,0:0:0
448,224,163476,1,0,0:0:0
432,240,163551,1,0,0:0:0
408,248,163626,1,8,0:0:0
352,272,163776,1,0,0:0:0
304,240,163926,1,4,0:0:0
208,184,164226,1,4,0:0:0
320,168,164526,1,8,0:0:0
344,168,164601,1,0,0:0:0
368,176,164676,1,0,0:0:0
392,184,164751,1,0,0:0:0
448,224,164826,1,0,0:0:0
448,224,164901,1,0,0:0:0
432,248,164976,1,0,0:0:0
424,272,165051,1,0,0:0:0
416,248,165126,5,8,0:0:0
416,224,165201,1,8,0:0:0
392,216,165276,1,0,0:0:0
208,184,165351,1,0,0:0:0
232,176,165426,1,8,0:0:0
256,168,165501,1,0,0:0:0
312,152,165651,1,8,0:0:0
336,160,165726,1,0,0:0:0
360,168,165801,1,0,0:0:0
384,168,165876,1,8,0:0:0
408,168,165951,1,0,0:0:0
432,168,166026,1,8,0:0:0
456,152,166101,1,8,0:0:0
448,224,166176,1,0,0:0:0
416,248,166326,1,8,0:0:0
416,224,166401,1,8,0:0:0
392,216,166476,1,0,0:0:0
208,184,166551,1,0,0:0:0
232,176,166626,1,8,0:0:0
256,168,166701,1,0,0:0:0
312,152,166851,1,8,0:0:0
336,160,166926,1,0,0:0:0
360,168,167001,1,0,0:0:0
384,168,167076,1,8,0:0:0
408,168,167151,1,0,0:0:0
432,168,167226,1,8,0:0:0
456,152,167301,1,0,0:0:0
456,208,167451,1,8,0:0:0
416,248,167526,1,8,0:0:0
416,224,167601,1,8,0:0:0
392,216,167676,1,0,0:0:0
208,184,167751,1,0,0:0:0
232,176,167826,1,8,0:0:0
256,168,167901,1,0,0:0:0
304,144,168051,1,8,0:0:0
432,168,168126,1,0,0:0:0
456,176,168201,1,0,0:0:0
448,152,168276,1,8,0:0:0
416,104,168426,1,8,0:0:0
416,224,168501,1,0,0:0:0
392,208,168576,1,8,0:0:0
368,192,168651,1,8,0:0:0
416,248,168726,1,8,0:0:0
416,224,168801,1,8,0:0:0
392,216,168876,1,0,0:0:0
208,184,168951,1,0,0:0:0
232,176,169026,1,8,0:0:0
256,168,169101,1,0,0:0:0
304,200,169251,1,8,0:0:0
328,208,169326,1,0,0:0:0
352,224,169401,1,8,0:0:0
416,224,169476,1,8,0:0:0
440,208,169551,1,0,0:0:0
448,152,169626,1,8,0:0:0
472,160,169701,1,0,0:0:0
448,152,169776,1,8,0:0:0
424,160,169851,1,0,0:0:0
416,184,169926,5,0,0:0:0
392,200,170001,1,0,0:0:0
368,216,170076,1,0,0:0:0
336,168,170226,1,8,0:0:0
376,128,170376,1,8,0:0:0
424,160,170451,1,0,0:0:0
440,184,170526,1,0,0:0:0
448,152,170601,1,8,0:0:0
440,208,170676,1,0,0:0:0
424,160,170826,1,8,0:0:0
432,216,170976,1,0,0:0:0
424,160,171051,1,8,0:0:0
432,184,171126,1,0,0:0:0
432,208,171201,1,0,0:0:0
424,232,171276,1,0,0:0:0
400,184,171426,1,8,0:0:0
416,128,171576,1,8,0:0:0
440,208,171651,1,0,0:0:0
432,232,171726,1,0,0:0:0
408,232,171801,1,8,0:0:0
384,240,171876,1,8,0:0:0
328,232,172026,1,0,0:0:0
272,216,172176,1,0,0:0:0
248,200,172251,1,8,0:0:0
272,192,172326,1,0,0:0:0
296,192,172401,1,0,0:0:0
320,192,172476,1,0,0:0:0
416,128,172626,1,8,0:0:0
432,184,172776,1,0,0:0:0
440,208,172851,1,0,0:0:0
440,208,172926,1,0,0:0:0
448,184,173001,1,8,0:0:0
448,160,173076,1,8,0:0:0
392,144,173226,1,0,0:0:0
448,160,173376,1,8,0:0:0
440,208,173451,1,0,0:0:0
424,232,173526,1,0,0:0:0
424,176,173676,1,8,0:0:0
368,160,173826,1,0,0:0:0
424,176,173976,1,8,0:0:0
424,176,174126,1,8,0:0:0
424,176,174201,1,8,0:0:0
432,184,174276,1,0,0:0:0
400,144,174426,1,8,0:0:0
448,160,174501,1,8,0:0:0
440,208,174576,1,0,0:0:0
392,144,174651,1,8,0:0:0
368,160,174726,5,0,0:0:0
344,176,174801,1,0,0:0:0
320,184,174876,1,0,0:0:0
272,152,175026,1,8,0:0:0
320,120,175176,1,8,0:0:0
424,176,175251,1,0,0:0:0
432,184,175326,1,0,0:0:0
456,176,175401,1,8,0:0:0
456,200,175476,1,0,0:0:0
408,232,175626,1,0,0:0:0
352,240,175776,1,8,0:0:0
320,240,175851,1,8,0:0:0
296,224,175926,1,0,0:0:0
272,208,176001,1,0,0:0:0
248,192,176076,1,0,0:0:0
216,144,176226,1,0,0:0:0
272,136,176376,1,8,0:0:0
296,136,176451,1,0,0:0:0
320,136,176526,1,0,0:0:0
344,136,176601,1,8,0:0:0
368,144,176676,1,8,0:0:0
456,200,176826,1,0,0:0:0
432,248,176976,1,8,0:0:0
416,272,177051,1,8,0:0:0
392,272,177126,1,0,0:0:0
368,272,177201,1,0,0:0:0
344,272,177276,1,0,0:0:0
336,248,177351,1,8,0:0:0
320,224,177426,1,0,0:0:0
304,200,177501,1,0,0:0:0
272,136,177576,1,0,0:0:0
296,128,177651,1,8,0:0:0
320,128,177726,1,0,0:0:0
344,128,177801,1,8,0:0:0
368,136,177876,1,8,0:0:0
392,144,177951,1,8,0:0:0
408,168,178026,1,0,0:0:0
424,192,178101,1,8,0:0:0
432,216,178176,1,8,0:0:0
432,248,178251,1,0,0:0:0
392,272,178326,1,0,0:0:0
256,192,179976,12,0,196326,0:0:0
