osu file format v10

[General]
AudioFilename: watch.mp3
AudioLeadIn: 0
PreviewTime: 121926
Countdown: 0
SampleSet: Normal
StackLeniency: 0.3
Mode: 0
LetterboxInBreaks: 0

[Editor]
Bookmarks: 13926,15201,32376,34326,107526,177126
DistanceSpacing: 1.1
BeatDivisor: 4
GridSize: 8

[Metadata]
Title:Overdrive! (Remix)
TitleUnicode:
Artist:IOSYS
ArtistUnicode:
Creator:Verdisphena
Version:Extra
Source:Touhou
Tags:lepidopodus Project Invisible Full Moon Udongein usagi miko Kanbu Tomatte Kyouki Japanese gay_stuff
BeatmapID:167683
BeatmapSetID:22165

[Difficulty]
HPDrainRate:8
CircleSize:4
OverallDifficulty:8
ApproachRate:9
SliderMultiplier:1.8
SliderTickRate:1

[Events]
//Background and Video events
Video,0,"OVERDRIVE.avi"
0,0,"bg1.jpg"
//Break Periods
2,56111,57711
2,122111,130911
//Storyboard Layer 0 (Background)
//Storyboard Layer 1 (Fail)
//Storyboard Layer 2 (Pass)
//Storyboard Layer 3 (Foreground)
//Storyboard Sound Samples
//Background Colour Transformations
3,100,163,162,255

[TimingPoints]
711,300,4,1,1,5,1,0
15111,-100,4,1,1,100,0,0
15186,-100,4,2,1,80,0,0
15411,-100,4,1,1,100,0,0
15486,-100,4,2,1,80,0,0
15711,-100,4,1,1,100,0,0
15861,-100,4,2,1,80,0,0
16011,-100,4,1,1,100,0,0
16161,-100,4,2,1,80,0,0
16311,-100,4,1,1,100,0,0
16461,-100,4,2,1,80,0,0
16611,-100,4,1,1,100,0,0
16761,-100,4,2,1,80,0,0
16911,-100,4,1,1,100,0,0
17061,-100,4,2,1,80,0,0
17211,-100,4,1,1,100,0,0
17361,-100,4,2,1,80,0,0
17511,-100,4,1,1,100,0,0
17661,-100,4,2,1,80,0,0
17811,-100,4,1,1,100,0,0
17961,-100,4,2,1,80,0,0
18111,-100,4,1,1,100,0,0
18261,-100,4,2,1,80,0,0
18411,-100,4,1,1,100,0,0
18561,-100,4,2,1,80,0,0
18711,-100,4,1,1,100,0,0
18861,-100,4,2,1,80,0,0
19011,-100,4,1,1,100,0,0
19161,-100,4,2,1,80,0,0
19311,-100,4,1,1,100,0,0
19611,-50,4,1,0,40,0,0
19911,-100,4,1,1,100,0,0
20061,-100,4,2,1,80,0,0
20211,-100,4,1,1,100,0,0
20361,-100,4,2,1,80,0,0
20511,-100,4,1,1,100,0,0
20661,-100,4,2,1,80,0,0
20811,-100,4,1,1,100,0,0
20961,-100,4,2,1,80,0,0
21111,-100,4,1,1,100,0,0
21261,-100,4,2,1,80,0,0
21411,-100,4,1,1,100,0,0
21561,-100,4,2,1,80,0,0
21711,-100,4,1,1,100,0,0
21861,-100,4,2,1,80,0,0
22011,-100,4,1,1,100,0,0
22161,-100,4,2,1,80,0,0
22311,-100,4,1,1,100,0,0
22461,-100,4,2,1,80,0,0
22611,-100,4,1,1,100,0,0
22761,-100,4,2,1,80,0,0
22911,-100,4,1,1,100,0,0
23061,-100,4,2,1,80,0,0
23211,-100,4,1,1,100,0,0
23361,-100,4,2,1,80,0,0
23511,-100,4,2,1,70,0,0
23961,-100,4,2,1,60,0,0
24261,-100,4,1,1,70,0,0
24561,-100,4,1,1,90,0,0
24711,-100,4,1,1,100,0,0
24861,-100,4,2,1,80,0,0
25011,-100,4,1,1,100,0,0
25161,-100,4,2,1,80,0,0
25311,-100,4,1,1,100,0,0
25461,-100,4,2,1,80,0,0
25611,-100,4,1,1,100,0,0
25761,-100,4,2,1,80,0,0
25911,-100,4,1,1,100,0,0
26061,-100,4,2,1,80,0,0
26211,-100,4,1,1,100,0,0
26361,-100,4,2,1,80,0,0
26511,-100,4,1,1,100,0,0
26661,-100,4,2,1,80,0,0
26811,-100,4,1,1,100,0,0
26961,-100,4,2,1,80,0,0
27111,-100,4,1,1,100,0,0
27261,-100,4,2,1,80,0,0
27411,-100,4,1,1,100,0,0
27561,-100,4,2,1,80,0,0
27711,-100,4,1,1,100,0,0
27861,-100,4,2,1,80,0,0
28011,-100,4,1,1,100,0,0
28161,-100,4,2,1,80,0,0
28311,-100,4,1,1,100,0,0
28461,-100,4,2,1,80,0,0
28611,-100,4,1,1,100,0,0
28761,-100,4,2,1,80,0,0
28911,-100,4,1,1,100,0,0
29211,-100,4,1,0,40,0,0
29511,-100,4,1,1,100,0,0
29661,-100,4,2,1,80,0,0
29811,-100,4,1,1,100,0,0
29961,-100,4,2,1,80,0,0
30111,-100,4,1,1,100,0,0
30261,-100,4,2,1,80,0,0
30411,-100,4,1,1,100,0,0
30561,-100,4,2,1,80,0,0
30711,-100,4,1,1,100,0,0
30861,-100,4,2,1,80,0,0
31011,-100,4,1,1,100,0,0
31161,-100,4,2,1,80,0,0
31311,-100,4,1,1,100,0,0
31461,-100,4,2,1,80,0,0
31611,-100,4,1,1,100,0,0
31761,-100,4,2,1,80,0,0
31911,-100,4,1,1,100,0,0
34311,-100,4,1,1,100,0,1
34312,-100,4,1,1,100,0,0
34461,-100,4,2,1,80,0,0
34611,-100,4,1,1,100,0,0
34761,-100,4,2,1,80,0,0
34911,-100,4,1,1,100,0,0
35061,-100,4,2,1,80,0,0
35211,-100,4,1,1,100,0,0
35361,-100,4,2,1,80,0,0
35511,-100,4,1,1,100,0,0
35661,-100,4,2,1,80,0,0
35811,-100,4,1,1,100,0,0
35961,-100,4,2,1,80,0,0
36111,-100,4,1,1,100,0,0
36261,-100,4,2,1,80,0,0
36411,-100,4,1,1,100,0,0
36561,-100,4,2,1,80,0,0
36711,-100,4,1,1,60,0,0
36861,-100,4,2,1,80,0,0
36898,-100,4,1,1,100,0,0
37161,-100,4,2,1,80,0,0
37198,-100,4,1,1,100,0,0
37461,-100,4,2,1,80,0,0
37498,-100,4,1,1,100,0,0
37761,-100,4,2,1,80,0,0
37798,-100,4,1,1,100,0,0
37911,-100,4,1,1,60,0,0
38061,-100,4,2,1,80,0,0
38211,-100,4,1,1,100,0,0
38511,-100,4,1,1,100,0,0
38661,-100,4,1,1,80,0,0
38811,-100,4,1,1,60,0,0
38961,-100,4,1,1,80,0,0
39111,-100,4,1,1,100,0,0
39261,-100,4,2,1,80,0,0
39298,-100,4,1,1,100,0,0
39561,-100,4,2,1,80,0,0
39598,-100,4,1,1,100,0,0
39861,-100,4,2,1,80,0,0
39898,-100,4,1,1,100,0,0
40161,-100,4,2,1,80,0,0
40198,-100,4,1,1,100,0,0
40236,-100,4,1,1,60,0,0
40461,-100,4,2,1,80,0,0
40611,-100,4,1,1,100,0,0
40761,-100,4,2,1,80,0,0
40911,-100,4,1,1,100,0,0
41061,-100,4,2,1,80,0,0
41211,-100,4,1,1,100,0,0
41361,-100,4,2,1,80,0,0
41398,-100,4,1,1,100,0,0
42711,-100,4,1,1,80,0,0
43011,-100,4,1,1,70,0,0
43611,-100,4,1,1,40,0,0
43911,-100,4,1,1,100,0,0
44061,-100,4,2,1,80,0,0
44098,-100,4,1,1,100,0,0
44361,-100,4,2,1,80,0,0
44398,-100,4,1,1,100,0,0
44661,-100,4,2,1,80,0,0
44698,-100,4,1,1,100,0,0
44961,-100,4,2,1,80,0,0
44998,-100,4,1,1,100,0,0
45111,-100,4,1,1,60,0,0
45411,-100,4,1,1,100,0,0
45448,-100,4,1,1,100,0,0
45861,-100,4,2,1,80,0,0
45898,-100,4,1,1,100,0,0
46161,-100,4,2,1,80,0,0
46311,-100,4,1,1,60,0,0
46461,-100,4,2,1,80,0,0
46498,-100,4,1,1,100,0,0
46761,-100,4,2,1,80,0,0
46798,-100,4,1,1,100,0,0
47061,-100,4,2,1,80,0,0
47098,-100,4,1,1,100,0,0
47361,-100,4,2,1,80,0,0
47398,-100,4,1,1,90,0,0
48111,-100,4,1,1,80,0,0
48411,-100,4,1,1,40,0,0
48711,-100,4,1,1,80,0,0
49011,-100,4,2,1,80,0,0
49311,-100,4,1,1,80,0,0
49611,-100,4,2,1,80,0,0
49911,-100,4,1,1,80,0,0
50211,-100,4,2,1,80,0,0
50511,-100,4,1,1,80,0,0
50811,-100,4,2,1,80,0,0
51111,-100,4,1,1,80,0,0
51261,-100,4,2,1,80,0,0
51298,-100,4,1,1,80,0,0
51561,-100,4,2,1,80,0,0
51598,-100,4,2,1,80,0,0
51711,-100,4,2,1,50,0,0
52011,-100,4,2,1,60,0,0
52161,-100,4,2,1,70,0,0
52311,-100,4,1,1,80,0,0
58311,-200,4,1,1,80,0,0
71511,-200,4,1,1,50,0,0
72711,-100,4,1,1,80,0,0
81111,-100,4,1,1,50,0,0
81711,-100,4,1,1,60,0,0
82011,-100,4,1,1,70,0,0
82161,-100,4,1,1,80,0,0
91911,-100,4,1,1,80,0,1
108711,-200,4,1,0,69,0,0
110811,-100,4,1,1,70,0,0
111111,-100,4,1,1,70,0,1
120786,-100,4,1,0,5,0,0
121311,-100,4,1,0,70,0,0
150711,-100,4,1,0,70,0,1
159148,-100,4,1,0,10,0,0
160211,-100,4,1,0,70,0,0
160311,-100,4,1,0,70,0,1
177111,-200,4,1,0,70,0,0
180711,-200,4,1,0,65,0,0
181011,-200,4,1,0,55,0,0
181311,-200,4,1,0,45,0,0
181611,-200,4,1,0,35,0,0
181911,-200,4,1,0,25,0,0
182211,-200,4,1,0,15,0,0
185436,-200,4,2,0,5,0,0

[Colours]
Combo1 : 255,255,149
Combo2 : 255,162,117
Combo3 : 157,206,206
Combo4 : 255,81,81
Combo5 : 100,100,255

[HitObjects]
256,192,5511,12,0,14961,0:0:0
472,320,15111,6,0,B|480:192,1,90,4|2,0:0|0:0,0:0:0
464,136,15411,2,0,B|384:56|280:120,1,180,0|0,0:0|0:0,0:0:0
280,208,15861,1,2,0:0:0
264,304,16011,2,0,B|240:344|176:368,1,90,0|2,0:0|0:0,0:0:0
176,264,16311,6,0,B|168:136,1,90,0|2,0:0|0:0,0:0:0
408,88,16611,2,0,B|323:34|243:114,1,180
280,208,17061,1,2,0:0:0
376,192,17211,2,0,B|456:264,1,90
336,352,17511,6,0,B|224:344,1,90,4|0,0:0|0:0,0:0:0
144,336,17811,1,0,0:0:0
48,344,17961,1,2,0:0:0
208,232,18111,6,0,B|320:240,1,90,4|0,0:0|0:0,0:0:0
400,248,18411,1,0,0:0:0
496,240,18561,1,2,0:0:0
304,152,18711,6,0,B|192:144,1,90,4|0,0:0|0:0,0:0:0
112,136,19011,1,0,0:0:0
16,144,19161,1,2,0:0:0
176,32,19311,6,0,B|288:40,1,90,4|2,0:0|0:0,0:0:0
455,176,19611,2,2,B|447:167|447:167|447:175|447:175|439:166|439:166|439:174|439:174|431:165|431:165|431:173|431:173|424:164|424:164|423:172|423:172|416:163|416:163|415:171|415:171|408:163|408:163|407:170|407:170|400:162|400:162|399:170|399:170|392:161|392:161|391:169|391:169|384:160|384:160|383:168|383:168|376:159|376:159|375:167|375:167|368:158|368:158|367:166|367:166|360:158|360:158|359:165|359:165|352:157|352:157|351:165|351:165|344:156|344:156|343:164|343:164|336:155|336:155|335:163|335:163|328:154|328:154|327:162|327:162|320:153|320:153|319:161|319:161|312:152|312:152|311:160|311:160|304:152,1,360,2|4,0:0|0:0,0:0:0
208,192,20061,5,2,0:0:0
128,256,20211,2,0,B|32:320|-24:224,1,180,8|0,0:0|0:0,0:0:0
0,64,20661,6,0,B|112:56,1,90,2|8,0:0|0:0,0:0:0
312,104,20961,2,0,B|200:112,1,90,2|0,0:0|0:0,0:0:0
264,200,21261,1,2,0:0:0
360,184,21411,2,0,B|448:112|368:16,1,180,8|0,0:0|0:0,0:0:0
176,24,21861,6,0,B|64:8,1,90,2|8,0:0|0:0,0:0:0
0,16,22161,1,2,0:0:0
40,96,22311,2,0,B|8:176|24:216,1,90,0|2,0:0|0:0,0:0:0
200,344,22611,2,0,B|120:296|112:184,1,180,8|0,0:0|0:0,0:0:0
248,128,23061,1,2,0:0:0
296,216,23211,2,0,B|377:170|478:219,1,180,8|0,0:0|0:0,0:0:0
469,215,24261,1,2,0:0:0
432,304,24411,1,10,0:0:0
432,304,24711,6,0,B|320:312,1,90,4|2,0:0|0:0,0:0:0
342,310,25011,2,0,B|232:360|184:232,1,180,8|0,0:0|0:0,0:0:0
224,112,25461,1,2,0:0:0
304,56,25611,2,0,B|360:56|408:120,1,90,8|2,0:0|0:0,0:0:0
194,255,25911,2,0,B|138:255|90:191,1,90,0|2,0:0|0:0,0:0:0
40,152,26211,6,0,B|138:222|51:328,1,180,8|0,0:0|0:0,0:0:0
0,240,26661,1,2,0:0:0
40,152,26811,2,0,B|48:96|48:48,1,90,8|2,0:0|0:0,0:0:0
216,176,27111,2,0,B|208:120|208:72,1,90,0|2,0:0|0:0,0:0:0
304,128,27411,6,0,B|416:104|496:208,1,180,8|0,0:0|0:0,0:0:0
384,232,27861,1,2,0:0:0
320,312,28011,2,0,B|216:320,1,90,8|0,0:0|0:0,0:0:0
112,240,28311,2,0,B|8:248,1,90,8|0,0:0|0:0,0:0:0
208,240,28611,6,0,B|408:224,1,180,8|0,0:0|0:0,0:0:0
416,48,29061,1,2,0:0:0
304,144,29211,2,2,B|104:160,1,180,2|4,0:0|0:0,0:0:0
88,64,29661,5,2,0:0:0
184,56,29811,2,0,B|200:264,1,180,8|0,0:0|0:0,0:0:0
197,235,30261,1,2,0:0:0
280,288,30411,2,0,B|296:232|272:184,1,90,8|2,0:0|0:0,0:0:0
64,240,30711,2,0,B|48:296|72:344,2,90,0|2|8,0:0|0:0|0:0,0:0:0
128,160,31161,1,0,0:0:0
32,128,31311,2,0,B|16:8,1,90,8|2,0:0|0:0,0:0:0
225,139,31611,2,0,B|209:19,1,90,8|2,0:0|0:0,0:0:0
213,49,31911,5,0,0:0:0
113,234,32211,1,0,0:0:0
298,334,32511,1,0,0:0:0
398,149,32811,5,0,0:0:0
147,90,32961,1,0,0:0:0
222,336,33111,1,0,0:0:0
353,214,33261,5,0,0:0:0
227,96,33411,1,0,0:0:0
187,264,33561,1,0,0:0:0
286,252,33711,5,0,0:0:0
293,135,33861,1,2,0:0:0
188,188,34011,1,2,0:0:0
256,192,34161,5,8,0:0:0
256,192,34236,1,8,0:0:0
256,192,34311,2,2,B|360:160,1,90,4|2,0:0|0:0,0:0:0
48,136,34611,2,2,B|152:104,1,90,2|0,0:0|0:0,0:0:0
192,32,34911,1,8,0:0:0
96,40,35061,2,2,B|-8:72,2,90
170,219,35511,2,2,B|256:192,1,90,0|2,0:0|0:0,0:0:0
382,340,35811,2,2,B|468:313,1,90
468,71,36111,2,0,B|382:44,2,90,0|2|2,0:0|0:0|0:0,0:0:0
424,160,36561,1,2,0:0:0
328,144,36711,5,10,0:0:0
280,136,36786,1,0,0:0:0
232,128,36861,1,2,0:0:0
184,120,36936,1,0,0:0:0
200,168,37011,5,2,0:0:0
154,185,37086,1,0,0:0:0
108,202,37161,1,2,0:0:0
63,219,37236,1,0,0:0:0
96,256,37311,5,8,0:0:0
70,286,37386,1,0,0:0:0
45,316,37461,1,2,0:0:0
20,346,37536,1,0,0:0:0
64,352,37611,6,0,B|88:360,8,22.5,2|0|0|0|2|0|0|0|2,0:0|0:0|0:0|0:0|0:0|0:0|0:0|0:0|0:0,0:0:0
160,320,38061,1,2,0:0:0
208,328,38136,1,0,0:0:0
256,336,38211,1,2,0:0:0
352,312,38361,1,0,0:0:0
336,216,38511,5,8,0:0:0
312,120,38661,1,8,0:0:0
264,112,38736,1,8,0:0:0
216,104,38811,1,8,0:0:0
120,128,38961,1,10,0:0:0
40,72,39111,6,0,B|24:24,3,45,4|0|2|0,0:0|0:0|0:0|0:0,0:0:0
24,200,39411,2,0,B|40:152,3,45,2|0|2|0,0:0|0:0|0:0|0:0,0:0:0
48,280,39711,1,0,0:0:0
144,248,39861,2,0,B|192:240|248:264,2,90,2|2|2,0:0|0:0|0:0,0:0:0
176,344,40311,5,2,0:0:0
272,344,40461,1,2,0:0:0
304,304,40536,1,0,0:0:0
320,256,40611,1,2,0:0:0
296,160,40761,1,2,0:0:0
344,56,40911,5,0,0:0:0
248,56,41061,1,2,0:0:0
216,96,41136,1,0,0:0:0
200,144,41211,1,2,0:0:0
224,240,41361,1,2,0:0:0
376,192,41511,6,0,B|456:208|464:288|400:336,1,180
136,192,42111,2,0,B|56:176|48:96|112:48,1,180
339,240,42711,6,0,B|388:283|361:341|298:349,1,135
172,143,43011,2,0,B|123:100|150:42|213:34,1,135
280,256,43311,5,0,0:0:0
232,128,43461,1,0,0:0:0
328,160,43611,1,2,0:0:0
184,224,43761,1,2,0:0:0
96,272,43911,6,2,B|24:256,1,45,0|0,0:0|0:0,0:0:0
72,192,44061,2,2,B|0:176,1,45,0|0,0:0|0:0,0:0:0
51,113,44211,2,0,B|8:104,1,45,2|0,0:0|0:0,0:3:0
120,64,44361,1,2,0:0:0
168,56,44436,1,0,0:0:0
216,48,44511,5,8,0:0:0
376,96,44661,1,2,0:0:0
232,128,44811,1,2,0:0:0
328,160,44961,1,2,0:0:0
312,32,45111,6,0,B|328:0,7,22.5,2|0|0|0|0|0|0|0,0:0|0:0|0:0|0:0|0:0|0:0|0:0|0:0,0:0:0
312,32,45411,1,2,0:0:0
280,128,45561,1,0,0:0:0
200,352,45711,6,0,B|184:384,7,22.5,8|0|0|0|0|0|0|0,0:0|0:0|0:0|0:0|0:0|0:0|0:0|0:0,0:0:0
200,352,46011,1,2,0:0:0
232,256,46161,1,2,0:0:0
136,264,46311,5,2,0:0:0
104,232,46386,1,0,0:0:0
96,184,46461,1,2,0:0:0
253,52,46611,5,2,0:0:0
297,40,46686,1,0,0:0:0
342,57,46761,1,2,0:0:0
378,259,46911,5,8,0:0:0
366,303,46986,1,0,0:0:0
329,334,47061,1,2,0:0:0
288,248,47211,1,2,0:0:0
191,191,47361,1,2,0:0:0
288,136,47511,2,2,B|392:152,1,90,0|0,0:0|0:0,0:0:0
72,80,47811,2,2,B|161:92,1,90,0|2,0:0|0:0,0:3:0
24,336,48111,6,2,B|16:280|32:224|24:144,1,180,2|12,0:0|0:0,0:0:0
25,156,48711,5,6,0:0:0
64,128,48786,1,0,0:0:0
112,120,48861,2,2,B|136:112|168:128,1,45,2|0,0:0|0:0,0:0:0
246,187,49011,5,2,0:0:0
208,216,49086,1,2,0:0:0
160,224,49161,2,2,B|136:232|104:216,1,45
73,45,49311,5,2,0:0:0
121,40,49386,1,0,0:0:0
167,57,49461,2,0,B|192:62|211:92,1,45,2|0,0:0|0:0,0:0:0
309,114,49611,5,2,0:0:0
347,147,49686,1,2,0:0:0
395,157,49761,2,2,B|426:158|460:127,1,45
439,45,49911,5,2,0:0:0
391,40,49986,1,0,0:0:0
345,57,50061,2,0,B|320:62|301:92,1,45,2|0,0:0|0:0,0:0:0
203,114,50211,5,2,0:0:0
165,147,50286,1,2,0:0:0
117,157,50361,2,2,B|85:158|51:127,1,45
62,96,50511,5,0,0:0:0
256,48,50661,1,0,0:0:0
450,96,50811,1,2,0:0:0
256,176,50961,1,2,0:0:0
184,240,51111,2,0,B|112:256,2,45,0|0|2,0:0|0:0|0:0,0:0:0
336,304,51411,2,0,B|264:320,2,45,0|0|2,0:0|0:0|0:0,0:0:0
176,344,51711,2,2,B|216:336,7,22.5
176,344,52011,2,0,B|104:360,2,45,0|0|2,0:0|0:0|0:0,0:0:0
80,248,52311,5,0,0:0:0
88,200,52386,1,0,0:0:0
80,152,52461,1,0,0:0:0
96,56,52611,2,0,B|136:24|200:24,1,90
448,144,52911,2,10,B|434:223|315:255|195:223|173:118,1,360,10|4,0:0|0:0,0:0:0
256,192,53586,12,0,55911,0:0:0
128,224,58311,6,0,B|136:176|120:136,1,90,0|0,0:0|0:0,0:0:0
88,96,58761,1,0,0:0:0
112,56,58911,2,0,B|160:48,1,45
400,328,59361,6,0,B|352:336,1,45
320,304,59661,1,0,0:0:0
280,280,59811,2,0,B|232:288,2,45
288,256,60186,1,0,0:0:0
296,232,60261,1,0,0:0:0
304,208,60336,1,0,0:0:0
312,184,60411,1,0,0:0:0
392,80,60561,5,0,0:0:0
344,72,60711,2,0,B|288:64,1,45
248,72,61011,2,0,B|192:80,1,45
168,48,61311,1,0,0:0:0
64,120,61461,1,0,0:0:0
160,152,61611,1,0,0:0:0
168,48,61761,6,0,B|72:16,1,90
70,165,62211,2,0,B|62:101,1,45
8,224,62511,1,0,0:0:0
28,240,62586,1,0,0:0:0
42,260,62661,1,0,0:0:0
49,283,62736,1,0,0:0:0
52,307,62811,1,0,0:0:0
240,328,62961,5,0,0:0:0
240,328,63111,2,0,B|224:240,1,90,4|0,0:0|0:0,0:0:0
288,72,63561,2,0,B|272:120,1,45
304,160,63861,2,0,B|352:176|384:128,1,90
168,32,64311,5,0,0:0:0
120,24,64461,2,0,B|64:16,1,45
32,32,64761,1,0,0:0:0
56,160,64911,6,0,B|56:216,1,45
56,160,65361,1,0,0:0:0
56,208,65511,6,0,B|56:304,1,90
104,320,65961,1,0,0:0:0
136,280,66111,2,0,B|184:264,1,45
432,288,66411,5,0,0:0:0
432,288,66561,2,0,B|376:272|344:320,1,90
296,232,67011,2,0,B|288:176,1,45
400,32,67311,1,0,0:0:0
392,56,67386,1,0,0:0:0
384,80,67461,1,0,0:0:0
376,104,67536,1,0,0:0:0
368,128,67611,1,0,0:0:0
192,40,67761,5,0,0:0:0
192,40,67836,1,0,0:0:0
192,40,67911,2,0,B|152:24,1,45,4|0,0:0|0:0,0:0:0
152,192,68211,2,0,B|185:165,1,45
40,88,68511,2,0,B|46:130,1,45
56,328,68811,5,0,0:0:0
56,328,68961,2,0,B|40:240,1,90
88,248,69411,2,0,B|160:248,1,67.5
176,256,69711,1,0,0:0:0
200,264,69786,1,0,0:0:0
224,272,69861,1,0,0:0:0
248,280,69936,1,0,0:0:0
272,288,70011,1,0,0:0:0
432,304,70161,5,0,0:0:0
432,304,70311,2,0,B|464:252|450:185|450:185|435:126|444:71|503:56|553:96|547:136|536:158|495:160|476:124,1,360
256,192,71586,12,0,72411,0:0:0
56,88,72711,5,4,0:0:0
80,184,72861,1,8,0:0:0
72,200,72936,1,0,0:0:0
64,216,73011,2,0,B|56:304,1,90,0|0,0:0|0:0,0:0:0
176,160,73311,2,0,B|168:248,1,90,0|8,0:0|0:0,0:0:0
264,280,73611,2,0,B|272:192,1,90,0|8,0:0|0:0,0:0:0
272,190,73836,5,0,0:0:0
272,190,73911,1,0,0:0:0
360,152,74061,1,8,0:0:0
352,248,74211,1,0,0:0:0
440,208,74361,1,8,0:0:0
440,112,74511,2,0,B|416:72|360:56,1,90,0|8,0:0|0:0,0:0:0
208,48,74811,2,0,B|232:88|288:104,1,90,0|8,0:0|0:0,0:0:0
208,48,75111,5,0,0:0:0
112,40,75261,1,8,0:0:0
96,32,75336,1,0,0:0:0
80,24,75411,2,0,B|64:128,1,90,0|8,0:0|0:0,0:0:0
80,208,75711,2,0,B|64:256|43:290,1,90,0|8,0:0|0:0,0:0:0
240,272,76011,2,0,B|256:320|280:360,2,90,0|8|0,0:0|0:0|0:0,0:0:0
152,224,76461,5,8,0:0:0
280,85,76611,1,0,0:0:0
335,266,76761,1,8,0:0:0
149,77,76911,5,0,0:0:0
408,157,77061,1,8,0:0:0
210,341,77211,1,6,0:0:0
256,192,77361,5,0,0:0:0
256,192,77436,1,0,0:0:0
256,192,77511,2,0,B|216:176|160:168,1,90,4|0,0:0|0:0,0:0:0
152,176,77736,1,0,0:0:0
128,184,77811,1,0,0:0:0
160,280,77961,1,8,0:0:0
256,304,78111,2,0,B|304:304|352:336,1,90,0|8,0:0|0:0,0:0:0
432,296,78411,2,0,B|520:312,1,90,0|8,0:0|0:0,0:0:0
488,216,78711,5,0,0:0:0
456,120,78861,1,8,0:0:0
272,48,79011,5,0,0:0:0
296,144,79161,1,8,0:0:0
400,192,79311,5,0,0:0:0
368,96,79461,1,8,0:0:0
208,104,79611,5,0,0:0:0
224,200,79761,1,8,0:0:0
224,200,79836,1,0,0:0:0
224,200,79911,6,0,B|176:224|176:288,1,90,0|8,0:0|0:0,0:0:0
176,271,80136,1,0,0:0:0
176,271,80211,1,0,0:0:0
272,280,80361,1,8,0:0:0
112,192,80511,2,0,B|56:176|8:176,1,90,0|8,0:0|0:0,0:0:0
224,360,80811,2,0,B|280:376|328:376,1,90,0|8,0:0|0:0,0:0:0
312,375,81036,1,0,0:0:0
312,375,81111,5,0,0:0:0
376,328,81261,1,0,0:0:0
424,272,81411,1,0,0:0:0
448,200,81561,1,0,0:0:0
199,8,81711,5,0,0:0:0
136,56,81861,1,0,0:0:0
88,112,82011,1,2,0:0:0
64,184,82161,1,8,0:0:0
312,168,82311,6,0,B|304:128|304:64,1,90,4|8,0:0|0:0,0:0:0
288,48,82536,1,0,0:0:0
320,32,82611,1,0,0:0:0
408,80,82761,1,8,0:0:0
480,152,82911,2,0,B|496:192|496:240,1,90,0|8,0:0|0:0,0:0:0
288,344,83211,2,0,B|288:296|272:256,1,90,0|8,0:0|0:0,0:0:0
240,216,83436,1,0,0:0:0
192,192,83511,6,0,B|152:208|104:208,1,90,0|8,0:0|0:0,0:0:0
40,96,83811,2,0,B|88:96|128:112,1,90,0|8,0:0|0:0,0:0:0
128,112,84036,1,0,0:0:0
128,112,84111,1,0,0:0:0
8,184,84261,1,8,0:0:0
48,272,84411,2,0,B|40:368,1,90,0|8,0:0|0:0,0:0:0
200,360,84711,6,0,B|320:344,1,90,0|8,0:0|0:0,0:0:0
289,348,84936,2,0,B|312:280,1,45
328,208,85161,1,8,0:0:0
424,184,85311,2,0,B|444:233|500:249,1,90,0|8,0:0|0:0,0:0:0
428,81,85611,2,0,B|408:32|352:16,1,90,0|8,0:0|0:0,0:0:0
320,8,85836,5,0,0:0:0
272,16,85911,1,0,0:0:0
184,64,86061,1,8,0:0:0
208,160,86211,2,0,B|128:208,1,90,0|8,0:0|0:0,0:0:0
56,352,86511,2,0,B|136:304,1,90,0|8,0:0|0:0,0:0:0
104,112,86811,2,2,B|24:160,1,90,2|8,0:0|0:0,0:0:0
220,305,87111,6,0,B|320:320,1,90,4|8,0:0|0:0,0:0:0
360,312,87336,1,0,0:0:0
400,288,87411,1,0,0:0:0
432,192,87561,1,8,0:0:0
175,104,87711,6,0,B|113:183,1,90,0|8,0:0|0:0,0:0:0
100,222,87936,1,0,0:0:0
100,268,88011,1,0,0:0:0
168,352,88161,1,8,0:0:0
371,165,88311,6,0,B|334:72,1,90,0|8,0:0|0:0,0:0:0
307,41,88536,1,0,0:0:0
267,19,88611,1,0,0:0:0
168,39,88761,5,8,0:0:0
103,280,88911,1,0,0:0:0
344,344,89061,1,8,0:0:0
409,104,89211,1,0,0:0:0
231,366,89361,1,8,0:0:0
133,64,89511,5,2,0:0:0
112,88,89811,5,2,0:0:0
144,112,90111,5,2,0:0:0
168,80,90411,5,2,0:0:0
133,64,90711,5,2,0:0:0
79,202,90861,1,0,0:0:0
72,216,90936,1,0,0:0:0
64,232,91011,1,2,0:0:0
256,240,91161,1,0,0:0:0
256,208,91236,1,0,0:0:0
256,176,91311,1,2,0:0:0
433,202,91461,1,2,0:0:0
440,216,91536,1,0,0:0:0
448,232,91611,1,4,0:0:0
507,345,91911,5,4,0:0:0
498,346,91986,1,0,0:0:0
489,347,92061,1,8,0:0:0
480,348,92136,1,0,0:0:0
471,349,92211,1,0,0:0:0
462,350,92286,1,0,0:0:0
453,351,92361,1,8,0:0:0
444,352,92436,1,0,0:0:0
435,353,92511,1,0,0:0:0
426,354,92586,1,0,0:0:0
417,355,92661,1,8,0:0:0
408,356,92736,1,0,0:0:0
399,357,92811,1,0,0:0:0
390,358,92886,1,0,0:0:0
381,359,92961,1,8,0:0:0
372,360,93036,1,0,0:0:0
332,356,93111,5,0,0:0:0
323,355,93186,1,0,0:0:0
314,354,93261,1,8,0:0:0
305,353,93336,1,0,0:0:0
296,352,93411,1,0,0:0:0
287,351,93486,1,0,0:0:0
278,350,93561,1,8,0:0:0
269,349,93636,1,0,0:0:0
260,348,93711,1,0,0:0:0
251,347,93786,1,0,0:0:0
242,346,93861,1,8,0:0:0
233,345,93936,1,0,0:0:0
224,344,94011,1,0,0:0:0
215,343,94086,1,0,0:0:0
206,342,94161,1,8,0:0:0
197,341,94236,1,0,0:0:0
155,348,94311,5,0,0:0:0
146,349,94386,1,0,0:0:0
137,350,94461,1,8,0:0:0
128,351,94536,1,0,0:0:0
119,352,94611,1,0,0:0:0
110,353,94686,1,0,0:0:0
101,354,94761,1,8,0:0:0
92,355,94836,1,0,0:0:0
83,356,94911,1,0,0:0:0
74,357,94986,1,0,0:0:0
65,358,95061,1,8,0:0:0
56,359,95136,1,0,0:0:0
47,360,95211,1,0,0:0:0
38,361,95286,1,0,0:0:0
29,362,95361,1,8,0:0:0
20,363,95436,1,0,0:0:0
8,366,95511,6,0,B|5:262,1,90,0|8,0:0|0:0,0:0:0
124,144,95811,2,0,B|121:40,1,90,0|8,0:0|0:0,0:0:0
16,24,96111,1,0,0:0:0
56,216,96261,1,8,0:0:0
240,288,96411,1,2,0:0:0
424,216,96561,1,0,0:0:0
472,24,96711,5,4,0:0:0
472,32,96786,1,0,0:0:0
472,40,96861,1,8,0:0:0
472,48,96936,1,0,0:0:0
472,56,97011,1,0,0:0:0
472,64,97086,1,0,0:0:0
472,72,97161,1,8,0:0:0
472,80,97236,1,0,0:0:0
472,88,97311,1,0,0:0:0
472,96,97386,1,0,0:0:0
472,104,97461,1,8,0:0:0
472,112,97536,1,0,0:0:0
472,120,97611,1,0,0:0:0
472,128,97686,1,0,0:0:0
472,136,97761,1,8,0:0:0
472,144,97836,1,0,0:0:0
448,168,97911,5,0,0:0:0
448,176,97986,1,0,0:0:0
448,184,98061,1,8,0:0:0
448,192,98136,1,0,0:0:0
448,200,98211,1,0,0:0:0
448,208,98286,1,0,0:0:0
448,216,98361,1,8,0:0:0
448,224,98436,1,0,0:0:0
448,232,98511,1,0,0:0:0
448,240,98586,1,0,0:0:0
448,248,98661,1,8,0:0:0
448,256,98736,1,0,0:0:0
448,264,98811,1,0,0:0:0
448,272,98886,1,0,0:0:0
448,280,98961,1,8,0:0:0
448,288,99036,1,0,0:0:0
432,320,99111,5,0,0:0:0
424,322,99186,1,0,0:0:0
416,325,99261,1,8,0:0:0
409,328,99336,1,0,0:0:0
401,330,99411,1,0,0:0:0
394,333,99486,1,0,0:0:0
386,336,99561,1,8,0:0:0
379,339,99636,1,0,0:0:0
371,341,99711,1,0,0:0:0
364,344,99786,1,0,0:0:0
356,347,99861,1,0,0:0:0
349,350,99936,1,0,0:0:0
341,352,100011,1,0,0:0:0
334,355,100086,1,0,0:0:0
326,358,100161,1,8,0:0:0
319,361,100236,1,0,0:0:0
312,360,100311,6,0,B|248:344|184:352,1,90,0|8,0:0|0:0,0:0:0
96,208,100611,2,0,B|32:192|-32:200,1,90,0|8,0:0|0:0,0:0:0
416,176,100911,2,0,B|480:192|544:184,1,90,0|8,0:0|0:0,0:0:0
289,34,101211,2,0,B|264:40|200:24,1,90,0|8,0:0|0:0,0:0:0
120,16,101436,1,0,0:0:0
40,40,101511,5,4,0:0:0
37,62,101586,1,0,0:0:0
34,84,101661,1,8,0:0:0
31,106,101736,1,0,0:0:0
40,150,101811,5,0,0:0:0
38,172,101886,1,0,0:0:0
44,216,101961,5,8,0:0:0
40,238,102036,1,0,0:0:0
37,260,102111,1,0,0:0:0
35,282,102186,1,0,0:0:0
59,318,102261,5,8,0:0:0
81,320,102336,1,0,0:0:0
103,323,102411,1,0,0:0:0
125,327,102486,1,0,0:0:0
170,306,102561,5,8,0:0:0
192,308,102636,1,0,0:0:0
214,311,102711,1,0,0:0:0
236,315,102786,1,0,0:0:0
280,296,102861,5,8,0:0:0
302,300,102936,1,0,0:0:0
351,292,103011,5,0,0:0:0
373,296,103086,1,0,0:0:0
394,301,103161,1,8,0:0:0
415,306,103236,1,0,0:0:0
459,312,103311,5,0,0:0:0
471,293,103386,1,0,0:0:0
477,271,103461,1,8,0:0:0
477,248,103536,1,0,0:0:0
444,216,103611,5,0,0:0:0
432,197,103686,1,0,0:0:0
426,175,103761,1,8,0:0:0
426,152,103836,1,0,0:0:0
459,121,103911,5,0,0:0:0
437,113,103986,1,0,0:0:0
415,105,104061,1,8,0:0:0
393,97,104136,1,0,0:0:0
348,106,104211,5,0,0:0:0
326,100,104286,1,0,0:0:0
303,61,104361,5,8,0:0:0
281,55,104436,1,0,0:0:0
258,50,104511,1,0,0:0:0
235,45,104586,1,0,0:0:0
198,71,104661,5,8,0:0:0
176,64,104736,1,0,0:0:0
154,58,104811,1,0,0:0:0
132,52,104886,1,0,0:0:0
91,71,104961,5,8,0:0:0
76,54,105036,1,0,0:0:0
31,48,105111,5,0,0:0:0
36,69,105186,1,0,0:0:0
39,91,105261,1,8,0:0:0
39,113,105336,1,0,0:0:0
38,135,105411,1,0,0:0:0
34,157,105486,1,0,0:0:0
30,179,105561,1,8,0:0:0
20,199,105636,1,0,0:0:0
11,219,105711,2,8,B|66:288,1,90
221,248,106011,2,8,B|276:317,1,90
428,268,106311,5,0,0:0:0
415,249,106386,1,0,0:0:0
404,228,106461,1,8,0:0:0
395,207,106536,1,0,0:0:0
389,185,106611,1,0,0:0:0
385,162,106686,1,0,0:0:0
383,139,106761,1,8,0:0:0
382,116,106836,1,0,0:0:0
312,63,106911,5,0,0:0:0
299,82,106986,1,0,0:0:0
288,103,107061,1,8,0:0:0
279,124,107136,1,0,0:0:0
273,146,107211,1,0,0:0:0
269,169,107286,1,0,0:0:0
267,192,107361,1,8,0:0:0
266,215,107436,1,0,0:0:0
213,289,107511,5,0,0:0:0
200,270,107586,1,0,0:0:0
189,249,107661,1,8,0:0:0
180,228,107736,1,0,0:0:0
174,206,107811,1,0,0:0:0
170,183,107886,1,0,0:0:0
168,160,107961,1,8,0:0:0
167,137,108036,1,0,0:0:0
97,84,108111,5,0,0:0:0
84,103,108186,1,0,0:0:0
73,124,108261,1,8,0:0:0
64,145,108336,1,0,0:0:0
58,167,108411,1,0,0:0:0
54,190,108486,1,0,0:0:0
52,213,108561,1,8,0:0:0
51,236,108636,1,0,0:0:0
56,264,108711,6,0,B|0:336,1,90
144,288,109161,2,0,B|88:360,1,90,0|0,0:0|0:0,0:0:0
240,296,109761,2,0,B|184:368,1,90,0|0,0:0|0:0,0:0:0
328,312,110211,2,0,B|272:384,2,90
352,312,110886,1,0,0:0:0
376,312,110961,1,0,0:0:0
400,312,111036,1,0,0:0:0
424,312,111111,5,4,0:0:0
472,160,111261,1,0,0:0:0
304,184,111411,1,8,0:0:0
400,224,111561,5,0,0:0:0
392,200,111636,1,0,0:0:0
392,176,111711,1,0,0:0:0
408,32,111861,5,8,0:0:0
416,56,111936,1,0,0:0:0
416,80,112011,1,8,0:0:0
280,72,112161,5,8,0:0:0
303,80,112236,1,8,0:0:0
322,95,112311,1,0,0:0:0
224,136,112461,5,8,0:0:0
136,184,112611,1,0,0:0:0
112,176,112686,1,0,0:0:0
88,168,112761,1,8,0:0:0
168,296,112911,5,0,0:0:0
144,288,112986,1,8,0:0:0
120,280,113061,1,0,0:0:0
96,272,113136,1,8,0:0:0
72,264,113211,1,8,0:0:0
0,128,113361,5,0,0:0:0
0,128,113436,1,0,0:0:0
0,128,113511,1,0,0:0:0
104,32,113661,1,0,0:0:0
264,48,113811,1,8,0:0:0
144,136,113961,5,0,0:0:0
144,136,114036,1,0,0:0:0
144,136,114111,1,0,0:0:0
264,152,114261,5,8,0:0:0
288,152,114336,1,0,0:0:0
312,152,114411,1,8,0:0:0
176,240,114561,5,8,0:0:0
200,240,114636,1,8,0:0:0
224,240,114711,1,0,0:0:0
248,240,114786,1,8,0:0:0
272,240,114861,1,8,0:0:0
120,328,115011,5,8,0:0:0
144,328,115086,1,0,0:0:0
168,328,115161,1,8,0:0:0
352,352,115311,5,0,0:0:0
328,352,115386,1,8,0:0:0
304,352,115461,1,8,0:0:0
280,352,115536,1,0,0:0:0
256,352,115611,1,8,0:0:0
72,248,115761,5,0,0:0:0
48,248,115836,1,0,0:0:0
24,248,115911,1,4,0:0:0
488,248,116211,1,8,0:0:0
72,248,116511,1,4,0:0:0
440,248,116811,1,8,0:0:0
112,248,117111,5,4,0:0:0
400,248,117261,1,8,0:0:0
112,136,117411,1,4,0:0:0
400,136,117561,1,8,0:0:0
112,32,117711,1,4,0:0:0
400,32,117861,1,8,0:0:0
416,336,118011,1,4,0:0:0
112,352,118161,1,8,0:0:0
96,48,118311,5,12,0:0:0
104,72,118386,1,8,0:0:0
112,96,118461,1,0,0:0:0
120,120,118536,1,8,0:0:0
128,144,118611,5,8,0:0:0
136,168,118686,1,8,0:0:0
144,192,118761,1,8,0:0:0
152,216,118836,1,0,0:0:0
160,240,118911,5,0,0:0:0
168,264,118986,1,0,0:0:0
176,288,119061,1,8,0:0:0
184,312,119136,1,8,0:0:0
192,336,119211,5,8,0:0:0
213,343,119286,1,0,0:0:0
234,348,119361,1,8,0:0:0
256,348,119436,1,0,0:0:0
280,336,119511,6,8,B|344:336,1,45
384,200,119661,2,8,B|448:200,1,45
472,328,119811,2,8,B|427:328,1,45
280,200,119961,2,8,B|235:200,1,45
72,152,120111,5,8,0:0:0
96,152,120186,1,8,0:0:0
120,152,120261,1,0,0:0:0
144,152,120336,1,0,0:0:0
168,152,120411,1,8,0:0:0
192,152,120486,1,8,0:0:0
216,152,120561,1,8,0:0:0
240,152,120636,1,8,0:0:0
264,152,120711,2,0,B|456:152,1,180,8|0,0:0|0:0,0:0:0
256,192,121311,12,0,121911,0:0:0
8,240,131511,5,4,0:0:0
256,192,131586,12,0,140811,0:0:0
88,104,141111,5,4,0:0:0
428,113,141411,1,0,0:0:0
211,376,141711,1,0,0:0:0
256,192,142011,1,0,0:0:0
105,76,142311,5,0,0:0:0
439,144,142611,1,0,0:0:0
179,365,142911,1,0,0:0:0
256,192,143211,1,0,0:0:0
128,51,143411,5,0,0:0:0
128,51,143511,1,0,0:0:0
445,177,143811,1,0,0:0:0
150,349,144111,1,0,0:0:0
256,192,144411,1,0,0:0:0
154,31,144711,5,0,0:0:0
444,210,145011,1,0,0:0:0
125,329,145311,1,0,0:0:0
256,192,145511,1,0,0:0:0
256,192,145611,1,0,0:0:0
336,96,145811,5,0,0:0:0
336,96,145911,1,0,0:0:0
160,112,146211,1,0,0:0:0
176,288,146511,1,0,0:0:0
352,272,146811,1,0,0:0:0
280,50,147111,5,0,0:0:0
114,167,147411,1,0,0:0:0
231,333,147711,1,0,0:0:0
397,216,148011,1,0,0:0:0
196,29,148211,5,0,0:0:0
196,29,148311,1,0,0:0:0
93,251,148611,1,0,0:0:0
315,354,148911,1,0,0:0:0
418,132,149211,1,0,0:0:0
80,120,149511,5,0,0:0:0
328,40,149811,1,0,0:0:0
416,272,150111,1,0,0:0:0
32,312,150711,5,4,0:0:0
32,72,150911,1,2,0:0:0
32,104,151011,1,0,0:0:0
128,344,151211,5,2,0:0:0
128,312,151311,1,0,0:0:0
128,40,151511,1,2,0:0:0
128,72,151611,1,0,0:0:0
216,376,151811,5,2,0:0:0
216,344,151911,1,0,0:0:0
216,8,152111,1,2,0:0:0
216,40,152211,1,0,0:0:0
208,192,152411,5,2,0:0:0
176,192,152511,1,0,0:0:0
56,192,152711,1,2,0:0:0
88,192,152811,1,0,0:0:0
296,376,153011,5,2,0:0:0
296,344,153111,1,0,0:0:0
296,8,153311,1,2,0:0:0
296,40,153411,1,0,0:0:0
384,344,153611,5,2,0:0:0
384,312,153711,1,0,0:0:0
384,40,153911,1,2,0:0:0
384,72,154011,1,0,0:0:0
480,312,154211,5,2,0:0:0
480,280,154311,1,0,0:0:0
480,72,154511,1,2,0:0:0
480,104,154611,1,0,0:0:0
304,192,154811,5,2,0:0:0
336,192,154911,1,0,0:0:0
456,192,155111,1,2,0:0:0
424,192,155211,1,2,0:0:0
208,192,155411,5,2,0:0:0
176,192,155511,1,0,0:0:0
214,168,155711,5,2,0:0:0
186,152,155811,1,0,0:0:0
232,150,156011,5,2,0:0:0
215,122,156111,1,0,0:0:0
256,144,156311,5,2,0:0:0
255,111,156411,1,0,0:0:0
280,150,156611,5,2,0:0:0
296,122,156711,1,0,0:0:0
297,168,156911,5,2,0:0:0
325,152,157011,1,0,0:0:0
304,192,157211,5,2,0:0:0
336,192,157311,1,0,0:0:0
297,216,157511,5,2,0:0:0
325,232,157611,1,0,0:0:0
280,233,157811,5,2,0:0:0
296,261,157911,1,0,0:0:0
256,240,158111,5,2,0:0:0
256,272,158211,1,0,0:0:0
232,233,158411,5,2,0:0:0
216,261,158511,1,0,0:0:0
214,216,158711,5,2,0:0:0
186,232,158811,1,0,0:0:0
208,192,159011,5,2,0:0:0
176,192,159111,2,2,B|136:184,7,22.5
128,192,159411,2,2,B|88:200,7,22.5
64,192,159711,2,2,B|24:184,6,22.5
448,192,160211,5,0,0:0:0
448,192,160311,2,0,B|416:120|320:120,1,120,4|2,0:0|0:0,0:0:0
248,248,160611,2,0,B|324:267|383:191,1,120,0|2,0:0|0:0,0:0:0
312,56,160911,2,0,B|249:104|273:197,1,120,0|2,0:0|0:0,0:0:0
267,161,161211,1,0,0:0:0
137,343,161411,5,2,0:0:0
137,343,161511,2,0,B|214:362|273:286,1,120,0|2,0:0|0:0,0:0:0
216,151,161811,2,0,B|154:199|177:292,1,120,0|2,0:0|0:0,0:0:0
328,319,162111,2,0,B|328:241|241:202,1,120,0|2,0:0|0:0,0:0:0
272,219,162411,1,0,0:0:0
210,5,162611,5,2,0:0:0
210,5,162711,2,0,B|147:54|171:147,1,120,0|2,0:0|0:0,0:0:0
312,185,163011,2,0,B|313:107|225:68,1,120,0|2,0:0|0:0,0:0:0
111,170,163311,2,0,B|173:218|257:174,1,120,0|2,0:0|0:0,0:0:0
224,187,163611,1,0,0:0:0
64,88,163811,5,2,0:0:0
64,88,163911,2,0,B|8:120|24:192,1,120,0|2,0:0|0:0,0:0:0
23,191,164211,2,0,B|72:304,1,120,0|2,0:0|0:0,0:0:0
176,288,164511,2,0,B|248:272|296:328,1,120,0|2,0:0|0:0,0:0:0
286,317,164811,1,0,0:0:0
432,272,165011,1,0,0:0:0
440,240,165111,6,0,B|480:200|464:112,1,120,4|2,0:0|0:0,0:0:0
280,72,165411,2,0,B|304:128|368:152,1,120,0|2,0:0|0:0,0:0:0
280,240,165711,2,0,B|160:248,1,120,0|2,0:0|0:0,0:0:0
40,360,166011,2,0,B|8:296|16:216,1,120,0|2,0:0|0:0,0:0:0
64,152,166311,6,0,B|48:16,1,120,0|2,0:0|0:0,0:0:0
49,32,166611,2,0,B|128:8|176:48,1,120,0|2,0:0|0:0,0:0:0
272,176,166911,2,0,B|193:200|145:160,1,120,0|2,0:0|0:0,0:0:0
280,72,167211,2,0,B|358:47|406:87,1,120,0|2,0:0|0:0,0:0:0
395,79,167511,6,0,B|384:224,1,120,0|2,0:0|0:0,0:0:0
456,328,167811,2,0,B|512:296|504:200,1,120,0|2,0:0|0:0,0:0:0
328,272,168111,2,0,B|200:320,1,120,0|2,0:0|0:0,0:0:0
8,360,168411,2,0,B|48:312|48:232,1,120,0|2,0:0|0:0,0:0:0
24,128,168711,5,4,0:0:0
24,128,169311,1,0,0:0:0
120,120,169511,1,0,0:0:0
152,112,169611,1,0,0:0:0
184,104,169711,1,0,0:0:0
216,96,169811,1,0,0:0:0
248,88,169911,6,2,B|384:56,1,120,4|2,0:0|0:0,0:0:0
360,184,170211,2,2,B|392:320,1,120,0|2,0:0|0:0,0:0:0
264,296,170511,2,2,B|128:328,1,120,0|2,0:0|0:0,0:0:0
152,200,170811,2,2,B|120:64,1,120,0|2,0:0|0:0,0:0:0
256,72,171111,6,2,B|400:24,1,120,0|2,0:0|0:0,0:0:0
376,192,171411,2,2,B|424:336,1,120,0|2,0:0|0:0,0:0:0
256,312,171711,2,2,B|112:360,1,120,0|2,0:0|0:0,0:0:0
136,192,172011,2,2,B|88:48,1,120,0|2,0:0|0:0,0:0:0
272,56,172311,6,2,B|392:16,1,120,0|2,0:0|0:0,0:0:0
392,208,172611,2,2,B|432:328,1,120,0|2,0:0|0:0,0:0:0
240,328,172911,2,2,B|120:368,1,120,0|2,0:0|0:0,0:0:0
120,176,173211,2,2,B|80:56,1,120
288,48,173511,6,2,B|400:0,1,120,0|2,0:0|0:0,0:0:0
400,224,173811,2,2,B|448:336,1,120,0|2,0:0|0:0,0:0:0
112,160,174111,2,2,B|64:48,1,120,0|2,0:0|0:0,0:0:0
224,336,174411,2,2,B|112:384,1,120,0|2,0:0|0:0,0:0:0
32,296,174711,6,2,B|40:232|40:232|24:160,1,120,4|2,0:0|0:0,0:0:0
172,13,175011,2,2,B|164:77|164:77|180:149,1,120,0|2,0:0|0:0,0:0:0
340,371,175311,2,2,B|348:307|348:307|332:235,1,120,0|2,0:0|0:0,0:0:0
480,88,175611,2,2,B|472:152|472:152|488:224,1,120,0|2,0:0|0:0,0:0:0
340,371,175911,2,2,B|348:307|348:307|332:235,1,120,0|2,0:0|0:0,0:0:0
172,13,176211,2,2,B|164:77|164:77|180:149,1,120,0|2,0:0|0:0,0:0:0
32,296,176511,2,2,B|40:232|40:232|24:160,1,120,0|2,0:0|0:0,0:0:0
8,148,176811,1,2,0:0:0
256,190,177011,5,0,0:0:0
256,190,177111,6,4,B|256:376,2,180,4|0|0,0:0|0:0|0:0,0:0:0
256,192,178386,12,0,185436,0:0:0
256,192,185511,12,0,196236,0:0:0
