osu file format v13

[General]
AudioFilename: miracle-hinacle.mp3
AudioLeadIn: 1650
PreviewTime: 38086
Countdown: 0
SampleSet: Soft
StackLeniency: 0.6
Mode: 0
LetterboxInBreaks: 0
WidescreenStoryboard: 0

[Editor]
Bookmarks: 151898
DistanceSpacing: 1
BeatDivisor: 4
GridSize: 4
TimelineZoom: 2.599999

[Metadata]
Title:Miracle-Hinacle
TitleUnicode:Miracle∞Hinacle
Artist:IOSYS
ArtistUnicode:IOSYS
Creator:Rare
Version:Lunatic
Source:Touhou
Tags:ZUN kagiyama hina 3L 0OoMickeyoO0
BeatmapID:387735
BeatmapSetID:158546

[Difficulty]
HPDrainRate:6
CircleSize:4
OverallDifficulty:8
ApproachRate:9
SliderMultiplier:1.6
SliderTickRate:1

[Events]
//Background and Video events
0,0,"hina.jpg",0,0
Video,0,"hinacle.avi"
//Break Periods
//Storyboard Layer 0 (Background)
//Storyboard Layer 1 (Fail)
//Storyboard Layer 2 (Pass)
//Storyboard Layer 3 (Foreground)
//Storyboard Sound Samples
//Background Colour Transformations
3,100,255,255,255

[TimingPoints]
680,375,4,2,1,60,1,0
12867,-100,4,3,1,40,0,0
13805,-100,4,2,1,60,0,0
25805,-100,4,2,1,45,0,0
26180,-100,4,2,1,60,0,0
36680,-100,4,2,1,40,0,0
37430,-100,4,2,1,50,0,0
38180,-100,4,2,1,60,0,1
38273,-100,4,2,1,60,0,0
50180,-100,4,2,1,60,0,1
50273,-100,4,2,1,60,0,0
72867,-100,4,3,1,40,0,0
73805,-100,4,2,1,60,0,0
85898,-100,4,2,1,45,0,0
86180,-100,4,2,1,60,0,0
96680,-100,4,2,1,40,0,0
97430,-100,4,2,1,50,0,0
98180,-100,4,2,1,60,0,1
98273,-100,4,2,1,60,0,0
110180,-100,4,2,1,60,0,1
110273,-100,4,2,1,60,0,0
122180,-133.333333333333,4,2,1,60,0,0
134555,-133.333333333333,4,2,1,40,0,0
143180,-100,4,2,1,60,0,0
144867,-100,4,3,1,40,0,0
145805,-100,4,2,1,45,0,0
146180,-100,4,2,1,60,0,0
156680,-100,4,2,1,40,0,0
157430,-100,4,2,1,50,0,0
170180,-100,4,2,1,60,0,1
182180,-100,4,2,1,60,0,0
192867,-100,4,3,1,40,0,0
193617,-100,4,2,1,30,0,0
193805,-100,4,2,1,60,0,0
197086,-100,4,2,1,30,0,0

[Colours]
Combo1 : 0,220,0
Combo2 : 191,13,13
Combo3 : 223,223,223

[HitObjects]
132,116,680,5,0,0:0:0:0:
204,52,867,2,0,L|220:132,1,80,0|0,1:0|1:0,0:0:0:0:
120,32,1242,1,0,0:0:0:0:
220,132,1430,2,0,L|174:199,1,80,0|0,1:0|1:0,0:0:0:0:
104,264,1805,1,0,1:0:0:0:
100,248,1898,1,0,1:0:0:0:
96,232,1992,1,0,1:0:0:0:
92,216,2086,1,0,1:0:0:0:
88,200,2180,6,0,L|168:220,1,80,4|0,0:0|0:0,0:0:0:0:
228,292,2555,2,0,P|268:296|308:280,1,80,0|0,1:0|0:0,0:0:0:0:
376,344,2930,2,0,L|452:240,1,120,0|0,0:0|0:0,0:0:0:0:
500,188,3305,2,0,P|508:148|504:108,1,80,0|0,1:0|0:0,0:0:0:0:
424,56,3680,1,0,0:0:0:0:
400,248,3867,2,0,P|428:284|472:296,1,80,0|0,0:0|1:0,0:0:0:0:
480,212,4242,1,0,0:0:0:0:
420,364,4430,2,0,P|464:375|506:357,1,80
224,304,4805,2,0,P|180:293|138:311,1,80,0|0,1:0|0:0,0:0:0:0:
72,364,5180,6,0,L|68:200,1,160,0|2,0:0|1:2,0:0:0:0:
112,108,5742,1,0,0:0:0:0:
28,276,5930,2,0,P|80:284|112:272,1,80,2|2,0:0|0:0,0:0:0:0:
172,196,6305,1,0,1:0:0:0:
32,68,6492,2,0,P|24:140|96:196,1,160,2|2,0:0|0:0,0:0:0:0:
200,116,7055,2,0,P|196:72|176:40,1,80,2|2,1:2|0:0,0:0:0:0:
12,168,7430,2,0,P|-2:209|2:246,1,80,2|0,0:0|0:0,0:0:0:0:
68,316,7805,2,0,L|156:312,1,80,2|0,1:2|1:0,0:0:0:0:
224,308,8086,1,0,1:0:0:0:
224,308,8180,6,0,P|272:304|308:312,1,80,4|0,0:0|0:0,0:0:0:0:
392,252,8555,2,0,L|400:340,1,80,0|0,1:0|0:0,0:0:0:0:
460,188,8930,2,0,P|408:156|344:172,1,120
296,216,9305,2,0,L|204:204,1,80,0|0,1:0|0:0,0:0:0:0:
112,196,9680,5,0,0:0:0:0:
172,112,9867,1,0,0:0:0:0:
216,205,10055,1,0,1:0:0:0:
72,92,10242,1,0,0:0:0:0:
29,175,10430,2,0,P|28:215|44:252,1,80
170,112,10805,2,0,P|171:72|156:36,1,80,0|0,1:0|0:0,0:0:0:0:
64,4,11180,5,0,0:0:0:0:
216,204,11367,2,0,P|252:172|269:138,1,80,0|2,1:0|1:2,0:0:0:0:
272,48,11742,1,0,0:0:0:0:
360,272,11930,2,0,L|352:192,1,80,2|2,1:2|1:2,0:0:0:0:
364,96,12305,2,0,L|320:112,1,40,0|0,1:0|1:0,0:0:0:0:
228,188,12492,2,0,L|265:174,1,40,2|0,1:2|1:0,0:0:0:0:
480,92,12867,5,0,1:0:0:0:
412,160,13055,1,4,0:0:0:0:
404,256,13242,1,4,0:0:0:0:
472,324,13430,1,0,0:0:0:0:
472,324,13805,1,0,1:0:0:0:
445,310,13898,1,0,1:0:0:0:
416,304,13992,1,0,1:0:0:0:
386,305,14086,1,0,1:0:0:0:
357,313,14180,6,0,L|280:344,1,80,4|0,0:0|0:0,0:0:0:0:
187,348,14555,1,0,1:0:0:0:
144,264,14742,1,0,0:0:0:0:
236,264,14930,2,0,P|244:224|236:176,1,80
204,96,15305,1,0,1:0:0:0:
160,180,15492,2,0,P|248:184|296:116,1,160
180,16,16055,1,0,1:0:0:0:
300,120,16242,1,0,0:0:0:0:
188,108,16430,2,0,P|136:99|94:36,1,120
76,4,16805,2,0,L|72:96,1,80,0|0,1:0|0:0,0:0:0:0:
64,192,17180,5,0,0:0:0:0:
156,216,17367,1,0,0:0:0:0:
80,276,17555,2,0,P|24:268|0:248,1,80,0|0,1:0|0:0,0:0:0:0:
144,123,17930,2,0,P|183:125|217:145,2,80,0|0|0,0:0|0:0|1:0,0:0:0:0:
252,236,18492,2,0,P|336:248|384:184,1,160,0|2,0:0|0:0,0:0:0:0:
300,144,19055,5,2,1:2:0:0:
160,272,19242,1,0,0:0:0:0:
240,324,19430,2,0,P|272:324|320:292,1,80,2|0,0:0|0:0,0:0:0:0:
380,232,19805,2,0,L|376:188,1,40,0|0,1:0|0:0,0:0:0:0:
440,136,19992,2,0,L|436:92,1,40,0|0,1:0|0:0,0:0:0:0:
368,32,20180,6,0,P|328:16|292:16,1,80,4|0,0:0|0:0,0:0:0:0:
104,148,20555,2,0,P|146:150|181:139,1,80,0|0,1:0|0:0,0:0:0:0:
204,48,20930,1,0,0:0:0:0:
224,232,21117,2,0,P|256:203|272:171,1,80,0|0,0:0|1:0,0:0:0:0:
388,232,21492,2,0,L|364:72,1,160
492,104,22055,2,0,L|483:193,1,80,0|0,1:0|0:0,0:0:0:0:
396,320,22430,2,0,P|340:312|304:252,1,120
312,188,22805,1,0,1:0:0:0:
464,188,22992,1,0,0:0:0:0:
312,368,23180,6,0,P|300:316|312:280,1,80
380,228,23555,1,0,1:0:0:0:
404,320,23742,1,0,0:0:0:0:
216,296,23930,2,0,L|240:220,1,80
284,136,24305,1,0,1:0:0:0:
448,288,24492,6,0,P|412:316|312:284,1,160,4|0,0:0|0:0,0:0:0:0:
380,216,25055,1,0,1:0:0:0:
460,304,25242,6,0,P|424:332|324:300,1,160,4|0,0:0|0:0,0:0:0:0:
268,220,25805,2,2,L|260:256,5,26.6666666666667
224,316,26180,6,0,L|140:304,1,80,4|0,0:0|0:0,0:0:0:0:
96,220,26555,1,0,1:0:0:0:
4,240,26742,1,0,0:0:0:0:
4,240,26836,1,0,0:0:0:0:
4,240,26930,1,0,0:0:0:0:
24,144,27117,1,0,0:0:0:0:
172,176,27305,2,0,P|180:208|172:260,1,80,0|0,1:0|0:0,0:0:0:0:
136,344,27680,6,0,L|220:332,1,80
264,248,28055,1,0,1:0:0:0:
312,332,28242,2,0,L|316:372,2,40
476,240,28617,1,0,0:0:0:0:
408,172,28805,2,0,P|376:164|324:172,1,80,0|0,1:0|0:0,0:0:0:0:
260,236,29180,6,0,L|236:160,1,80
164,96,29555,1,0,1:0:0:0:
241,26,29742,1,0,0:0:0:0:
241,26,29836,1,0,0:0:0:0:
241,26,29930,1,0,0:0:0:0:
236,160,30117,1,0,0:0:0:0:
85,49,30305,2,0,P|79:89|88:128,1,80,0|0,1:0|0:0,0:0:0:0:
148,204,30680,1,0,0:0:0:0:
76,355,30867,6,0,L|84:276,1,80,2|2,0:0|1:2,0:0:0:0:
60,184,31242,1,2,0:0:0:0:
192,124,31430,1,2,0:0:0:0:
60,184,31617,1,2,0:0:0:0:
164,296,31805,2,0,P|208:276|228:248,1,80,2|2,1:2|0:0,0:0:0:0:
288,200,32086,1,0,1:0:0:0:
288,200,32180,6,0,L|316:296,1,80,4|0,0:0|0:0,0:0:0:0:
472,328,32555,2,0,L|392:324,1,80,0|0,1:0|0:0,0:0:0:0:
196,216,32930,1,0,0:0:0:0:
232,132,33117,2,0,P|264:116|308:116,1,80,0|0,0:0|1:0,0:0:0:0:
376,184,33492,2,0,L|356:24,1,160
206,96,34055,2,0,P|246:99|284:88,1,80,0|0,1:0|0:0,0:0:0:0:
240,4,34430,1,0,0:0:0:0:
240,4,34617,1,0,0:0:0:0:
344,156,34805,2,0,P|363:120|368:81,1,80,0|0,1:0|0:0,0:0:0:0:
124,52,35180,6,0,P|115:91|121:130,1,80,0|0,1:0|0:0,0:0:0:0:
276,292,35555,2,0,P|272:252|254:216,1,80,0|0,1:0|0:0,0:0:0:0:
68,244,35930,2,0,P|107:252|146:246,1,80,0|0,1:0|0:0,0:0:0:0:
308,92,36305,2,0,P|268:95|232:113,1,80,0|0,1:0|0:0,0:0:0:0:
152,168,36680,6,0,L|144:224,1,40,0|0,1:0|1:0,0:0:0:0:
224,196,36867,2,0,L|216:252,1,40,0|0,1:0|1:0,0:0:0:0:
296,224,37055,2,0,L|288:280,1,40,0|0,1:0|1:0,0:0:0:0:
368,252,37242,2,0,L|360:308,1,40,0|0,1:0|1:0,0:0:0:0:
348,368,37430,5,0,0:0:0:0:
362,291,37617,1,2,0:0:0:0:
376,216,37805,2,0,L|392:116,1,80,0|2,0:0|0:0,0:0:0:0:
456,68,38180,6,0,P|484:116|444:216,1,160,4|0,0:0|1:0,0:0:0:0:
296,240,38742,1,0,0:0:0:0:
296,240,38930,2,0,L|424:236,1,120
476,184,39305,2,0,L|468:100,1,80,0|0,1:0|0:0,0:0:0:0:
456,8,39680,1,0,0:0:0:0:
456,8,40055,5,2,1:2:0:0:
476,184,40242,2,0,L|468:100,1,80,2|0,0:2|0:0,0:0:0:0:
344,56,40617,1,2,0:0:0:0:
308,148,40805,2,0,P|352:156|392:140,1,80,2|2,1:2|0:0,0:0:0:0:
444,68,41180,6,0,L|440:236,1,160,0|0,0:0|1:0,0:0:0:0:
432,324,41742,1,0,0:0:0:0:
232,260,41930,2,0,L|352:272,1,120
424,280,42305,2,0,L|416:196,1,80,0|0,1:0|0:0,0:0:0:0:
408,104,42680,1,0,0:0:0:0:
408,104,43055,5,2,1:2:0:0:
328,48,43242,1,2,0:0:0:0:
360,192,43430,2,0,P|408:204|444:196,1,80,0|2,0:0|0:0,0:0:0:0:
484,44,43805,1,0,1:0:0:0:
328,48,43992,1,0,0:0:0:0:
328,64,44086,1,0,1:0:0:0:
328,80,44180,6,0,L|332:244,2,160,4|0|0,0:0|1:0|0:0,0:0:0:0:
260,12,45117,1,0,0:0:0:0:
168,160,45305,2,0,P|208:164|248:152,1,80,0|0,1:0|0:0,0:0:0:0:
192,72,45680,1,0,0:0:0:0:
336,172,45867,1,0,0:0:0:0:
260,12,46055,1,0,1:0:0:0:
252,192,46242,1,0,0:0:0:0:
192,72,46430,2,0,P|144:40|44:56,1,160,0|0,0:0|1:0,0:0:0:0:
4,140,46992,1,0,0:0:0:0:
64,216,47180,5,0,0:0:0:0:
100,128,47367,1,0,0:0:0:0:
4,284,47555,2,0,P|36:304|84:304,1,80,0|0,1:0|0:0,0:0:0:0:
152,244,47930,1,0,0:0:0:0:
64,216,48117,1,0,0:0:0:0:
52,384,48305,2,0,P|89:386|132:364,1,80,0|0,1:0|0:0,0:0:0:0:
208,316,48680,1,0,0:0:0:0:
152,244,48867,1,0,0:0:0:0:
304,336,49055,2,0,P|306:299|284:256,1,80,0|0,1:0|0:0,0:0:0:0:
244,188,49336,1,0,1:0:0:0:
244,188,49430,6,0,L|324:204,1,80,2|2,0:0|0:0,0:0:0:0:
416,224,49805,1,0,1:0:0:0:
392,132,49992,1,2,0:0:0:0:
200,280,50180,6,0,P|240:308|344:268,1,160,4|0,0:0|1:0,0:0:0:0:
340,180,50742,1,0,0:0:0:0:
216,52,50930,2,0,L|220:176,1,120
220,256,51305,2,0,L|132:248,1,80,0|0,1:0|0:0,0:0:0:0:
44,232,51680,1,0,0:0:0:0:
44,232,52055,5,2,1:2:0:0:
112,168,52242,2,0,P|132:212|132:248,1,80,2|0,0:0|0:0,0:0:0:0:
72,320,52617,1,2,0:0:0:0:
220,200,52805,1,2,1:2:0:0:
32,148,52992,1,2,0:0:0:0:
132,356,53180,6,0,L|124:188,1,160,0|0,0:0|1:0,0:0:0:0:
120,100,53742,1,0,0:0:0:0:
368,184,53930,2,0,P|296:213|249:194,1,120
201,146,54305,2,0,L|209:62,1,80,0|0,1:0|0:0,0:0:0:0:
284,4,54680,1,0,0:0:0:0:
284,4,55055,5,2,1:2:0:0:
112,124,55242,1,2,0:0:0:0:
192,172,55430,2,0,P|236:176|272:156,1,80,0|2,0:0|0:0,0:0:0:0:
328,88,55805,1,0,1:0:0:0:
260,256,55992,1,0,0:0:0:0:
264,272,56086,1,0,1:0:0:0:
268,288,56180,6,0,P|332:296|396:220,2,160,4|0|0,0:0|1:0|0:0,0:0:0:0:
304,104,57117,1,0,0:0:0:0:
488,144,57305,2,0,P|500:184|496:224,1,80,0|0,1:0|0:0,0:0:0:0:
460,320,57680,1,0,0:0:0:0:
368,368,57867,1,0,0:0:0:0:
260,280,58055,2,0,L|340:276,1,80,0|0,1:0|0:0,0:0:0:0:
216,368,58430,2,0,P|172:332|176:232,1,160,0|0,0:0|1:0,0:0:0:0:
256,184,58992,1,0,0:0:0:0:
344,228,59180,6,0,L|432:224,1,80,0|0,0:0|0:0,0:0:0:0:
504,116,59555,2,0,L|416:120,1,80,0|0,1:0|0:0,0:0:0:0:
328,128,59930,1,0,0:0:0:0:
424,224,60117,1,0,0:0:0:0:
184,240,60305,2,0,P|224:266|264:264,1,80,0|0,1:0|0:0,0:0:0:0:
336,208,60680,6,0,L|328:120,1,80
260,64,61055,2,0,P|212:36|128:52,1,120,0|0,1:0|0:0,0:0:0:0:
96,96,61430,1,2,0:0:0:0:
80,192,61617,1,2,0:0:0:0:
216,264,61805,1,0,0:0:0:0:
200,168,61992,1,2,0:0:0:0:
24,272,62180,5,4,0:0:0:0:
24,272,62555,2,0,L|12:192,1,80,0|0,1:0|0:0,0:0:0:0:
184,72,62930,2,0,L|176:192,1,120,0|0,0:0|0:0,0:0:0:0:
112,232,63305,2,0,L|124:312,1,80,0|0,1:0|0:0,0:0:0:0:
204,364,63680,1,0,0:0:0:0:
392,260,63867,1,0,0:0:0:0:
424,349,64055,2,0,P|385:356|348:344,1,80,0|0,1:0|0:0,0:0:0:0:
284,272,64430,2,0,L|292:192,1,80
144,44,64805,2,0,L|136:124,1,80,0|0,1:0|0:0,0:0:0:0:
64,188,65180,6,0,P|116:224|208:184,1,160,0|2,0:0|1:2,0:0:0:0:
236,104,65742,1,0,0:0:0:0:
300,176,65930,1,2,0:0:0:0:
204,188,66117,1,2,0:0:0:0:
324,92,66305,1,0,1:0:0:0:
260,256,66492,2,0,L|244:88,1,160,2|2,0:0|0:0,0:0:0:0:
400,44,67055,2,0,P|412:80|404:128,1,80,2|2,1:2|0:0,0:0:0:0:
380,212,67430,2,0,L|468:200,1,80,2|0,0:0|0:0,0:0:0:0:
356,336,67805,2,0,L|268:348,1,80,2|0,1:2|0:0,0:0:0:0:
248,340,68086,1,0,1:0:0:0:
248,340,68180,6,0,P|232:300|236:256,1,80,4|0,0:0|0:0,0:0:0:0:
324,144,68555,2,0,L|320:224,1,80,0|0,1:0|0:0,0:0:0:0:
248,340,68930,2,0,P|192:352|140:312,1,120
112,244,69305,2,0,L|116:164,1,80,0|0,1:0|0:0,0:0:0:0:
132,68,69680,1,0,0:0:0:0:
204,128,69867,1,0,0:0:0:0:
116,168,70055,1,0,1:0:0:0:
132,68,70242,1,0,0:0:0:0:
284,88,70430,2,0,P|292:120|284:172,1,80
32,216,70805,2,0,P|24:184|32:132,1,80,0|0,1:0|0:0,0:0:0:0:
80,56,71180,5,0,0:0:0:0:
176,44,71367,2,0,L|152:128,1,80,0|2,1:0|1:2,0:0:0:0:
80,56,71742,1,0,0:0:0:0:
204,196,71930,2,0,P|164:212|116:204,1,80,2|2,1:2|1:2,0:0:0:0:
64,140,72305,1,0,1:0:0:0:
60,112,72398,1,0,0:0:0:0:
56,84,72492,1,2,1:2:0:0:
52,56,72586,1,0,0:0:0:0:
48,28,72867,5,0,1:0:0:0:
124,152,73055,1,4,0:0:0:0:
24,192,73242,1,4,0:0:0:0:
100,316,73430,1,0,0:0:0:0:
100,316,73805,2,0,L|156:328,1,40,0|0,1:0|0:0,0:0:0:0:
224,260,73992,2,0,L|280:272,1,40,0|0,1:0|0:0,0:0:0:0:
324,352,74180,6,0,L|412:344,1,80,4|0,0:0|0:0,0:0:0:0:
504,232,74555,2,0,P|464:228|424:244,1,80,0|0,1:0|0:0,0:0:0:0:
480,324,74930,1,0,0:0:0:0:
504,232,75117,1,0,0:0:0:0:
456,148,75305,1,0,1:0:0:0:
273,189,75492,2,0,P|328:243|404:228,1,160
368,64,76055,2,0,L|356:144,1,80,0|0,1:0|0:0,0:0:0:0:
188,256,76430,2,0,L|168:132,1,120
136,52,76805,2,0,L|220:64,1,80,0|0,1:0|0:0,0:0:0:0:
296,116,77180,5,0,0:0:0:0:
296,20,77367,1,0,0:0:0:0:
384,104,77555,2,0,P|384:144|364:180,1,80,0|0,1:0|0:0,0:0:0:0:
272,200,77930,1,0,0:0:0:0:
384,104,78117,1,0,0:0:0:0:
440,236,78305,1,0,1:0:0:0:
296,280,78492,6,0,P|219:280|174:217,1,160,0|2,0:0|0:0,0:0:0:0:
268,184,79055,1,2,1:2:0:0:
192,128,79242,1,0,0:0:0:0:
224,264,79430,2,0,P|264:276|312:260,1,80,2|0,0:0|0:0,0:0:0:0:
380,216,79805,2,0,L|388:264,1,40,0|0,1:0|1:0,0:0:0:0:
312,384,79992,2,0,L|320:336,1,40,0|0,1:0|1:0,0:0:0:0:
480,248,80180,6,0,P|480:288|462:325,1,80,4|0,0:0|0:0,0:0:0:0:
289,293,80555,2,0,L|368:308,1,80,0|0,1:0|0:0,0:0:0:0:
456,348,80930,1,0,0:0:0:0:
476,152,81117,2,0,L|488:248,1,80,0|0,0:0|1:0,0:0:0:0:
392,248,81492,2,0,L|376:88,1,160
300,28,82055,2,0,P|284:60|284:108,1,80,0|0,1:0|0:0,0:0:0:0:
300,200,82430,2,0,L|168:168,1,120
112,120,82805,2,0,L|112:200,1,80,0|0,1:0|0:0,0:0:0:0:
112,296,83180,5,0,0:0:0:0:
184,360,83367,1,0,0:0:0:0:
339,296,83555,2,0,L|260:300,1,80,0|0,1:0|0:0,0:0:0:0:
188,236,83930,1,0,0:0:0:0:
216,144,84117,2,0,L|295:147,1,80,0|0,0:0|1:0,0:0:0:0:
512,68,84492,6,0,L|352:71,1,160,4|0,0:0|0:0,0:0:0:0:
256,72,85055,1,0,1:0:0:0:
160,236,85242,6,0,P|216:255|294:204,1,160,4|0,0:0|0:0,0:0:0:0:
340,120,85805,2,2,L|348:84,5,26.6666666666667,2|2|2|2|2|0,0:0|0:0|0:0|0:0|0:0|0:0,0:0:0:0:
396,28,86180,6,0,L|432:104,1,80,4|0,0:0|0:0,0:0:0:0:
408,192,86555,1,0,1:0:0:0:
492,240,86742,1,0,0:0:0:0:
492,240,86836,1,0,0:0:0:0:
492,240,86930,1,0,0:0:0:0:
448,104,87117,1,0,0:0:0:0:
332,244,87305,2,0,P|360:272|404:280,1,80,0|0,1:0|0:0,0:0:0:0:
492,240,87680,5,0,0:0:0:0:
396,108,87867,2,0,L|408:188,1,80,0|0,0:0|1:0,0:0:0:0:
408,284,88242,2,0,L|424:324,2,40
288,164,88617,1,0,0:0:0:0:
248,252,88805,2,0,P|308:256|332:244,1,80,0|0,1:0|0:0,0:0:0:0:
380,168,89180,5,0,0:0:0:0:
347,4,89367,2,0,L|336:84,1,80,0|0,0:0|1:0,0:0:0:0:
288,164,89742,1,0,0:0:0:0:
288,164,89836,1,0,0:0:0:0:
288,164,89930,1,0,0:0:0:0:
244,80,90117,1,0,0:0:0:0:
209,307,90305,2,0,L|212:228,1,80,0|0,1:0|0:0,0:0:0:0:
156,152,90680,1,0,0:0:0:0:
84,1,90867,6,0,L|92:80,1,80,2|2,0:0|1:2,0:0:0:0:
68,172,91242,1,2,0:0:0:0:
68,172,91430,1,2,0:0:0:0:
200,232,91617,1,2,0:0:0:0:
172,60,91805,2,0,P|216:80|236:108,1,80,2|2,1:2|0:0,0:0:0:0:
296,156,92086,1,0,1:0:0:0:
296,156,92180,6,0,L|324:60,1,80,4|0,0:0|0:0,0:0:0:0:
400,28,92555,2,0,P|412:56|408:112,1,80,0|0,1:0|0:0,0:0:0:0:
376,196,92930,1,0,0:0:0:0:
316,64,93117,1,0,0:0:0:0:
224,200,93305,2,0,L|236:280,1,80,0|0,1:0|0:0,0:0:0:0:
296,356,93680,6,0,P|336:360|384:344,1,80
144,268,94055,2,0,P|104:264|56:280,1,80,0|0,1:0|0:0,0:0:0:0:
8,352,94430,1,0,0:0:0:0:
8,352,94617,1,0,0:0:0:0:
16,200,94805,2,0,L|8:108,1,80,0|0,1:0|0:0,0:0:0:0:
168,60,95180,6,0,P|185:95|189:135,1,80,0|0,1:0|0:0,0:0:0:0:
108,320,95555,2,0,P|101:280|110:241,1,80,0|0,1:0|0:0,0:0:0:0:
224,240,95930,2,0,L|312:252,1,80,0|0,1:0|0:0,0:0:0:0:
476,184,96305,2,0,L|396:173,1,80,0|0,1:0|0:0,0:0:0:0:
320,120,96680,6,0,L|314:80,1,40,0|0,1:0|1:0,0:0:0:0:
248,148,96867,2,0,L|242:108,1,40,0|0,1:0|1:0,0:0:0:0:
176,176,97055,2,0,L|170:136,1,40,0|0,1:0|1:0,0:0:0:0:
104,204,97242,2,0,L|98:164,1,40,0|0,1:0|1:0,0:0:0:0:
88,88,97430,5,0,0:0:0:0:
176,176,97617,1,2,0:0:0:0:
32,272,97805,2,0,L|24:192,1,80,0|2,0:0|0:0,0:0:0:0:
16,96,98180,6,0,L|184:104,1,160,4|0,0:0|1:0,0:0:0:0:
256,52,98742,1,0,0:0:0:0:
204,212,98930,2,0,P|152:216|92:180,1,120
40,128,99305,2,0,L|24:212,1,80,0|0,1:0|0:0,0:0:0:0:
8,300,99680,1,0,0:0:0:0:
8,300,100055,5,2,1:2:0:0:
88,352,100242,1,2,0:0:0:0:
124,176,100430,1,0,0:0:0:0:
144,268,100617,1,2,0:0:0:0:
20,92,100805,1,2,1:2:0:0:
0,184,100992,1,2,0:0:0:0:
80,264,101180,6,0,P|148:272|212:196,1,160,0|0,0:0|1:0,0:0:0:0:
216,116,101742,1,0,0:0:0:0:
316,292,101930,2,0,L|296:172,1,120
304,88,102305,2,0,L|368:136,1,80,0|0,1:0|0:0,0:0:0:0:
444,196,102680,1,0,0:0:0:0:
444,196,103055,5,2,1:2:0:0:
216,116,103242,1,2,0:0:0:0:
196,212,103430,2,0,P|236:212|276:192,1,80,0|2,0:0|0:0,0:0:0:0:
204,28,103805,1,2,1:2:0:0:
8,132,103992,1,0,0:0:0:0:
12,156,104086,1,0,1:0:0:0:
16,180,104180,6,0,P|80:200|156:152,2,160,4|0|0,0:0|1:0|0:0,0:0:0:0:
68,40,105117,1,0,0:0:0:0:
172,136,105305,2,0,L|164:224,1,80,0|0,1:0|0:0,0:0:0:0:
152,312,105680,1,0,0:0:0:0:
256,196,105867,1,0,0:0:0:0:
364,320,106055,2,0,L|280:300,1,80,0|0,1:0|0:0,0:0:0:0:
84,176,106430,2,0,P|156:156|216:208,1,160,0|0,0:0|1:0,0:0:0:0:
28,272,106992,1,0,0:0:0:0:
28,176,107180,6,0,P|32:112|28:16,2,160,0|0|0,0:0|1:0|0:0,0:0:0:0:
28,176,108117,1,0,0:0:0:0:
187,224,108305,2,0,L|108:228,1,80,0|0,1:0|0:0,0:0:0:0:
40,160,108680,2,0,P|32:120|36:72,1,80
108,20,109055,2,0,L|264:40,1,120,0|0,1:0|0:0,0:0:0:0:
296,72,109430,1,2,0:0:0:0:
388,46,109617,1,2,0:0:0:0:
379,202,109805,1,0,1:0:0:0:
440,127,109992,1,2,0:0:0:0:
290,167,110180,5,4,0:0:0:0:
290,167,110555,2,0,L|284:248,1,80,0|0,1:0|0:0,0:0:0:0:
0,288,110930,2,0,L|121:294,1,120
196,304,111305,2,0,L|188:216,1,80,0|0,1:0|0:0,0:0:0:0:
184,128,111680,1,0,0:0:0:0:
184,128,112055,5,2,1:2:0:0:
268,80,112242,2,0,P|280:120|276:160,1,80,2|0,0:0|0:0,0:0:0:0:
204,220,112617,1,2,0:0:0:0:
376,156,112805,2,0,L|348:232,1,80,2|2,1:2|0:0,0:0:0:0:
132,292,113180,6,0,P|184:324|276:292,1,160,0|0,0:0|1:0,0:0:0:0:
292,200,113742,1,0,0:0:0:0:
120,136,113930,2,0,L|128:260,1,120
144,336,114305,2,0,L|160:256,1,80,0|0,1:0|0:0,0:0:0:0:
120,136,114680,1,0,0:0:0:0:
120,136,115055,5,2,1:2:0:0:
40,188,115242,1,2,0:0:0:0:
212,192,115430,1,0,0:0:0:0:
231,98,115617,1,2,0:0:0:0:
152,44,115805,1,2,1:2:0:0:
144,264,115992,1,2,0:0:0:0:
144,264,116086,1,0,1:0:0:0:
144,264,116180,6,0,P|192:296|280:260,2,160,4|0|0,0:0|1:0|0:0,0:0:0:0:
212,196,117117,1,0,0:0:0:0:
112,96,117305,2,0,L|116:176,1,80,0|0,1:0|0:0,0:0:0:0:
132,272,117680,1,0,0:0:0:0:
204,104,117867,1,0,0:0:0:0:
40,160,118055,2,0,P|84:184|125:180,1,80,0|0,1:0|0:0,0:0:0:0:
364,204,118430,2,0,L|204:216,1,160,0|0,0:0|1:0,0:0:0:0:
108,228,118992,1,0,0:0:0:0:
48,304,119180,6,0,P|92:328|188:276,1,160,0|0,0:0|1:0,0:0:0:0:
196,188,119742,1,0,0:0:0:0:
8,132,119930,2,0,L|16:228,1,80
88,56,120305,2,0,L|96:152,1,80,0|0,1:0|0:0,0:0:0:0:
255,184,120680,2,0,L|176:188,1,80
92,140,121055,2,0,L|104:272,1,120,0|0,1:0|0:0,0:0:0:0:
112,336,121430,1,2,0:0:0:0:
100,240,121617,1,2,0:0:0:0:
20,296,121805,1,0,0:0:0:0:
192,276,121992,1,2,0:0:0:0:
92,140,122180,5,4,0:0:0:0:
92,140,122555,2,0,L|152:152,1,60.0000022888184,2|0,0:0|0:0,0:0:0:0:
254,226,122930,2,0,L|239:131,1,90.0000034332277,2|0,0:0|0:0,0:0:0:0:
224,64,123305,1,0,0:0:0:0:
92,140,123492,1,2,0:0:0:0:
92,140,123867,5,2,0:0:0:0:
48,220,124055,2,0,L|56:280,1,60.0000022888184,0|2,0:0|0:0,0:0:0:0:
128,383,124430,2,0,L|144:264,1,120.000004577637,0|2,0:0|0:0,0:0:0:0:
172,84,125180,6,0,L|187:203,1,120.000004577637,0|2,0:0|0:0,0:0:0:0:
224,284,125742,1,0,0:0:0:0:
224,200,125930,1,2,0:0:0:0:
220,116,126117,2,0,L|232:176,1,60.0000022888184,2|0,0:0|0:0,0:0:0:0:
408,232,126492,2,0,L|288:240,1,120.000004577637,2|2,0:0|0:0,0:0:0:0:
184,344,127055,2,0,P|220:348|252:340,1,60.0000022888184,2|2,0:0|0:0,0:0:0:0:
320,300,127430,2,0,L|316:236,1,60.0000022888184,2|0,0:0|0:0,0:0:0:0:
168,132,127805,2,0,L|172:196,1,60.0000022888184,2|0,0:0|0:0,0:0:0:0:
216,272,128180,6,0,P|276:276|328:240,1,120.000004577637,4|2,0:0|0:0,0:0:0:0:
352,160,128742,1,2,0:0:0:0:
296,232,128930,2,0,L|288:324,1,90.0000034332277,2|0,0:0|0:0,0:0:0:0:
220,352,129305,2,0,L|160:336,1,60.0000022888184,2|2,0:0|0:0,0:0:0:0:
8,244,129867,5,2,0:0:0:0:
92,216,130055,1,0,0:0:0:0:
28,156,130242,1,2,0:0:0:0:
8,328,130430,2,0,P|40:320|68:304,1,60.0000022888184,2|0,0:0|0:0,0:0:0:0:
180,212,130805,2,0,P|172:180|156:152,1,60.0000022888184,2|0,0:0|0:0,0:0:0:0:
24,88,131180,6,0,L|36:208,1,120.000004577637,0|2,0:0|0:0,0:0:0:0:
144,312,131742,1,0,0:0:0:0:
264,188,131930,2,0,P|244:152|228:136,1,60.0000022888184,2|2,0:0|0:0,0:0:0:0:
144,116,132305,1,0,0:0:0:0:
240,276,132492,2,0,P|304:276|344:232,1,120.000004577637,2|2,0:0|0:0,0:0:0:0:
348,148,133055,1,0,0:0:0:0:
364,236,133242,1,2,0:0:0:0:
372,324,133430,2,0,P|412:312|428:300,1,60.0000022888184,2|0,0:0|0:0,0:0:0:0:
480,168,133805,2,0,L|476:228,1,60.0000022888184,2|0,0:0|0:0,0:0:0:0:
304,236,134180,6,0,L|300:296,1,60.0000022888184,4|0,0:0|0:0,0:0:0:0:
172,384,134555,2,0,L|168:324,1,60.0000022888184,0|0,1:0|0:0,0:0:0:0:
188,136,134930,2,0,L|184:196,1,60.0000022888184,0|0,1:0|0:0,0:0:0:0:
56,284,135305,2,0,L|52:224,1,60.0000022888184,0|0,1:0|0:0,0:0:0:0:
72,136,135680,6,0,P|32:136|4:144,1,60.0000022888184,0|0,1:0|0:0,0:0:0:0:
164,284,136055,2,0,P|204:284|232:276,1,60.0000022888184,0|0,1:0|0:0,0:0:0:0:
352,340,136430,2,0,L|340:248,1,90.0000034332277,0|0,1:0|0:0,0:0:0:0:
392,188,136805,2,0,P|356:172|328:168,1,60.0000022888184,0|0,1:0|0:0,0:0:0:0:
108,168,137180,6,0,L|228:180,1,120.000004577637,0|2,1:0|1:2,0:0:0:0:
316,188,137742,1,0,0:0:0:0:
168,256,137930,2,0,L|228:260,1,60.0000022888184,2|2,1:2|0:0,0:0:0:0:
316,276,138305,1,0,1:0:0:0:
208,112,138492,1,2,0:0:0:0:
76,160,138680,2,0,L|80:224,1,60.0000022888184,0|2,1:0|0:0,0:0:0:0:
216,220,139055,2,0,L|212:284,1,60.0000022888184,0|2,1:0|0:0,0:0:0:0:
112,320,139430,2,0,L|48:328,1,60.0000022888184,2|0,1:2|0:0,0:0:0:0:
240,384,139805,2,0,L|304:376,1,60.0000022888184,2|0,1:2|0:0,0:0:0:0:
388,352,140180,6,0,L|380:288,1,60.0000022888184,4|0,0:0|0:0,0:0:0:0:
483,208,140555,2,0,L|424:212,1,60.0000022888184,0|0,1:0|0:0,0:0:0:0:
336,192,140930,2,0,L|340:96,1,90.0000034332277,0|0,1:0|0:0,0:0:0:0:
344,20,141305,2,0,L|280:40,1,60.0000022888184,0|0,1:0|0:0,0:0:0:0:
204,76,141680,1,0,1:0:0:0:
124,36,141867,1,0,0:0:0:0:
52,88,142055,2,0,P|48:128|52:152,1,60.0000022888184,0|0,1:0|0:0,0:0:0:0:
68,236,142430,2,0,L|4:228,1,60.0000022888184,0|0,1:0|0:0,0:0:0:0:
116,320,142805,2,0,L|180:328,1,60.0000022888184,0|0,1:0|0:0,0:0:0:0:
264,340,143180,5,0,0:0:0:0:
352,360,143367,2,0,P|352:320|336:284,1,80,0|2,1:0|1:2,0:0:0:0:
248,244,143742,1,0,0:0:0:0:
440,296,143930,2,0,L|404:208,1,80,2|2,1:2|1:2,0:0:0:0:
328,176,144305,1,0,1:0:0:0:
323,152,144398,1,0,1:0:0:0:
319,130,144492,1,2,1:2:0:0:
316,108,144586,1,0,1:0:0:0:
313,86,144867,5,0,1:0:0:0:
231,47,145055,1,4,0:0:0:0:
328,176,145242,1,4,0:0:0:0:
398,117,145430,1,0,0:0:0:0:
398,117,145805,2,0,L|404:160,5,26.6666666666667,2|2|2|2|2|0,0:0|0:0|0:0|0:0|0:0|0:0,0:0:0:0:
472,184,146180,6,0,L|464:264,1,80,4|0,0:0|0:0,0:0:0:0:
416,348,146555,1,0,1:0:0:0:
320,348,146742,1,0,0:0:0:0:
320,348,146836,1,0,0:0:0:0:
320,348,146930,1,0,0:0:0:0:
300,252,147117,1,0,0:0:0:0:
244,332,147305,2,0,P|284:348|332:340,1,80,0|0,1:0|0:0,0:0:0:0:
380,272,147680,5,0,0:0:0:0:
204,164,147867,2,0,L|212:244,1,80,0|0,0:0|1:0,0:0:0:0:
232,336,148242,2,0,L|272:324,2,40
140,304,148617,1,0,0:0:0:0:
292,172,148805,2,0,L|300:252,1,80,0|0,1:0|0:0,0:0:0:0:
324,344,149180,6,0,P|360:344|400:324,1,80
444,240,149555,1,0,1:0:0:0:
392,160,149742,1,0,0:0:0:0:
392,160,149836,1,0,0:0:0:0:
392,160,149930,1,0,0:0:0:0:
352,248,150117,1,0,0:0:0:0:
484,160,150305,2,0,L|464:80,1,80,0|0,1:0|0:0,0:0:0:0:
400,12,150680,1,0,0:0:0:0:
336,84,150867,5,2,0:0:0:0:
284,164,151055,2,0,P|332:180|368:172,1,80,2|2,1:2|0:0,0:0:0:0:
424,104,151430,1,2,0:0:0:0:
500,264,151617,1,2,0:0:0:0:
432,200,151805,2,0,P|412:236|412:276,1,80,2|2,1:2|0:0,0:0:0:0:
420,356,152086,1,0,1:0:0:0:
420,356,152180,6,0,L|332:344,1,80,4|0,0:0|0:0,0:0:0:0:
272,280,152555,1,0,1:0:0:0:
256,184,152742,1,0,0:0:0:0:
196,328,152930,2,0,P|217:357|272:370,1,80
336,216,153305,1,0,1:0:0:0:
420,356,153492,2,0,P|456:312|432:208,1,160
395,56,154055,2,0,L|388:136,1,80,0|0,1:0|0:0,0:0:0:0:
232,188,154430,2,0,L|312:196,1,80
484,296,154805,2,0,P|432:296|408:284,1,80,0|0,1:0|0:0,0:0:0:0:
336,348,155180,6,0,P|319:313|315:273,1,80,0|0,1:0|0:0,0:0:0:0:
396,88,155555,2,0,P|403:128|394:167,1,80,0|0,1:0|0:0,0:0:0:0:
228,272,155930,2,0,P|184:260|156:228,1,80,0|0,1:0|0:0,0:0:0:0:
87,104,156305,2,0,L|80:184,1,80,0|0,1:0|0:0,0:0:0:0:
76,280,156680,6,0,L|124:272,1,40,0|0,1:0|1:0,0:0:0:0:
207,193,156867,2,0,L|168:200,1,40,0|0,1:0|1:0,0:0:0:0:
76,152,157055,2,0,L|82:191,1,40,0|0,1:0|1:0,0:0:0:0:
204,324,157242,2,0,L|197:284,1,40,0|0,1:0|1:0,0:0:0:0:
76,280,157430,5,0,0:0:0:0:
207,193,157617,1,2,0:0:0:0:
72,72,157805,2,0,L|76:152,1,80,0|2,0:0|0:0,0:0:0:0:
44,244,158180,6,0,P|116:248|168:180,1,160,4|0,0:0|1:0,0:0:0:0:
172,80,158742,2,0,L|168:40,4,40,0|0|0|0|0,0:0|0:0|0:0|1:0|0:0,0:0:0:0:
248,140,159305,2,0,L|244:224,1,80,0|0,1:0|0:0,0:0:0:0:
236,316,159680,5,0,0:0:0:0:
440,344,159867,2,0,P|444:308|432:264,1,80,0|0,0:0|1:0,0:0:0:0:
176,196,160242,2,0,P|236:228|320:196,1,160
424,56,160805,2,0,L|420:140,1,80,0|0,1:0|0:0,0:0:0:0:
432,232,161180,5,0,0:0:0:0:
284,48,161367,2,0,L|280:132,1,80,0|0,0:0|1:0,0:0:0:0:
252,340,161742,1,0,0:0:0:0:
240,312,161835,1,0,0:0:0:0:
236,282,161929,1,0,0:0:0:0:
239,253,162023,1,0,1:0:0:0:
249,224,162117,1,0,0:0:0:0:
352,96,162305,2,0,L|344:176,1,80,0|0,1:0|0:0,0:0:0:0:
467,288,162680,6,0,P|428:288|392:271,1,80,0|0,0:0|0:0,0:0:0:0:
444,188,163055,1,0,1:2:0:0:
216,268,163242,1,0,0:0:0:0:
196,172,163430,2,0,P|236:172|276:192,1,80,0|0,0:0|0:0,0:0:0:0:
204,356,163805,1,0,1:2:0:0:
8,252,163992,1,0,0:0:0:0:
12,228,164086,1,0,1:0:0:0:
16,204,164180,6,0,P|80:184|156:232,1,160,0|0,0:0|1:0,0:0:0:0:
108,340,164742,2,0,L|96:288,4,40,0|0|0|0|0,0:0|0:0|0:0|1:0|0:0,0:0:0:0:
236,264,165305,2,0,P|240:216|232:184,1,80,0|0,1:0|0:0,0:0:0:0:
180,116,165680,1,0,0:0:0:0:
156,208,165867,1,0,0:0:0:0:
324,160,166055,2,0,P|308:128|272:100,1,80,0|0,1:0|0:0,0:0:0:0:
96,164,166430,2,0,P|154:214|232:195,1,160,0|0,0:0|1:0,0:0:0:0:
268,108,166992,1,0,0:0:0:0:
236,200,167180,6,0,L|324:192,1,80
384,92,167555,1,0,1:0:0:0:
485,202,167742,1,0,0:0:0:0:
500,176,167835,1,0,0:0:0:0:
509,148,167929,1,0,0:0:0:0:
509,118,168023,1,0,1:0:0:0:
500,89,168117,1,0,0:0:0:0:
440,0,168305,2,0,P|383:5|363:19,1,80,0|0,1:0|0:0,0:0:0:0:
172,128,168680,6,0,P|229:123|249:109,1,80
324,56,169055,2,0,L|320:176,1,120,0|0,1:0|0:0,0:0:0:0:
316,256,169430,1,0,1:0:0:0:
424,60,169617,1,0,1:0:0:0:
488,128,169805,2,0,P|500:160|492:216,1,80,0|0,1:0|1:0,0:0:0:0:
456,292,170180,5,4,0:0:0:0:
400,216,170367,1,0,0:0:0:0:
280,336,170555,2,0,P|332:344|364:328,1,80,0|0,1:0|0:0,0:0:0:0:
408,252,170930,2,0,L|396:128,1,120
384,52,171305,1,0,1:0:0:0:
256,152,171492,1,0,0:0:0:0:
280,60,171680,1,0,0:0:0:0:
280,60,172055,5,2,1:2:0:0:
168,196,172242,1,2,0:0:0:0:
248,248,172430,2,0,P|288:243|321:219,1,80,0|2,0:0|0:0,0:0:0:0:
356,132,172805,1,2,1:2:0:0:
256,152,172992,1,2,0:0:0:0:
348,288,173180,6,0,P|424:288|472:216,1,160,0|0,0:0|1:0,0:0:0:0:
456,128,173742,1,0,0:0:0:0:
328,168,173930,2,0,L|332:292,1,120
340,376,174305,2,0,L|264:348,1,80,0|0,1:0|0:0,0:0:0:0:
172,316,174680,1,0,0:0:0:0:
172,316,175055,5,2,1:2:0:0:
172,188,175242,1,2,0:0:0:0:
62,252,175430,1,0,0:0:0:0:
184,328,175617,1,2,0:0:0:0:
184,200,175805,1,2,1:2:0:0:
72,264,175992,1,0,0:0:0:0:
76,276,176086,1,0,1:0:0:0:
80,288,176180,6,0,P|140:320|228:280,1,160,4|0,0:0|1:0,0:0:0:0:
152,224,176742,1,0,0:0:0:0:
248,128,176930,1,0,0:0:0:0:
248,128,177117,1,0,0:0:0:0:
348,156,177305,2,0,P|360:196|356:236,1,80,0|0,1:0|0:0,0:0:0:0:
304,312,177680,1,0,0:0:0:0:
220,356,177867,1,0,0:0:0:0:
104,272,178055,2,0,L|184:268,1,80,0|0,1:0|0:0,0:0:0:0:
56,364,178430,2,0,P|12:328|16:228,1,160,0|0,0:0|1:0,0:0:0:0:
100,184,178992,1,0,0:0:0:0:
160,256,179180,6,0,P|192:212|164:112,1,160,0|0,0:0|1:0,0:0:0:0:
76,92,179742,1,0,0:0:0:0:
88,272,179930,2,0,P|132:268|172:240,1,80
240,120,180305,2,0,L|244:200,1,80,0|0,1:0|0:0,0:0:0:0:
332,384,180680,2,0,L|328:304,1,80
256,236,181055,2,0,P|200:224|144:252,1,120,0|0,1:0|0:0,0:0:0:0:
88,312,181430,1,2,0:0:0:0:
72,216,181617,1,2,0:0:0:0:
192,144,181805,1,0,0:0:0:0:
208,240,181992,1,2,0:0:0:0:
152,64,182180,5,4,0:0:0:0:
152,64,182555,2,0,L|240:72,1,80,0|0,1:0|0:0,0:0:0:0:
464,128,182930,2,0,L|344:132,1,120
276,168,183305,2,0,L|192:164,1,80,0|0,1:0|0:0,0:0:0:0:
100,156,183680,1,0,0:0:0:0:
148,72,183867,1,0,0:0:0:0:
236,248,184055,2,0,L|148:240,1,80,0|0,1:0|0:0,0:0:0:0:
288,328,184430,2,0,L|376:336,1,80
488,196,184805,2,0,L|408:203,1,80,0|0,1:0|0:0,0:0:0:0:
320,244,185180,6,0,L|324:80,1,160,0|2,0:0|1:2,0:0:0:0:
260,12,185742,1,0,0:0:0:0:
214,184,185930,2,0,P|175:194|136:188,1,80,2|2,0:0|0:0,0:0:0:0:
168,100,186305,1,0,1:0:0:0:
68,352,186492,2,0,P|32:280|48:204,1,160,2|2,0:0|0:0,0:0:0:0:
148,132,187055,2,0,L|156:228,1,80,0|2,1:0|0:0,0:0:0:0:
302,296,187430,2,0,L|224:280,1,80,2|0,0:0|0:0,0:0:0:0:
136,240,187805,2,0,P|128:196|132:160,1,80,2|0,1:2|0:0,0:0:0:0:
168,92,188086,1,0,1:0:0:0:
168,92,188180,6,0,L|248:112,1,80,4|0,0:0|0:0,0:0:0:0:
400,158,188555,2,0,P|363:171|324:168,1,80,0|0,1:0|0:0,0:0:0:0:
136,240,188930,2,0,L|256:232,1,120
324,268,189305,2,0,L|316:180,1,80,0|0,1:0|0:0,0:0:0:0:
304,92,189680,1,0,0:0:0:0:
392,132,189867,1,0,0:0:0:0:
228,196,190055,2,0,P|188:192|152:172,1,80,0|0,1:0|0:0,0:0:0:0:
208,4,190430,2,0,P|224:40|225:81,1,80
44,80,190805,2,0,L|136:72,1,80,0|0,1:0|0:0,0:0:0:0:
276,104,191180,5,0,0:0:0:0:
312,271,191367,2,0,L|316:192,1,80,0|2,1:0|1:2,0:0:0:0:
372,112,191742,1,0,0:0:0:0:
232,184,191930,2,0,P|272:192|324:180,1,80,2|2,1:2|1:2,0:0:0:0:
372,112,192305,1,0,1:0:0:0:
372,92,192398,1,0,1:0:0:0:
372,72,192492,1,2,1:2:0:0:
372,52,192586,1,0,1:0:0:0:
372,32,192867,5,0,1:0:0:0:
432,184,193055,1,4,0:0:0:0:
460,92,193242,1,4,0:0:0:0:
460,272,193430,2,0,P|420:275|384:260,1,80,4|0,0:0|0:0,0:0:0:0:
312,196,193805,1,0,1:0:0:0:
308,224,193898,1,0,1:0:0:0:
304,252,193992,1,0,1:0:0:0:
300,280,194086,1,0,1:0:0:0:
296,308,194180,1,4,0:0:0:0:
256,192,194273,12,0,197086,1:0:0:0:
