osu file format v5

[General]
AudioFilename: 05 - Miracle-Hinacle.mp3
AudioLeadIn: 0
PreviewTime: 38037
Countdown: 0
SampleSet: Normal
StackLeniency: 0.9
Mode: 0
LetterboxInBreaks: 1
EditorBookmarks: 74034
EditorDistanceSpacing: 1

[Metadata]
Title:Miracle-Hinacle
Artist:IOSYS
Creator:-SiN-
Version:Vieroz Curse
Source:Touhou Soyu Shinpi
Tags:Touhou Miracle Hinacle IOSYS

[Difficulty]
HPDrainRate:3
CircleSize:5
OverallDifficulty:3
SliderMultiplier:1
SliderTickRate:1

[Events]
//Background and Video events
0,0,"IOSYS-TouhouSoyuShinpiCover.jpg"
//Break Periods
2,7859,12594
2,62233,63969
2,67859,72594
//Storyboard Layer 0 (Background)
//Storyboard Layer 1 (Fail)
//Storyboard Layer 2 (Pass)
//Storyboard Layer 3 (Foreground)
//Storyboard Sound Samples
//Background Colour Transformations
3,100,0,128,0

[TimingPoints]
544,375,4,1,0,90,1,0
4669,-100,4,1,0,90,0,0
5419,-100,4,2,0,90,0,0
14044,-100,4,1,0,90,0,0
65044,-100,4,2,0,90,0,0
67856,-100,4,1,0,90,0,0

[Colours]
Combo1 : 255,157,60
Combo2 : 180,6,6
Combo3 : 140,210,140

[HitObjects]
120,288,2044,5,4
216,288,2419,2,0,B|440:288|448:208,1,250,8|2
448,120,3731,2,0,B|384:120,3,50,0|0|2|2
296,120,4669,1,8
96,120,5419,5,0
192,120,5794,6,0,B|240:176,1,50
192,200,6169,2,0,B|224:240,1,50
120,240,6731,6,2,B|120:296,3,50,2|2|0|2
176,344,7669,1,2
72,112,14044,6,0,B|280:112,1,200,8|0
408,176,15356,2,0,B|232:176,1,150
184,240,16294,2,0,B|312:240,1,100,0|8
384,240,17044,1,8
288,120,17606,6,0,B|328:72,2,50,0|8|8
384,80,18356,2,4,B|504:80,1,100,2|2
488,128,18919,1,8
456,168,19106,1,2
488,208,19294,1,10
288,208,20044,5,4
184,208,20419,1,0
80,208,20794,1,0
80,304,21169,2,0,B|392:304,1,300,0|8
384,104,23044,5,0
480,104,23419,1,0
480,200,23794,2,0,B|424:136|328:200,1,150,0|4
344,288,24731,5,0
344,288,24919,1,4
344,288,25106,1,4
256,48,26044,5,0
456,48,26794,2,0,B|392:48,3,50,0|0|2|2
88,192,28669,5,0
184,192,29044,2,0,B|368:312,1,200,8|8
400,304,29981,1,0
432,264,30169,1,8
400,224,30356,1,4
112,16,31669,5,0
112,16,32044,2,2,B|112:112|224:176|344:112|344:8,1,350
96,264,34669,1,0
192,288,35044,2,0,B|128:272,6,50
192,184,36544,6,0,B|416:184,1,200,0|8
488,184,37669,1,8
488,80,38044,6,0,B|360:80,1,100,8|0
288,80,38794,1,4
288,176,39169,2,2,B|176:176,1,100
408,280,41044,6,2,B|280:280,1,100,2|0
256,192,41794,1,8
192,280,42169,2,2,B|88:280,1,100
376,192,43669,5,0
376,192,43856,1,0
376,192,44044,1,0
112,40,45169,6,0,B|96:96,1,50
144,112,45544,2,0,B|152:168,1,50,0|0
104,184,45919,2,8,B|80:256,1,50
112,272,46294,1,0
176,344,46669,5,0
216,312,46856,1,0
256,280,47044,2,2,B|320:184|384:288|400:152|480:152,1,250,0|2
440,112,48169,1,0
392,88,48356,2,0,B|344:64|344:-32|184:24|208:128|64:56,1,350,0|8
72,160,50044,5,4
200,232,50606,1,8
200,232,50794,1,8
288,280,51169,1,0
288,280,51356,1,2
288,280,51544,1,2
456,104,53044,6,0,B|352:104,2,100,0|8|8
456,200,54169,2,2,B|400:200,1,50,2|2
352,200,54544,1,2
256,192,54919,12,0,56044
272,192,57169,6,8,B|312:144|408:192,3,100
360,272,58669,5,0
312,280,58856,1,0
264,296,59044,2,0,B|104:352|448:344,1,250
440,312,60169,1,0
440,264,60356,2,2,B|424:176|400:80|208:32|96:168,1,450,2|4
384,104,65419,5,2
312,176,65794,6,2,B|304:224|352:224,3,50
224,208,66731,6,2,B|216:256|264:256,3,50
152,200,67669,5,2
232,192,74044,5,4
384,192,74606,2,0,B|320:192,2,50,0|8|8
280,192,75356,1,2
176,192,75731,2,0,B|176:136,1,50
88,192,76294,1,0
88,288,76669,5,0
184,288,77044,2,0,B|184:360,2,50,0|8|8
280,288,77794,1,8
280,288,77981,1,8
376,288,78356,6,0,B|376:176,1,100
376,136,78919,2,2,B|320:136,2,50
192,56,80044,5,4
192,256,80794,2,0,B|296:256,1,100
288,208,81356,2,0,B|184:208,1,100
136,208,81919,1,8
72,344,82294,5,0
232,344,83044,2,8,B|304:344,1,50
360,344,83606,2,0,B|424:344,2,50,0|8|8
360,264,84356,5,4
360,112,84919,2,4,B|360:168,1,50
112,112,86044,5,2
112,312,86794,6,8,L|232:312,1,100
216,264,87356,2,0,L|472:264,1,250,8|0
464,160,88669,5,0
432,64,89044,2,2,L|224:64,1,200
160,128,90169,2,2,L|464:128,1,300
464,224,91669,5,0
360,224,92044,2,0,L|248:224|248:328|152:328,1,300,4|0
168,328,93356,2,0,B|48:328|8:200|40:152,1,250,0|0
136,168,94669,6,0,B|136:240,1,50
184,216,95044,2,0,B|400:216,1,200
384,112,96169,1,0
432,112,96356,1,0
480,112,96544,2,0,B|480:216,1,100
192,312,98044,5,0
40,312,98606,2,2,B|-8:264,2,50
80,280,99169,2,10,B|32:224,2,50
472,192,101044,6,0,B|352:192,1,100
320,192,101606,2,2,B|264:192,1,50
216,192,101981,2,8,B|216:312,1,100
216,344,102544,1,8
256,192,104044,12,4,105169
448,312,105544,5,8
448,256,105919,1,0
448,200,106294,1,2
448,120,106669,6,2,B|336:120,2,100,0|2|2
256,192,108169,12,4,110044
256,192,110794,6,2,B|176:192,1,75
120,192,111356,1,8
80,192,111544,1,8
368,48,113044,6,0,B|368:200,1,150,0|8
368,240,113794,2,8,B|288:240,1,75
232,240,114356,2,2,B|168:240,1,50
384,112,115669,5,0
384,152,115856,1,0
384,192,116044,2,0,B|384:296,3,100
312,272,117544,5,2
248,272,117919,1,0
184,272,118294,1,8
184,168,118669,6,0,B|248:168,1,50
280,168,119044,2,2,B|488:168,1,200,2|8
256,192,120169,12,4,122044
