osu file format v5

[General]
AudioFilename: 05 - Miracle-Hinacle.mp3
AudioLeadIn: 0
PreviewTime: 38037
Countdown: 0
SampleSet: Normal
StackLeniency: 0.8
Mode: 0
LetterboxInBreaks: 1
EditorBookmarks: 38034,62034,93346,110034,128034,143034,146034,170034,182034,191221
EditorDistanceSpacing: 1

[Metadata]
Title:Miracle-Hinacle
Artist:IOSYS
Creator:-SiN-
Version:SiN Curse
Source:Touhou Soyu Shinpi
Tags:Touhou Miracle Hinacle IOSYS

[Difficulty]
HPDrainRate:9
CircleSize:5
OverallDifficulty:7
SliderMultiplier:1.5
SliderTickRate:1

[Events]
//Background and Video events
0,0,"IOSYS-TouhouSoyuShinpiCover.jpg"
//Break Periods
2,48546,49134
2,62234,64509
2,67859,70321
2,122234,127134
2,140234,142134
2,180546,181134
//Storyboard Layer 0 (Background)
//Storyboard Layer 1 (Fail)
//Storyboard Layer 2 (Pass)
//Storyboard Layer 3 (Foreground)
//Storyboard Sound Samples
//Background Colour Transformations
3,100,0,128,0

[TimingPoints]
544,375,4,1,0,100,1,0
5325,-100,4,2,0,100,0,0
8044,-100,4,1,0,100,0,0
15262,-200,4,1,0,100,0,0
15825,-100,4,1,0,100,0,0
39825,-100,4,2,0,100,0,0
40950,-100,4,1,0,100,0,0
42825,-100,4,2,0,100,0,0
43762,-100,4,1,0,100,0,0
51825,-100,4,2,0,100,0,0
52950,-100,4,1,0,100,0,0
54825,-100,4,2,0,100,0,0
55762,-100,4,1,0,100,0,0
65325,-100,4,2,0,100,0,0
70950,-100,4,1,0,100,0,0
91200,-100,4,2,0,100,0,0
91575,-100,4,1,0,100,0,0
99825,-100,4,2,0,100,0,0
100950,-100,4,1,0,100,0,0
102825,-100,4,2,0,100,0,0
103762,-100,4,1,0,100,0,0
111825,-100,4,2,0,100,0,0
112950,-100,4,1,0,100,0,0
114825,-100,4,2,0,100,0,0
115762,-100,4,1,0,100,0,0
128325,-100,4,2,0,100,0,0
142931,-100,4,1,0,100,0,0
159825,-100,4,2,0,100,0,0
160950,-100,4,1,0,100,0,0
162825,-100,4,2,0,100,0,0
163762,-100,4,1,0,100,0,0
171809,-100,4,2,0,100,0,0
172950,-100,4,1,0,100,0,0
174795,-100,4,2,0,100,0,0
175762,-100,4,1,0,100,0,0
185316,-100,4,2,0,100,0,0
187950,-100,4,1,0,100,0,0

[Colours]
Combo1 : 255,157,60
Combo2 : 180,6,6
Combo3 : 140,210,140

[HitObjects]
330,35,2044,2,0,B|256:3|178:35,1,150
220,98,2606,2,0,B|257:80|296:101,1,75
308,325,3075,2,0,B|257:365|196:317,1,112.5,0|0
257,162,3731,1,0
219,98,3919,1,0
294,98,4106,1,0
257,163,4294,2,0,B|257:339,1,150,0|2
72,56,5419,5,10
440,56,5794,1,2
464,144,5981,1,0
464,232,6169,1,8
440,320,6356,1,2
72,320,6731,1,2
48,232,6919,1,8
48,144,7106,1,0
72,56,7294,1,2
440,56,7669,1,10
330,349,8044,6,0,B|256:381|178:349,1,150
220,286,8606,2,0,B|257:304|296:283,1,75
308,59,9075,2,0,B|257:19|196:67,1,112.5,0|0
257,224,9731,1,0
217,288,9919,1,0
294,286,10106,1,0
258,224,10294,2,0,B|258:48,1,150,0|2
160,192,11044,6,0,B|192:240,2,37.5
256,192,11419,1,8
352,192,11606,2,0,B|320:240,2,37.5
256,192,11981,1,0
256,112,12169,1,0
256,96,12262,1,0
256,80,12356,1,0
256,64,12450,1,0
148,144,12731,5,8
220,120,12919,1,0
292,120,13106,1,8
356,152,13294,1,8
256,264,13669,6,0,C|256:216,2,37.5
256,336,14044,5,4
184,336,14231,1,0
336,336,14606,1,0
292,274,14794,1,0
220,274,14981,1,0
256,208,15356,6,0,B|256:96,1,75
256,132,15919,1,0
128,208,16294,1,0
256,64,16575,1,0
376,208,16856,1,0
376,112,17044,6,0,B|456:64,1,75
128,112,17606,2,0,B|48:64,2,75,0|0|0
256,64,18356,1,0
172,188,18731,1,0
220,132,18919,1,0
294,133,19106,1,8
342,189,19294,1,8
40,192,20044,5,4
88,240,20231,1,0
136,296,20419,1,0
256,208,20794,1,0
256,280,20981,1,0
208,136,21356,2,0,B|128:72|40:152,1,150
72,128,21919,2,2,B|0:192|88:280,1,150,2|2
70,260,22481,2,0,B|136:320|224:256,1,150
256,208,23044,5,0
256,208,23231,1,0
408,208,23606,2,0,C|408:128,1,75
352,80,23981,2,0,C|280:24,1,75,0|0
216,32,24356,1,0
216,160,24731,2,8,C|128:160,2,75,0|8|8
256,200,26044,6,0,B|208:288|32:240|72:168,1,225
48,160,26700,1,0
48,120,26794,1,0
112,80,26981,1,0
184,48,27169,1,2
256,56,27356,2,0,B|296:192|416:80|448:264,1,300
424,288,28200,1,0
392,312,28294,1,0
320,312,28481,1,0
240,312,28669,5,2
240,160,29044,2,0,L|192:232|152:160|96:280,1,300
160,328,29981,1,0
192,312,30075,1,0
224,296,30169,1,2
296,264,30356,2,0,B|408:272|464:168|416:32|280:56,1,375,0|4
128,56,31669,5,2
128,56,31856,1,0
128,56,31950,1,0
128,56,32044,1,0
256,192,32137,12,4,33356
72,48,34669,5,0
72,200,35044,2,0,C|48:296,1,75
120,240,35419,2,0,C|136:336,1,75
184,264,35794,2,0,C|232:360,1,75
256,264,36169,2,0,C|312:264,2,37.5
256,192,36544,5,0
272,192,36637,1,0
288,192,36731,1,0
304,192,36825,1,0
320,192,36919,1,0
336,192,37012,1,0
352,192,37106,1,0
384,256,37294,5,0
320,288,37481,1,0
248,312,37669,1,0
176,280,37856,1,0
104,248,38044,6,0,B|64:200|40:160|81:103|184:112,1,225
248,112,38794,2,0,B|168:232,1,112.5
248,112,39356,1,0
248,112,39544,1,0
392,64,39919,6,10,L|464:120,1,75,10|2
448,184,40294,1,2
448,200,40387,1,2
448,216,40481,1,10
448,288,40669,1,10
384,320,40856,1,0
312,344,41044,6,0,B|264:232|408:264|320:128,1,225
248,136,41794,2,0,B|208:256,2,112.5
248,136,42544,1,0
120,64,42919,6,10,L|48:120,1,75,10|2
64,184,43294,1,2
64,200,43387,1,2
64,216,43481,1,10
64,288,43669,5,10
128,320,43856,1,0
192,288,44044,2,2,B|240:376|440:360|504:264|488:152|440:88,1,450
384,120,45356,2,0,B|328:200,2,75
304,120,45919,2,0,B|248:200,2,75
344,264,46669,5,0
280,304,46856,1,0
216,264,47044,2,0,C|160:200|264:200|200:112|296:112,1,375
344,112,48169,5,0
416,112,48356,1,4
56,48,50044,6,0,B|80:136|152:104|184:0|232:96,1,225
176,144,50794,2,0,B|120:184|96:120|56:200,1,112.5
72,288,51356,1,0
72,288,51544,1,0
256,192,51919,12,2,52669
456,48,53044,6,0,B|432:136|360:104|328:0|280:96,1,225
336,144,53794,2,0,B|392:184|416:120|456:200,1,112.5
440,288,54356,1,0
440,288,54544,1,0
256,192,54919,12,2,55669
384,320,55856,5,0
320,288,56044,2,2,B|272:376|72:360|8:264|24:152|72:88,1,450
128,120,57356,2,0,B|184:200,2,75
200,120,57919,2,0,B|256:200,2,75
168,264,58669,5,0
232,296,58856,1,0
296,264,59044,2,0,C|352:200|248:200|312:112|216:112,1,375
168,112,60169,5,0
96,112,60356,1,4
256,192,60450,12,4,62044
96,328,65419,5,8
176,40,65794,1,0
288,48,65981,1,2
392,80,66169,1,8
472,160,66356,1,2
336,344,66731,1,0
224,336,66919,1,8
120,304,67106,1,2
40,224,67294,1,2
416,56,67669,1,10
72,64,71044,6,0,B|112:40|160:72,2,75,0|8|8
224,64,71794,1,8
296,64,71981,1,0
368,64,72169,1,8
368,80,72262,1,0
368,96,72356,1,0
368,112,72450,1,0
400,280,72731,5,0
312,352,72919,1,0
200,352,73106,1,0
104,288,73294,1,0
96,96,73669,5,0
96,96,73762,1,0
96,96,73856,1,0
168,96,74044,5,4
240,96,74231,1,0
392,96,74606,2,0,C|480:96,2,75
392,248,75356,1,0
240,248,75731,1,0
312,272,75919,1,0
160,272,76294,5,0
88,120,76575,1,0
256,80,76856,1,0
64,192,77044,6,0,B|160:240,1,75
448,192,77606,2,0,B|352:240,2,75
336,336,78356,5,0
176,336,78731,1,0
256,336,78919,1,8
220,270,79106,1,2
292,270,79294,1,2
464,96,80044,6,0,B|463:48|408:16,1,75
40,96,80606,2,0,B|41:48|96:16,1,75
72,32,80981,1,0
256,184,81356,2,0,C|256:360,1,150,0|0
256,334,81919,1,0
432,184,82294,5,0
256,32,82575,1,0
80,184,82856,1,0
256,184,83044,5,0
256,184,83231,1,0
328,312,83606,1,0
256,344,83794,1,0
192,312,83981,1,0
256,72,84356,5,0
192,312,84731,1,0
256,272,84919,1,8
328,312,85106,1,0
40,144,86044,6,0,B|56:80|136:16|272:80|296:136,1,300
320,192,86981,1,0
352,256,87169,1,0
288,296,87356,2,0,B|88:336|24:208|224:176|224:176|146:293|341:180,1,525
432,88,89044,6,0,C|376:64|352:112|264:40|216:88,1,300
144,72,89981,1,0
80,112,90169,1,0
32,168,90356,2,0,B|128:264|192:144|224:296|384:320,1,375,0|2
456,160,91669,5,0
456,160,91856,1,0
456,160,91950,1,0
456,160,92044,2,0,B|432:312|256:344|88:320|64:128,1,525,0|4
256,48,94669,5,0
200,200,95044,5,0
200,200,95231,1,0
312,200,95419,5,0
312,200,95606,1,0
128,200,95794,5,0
128,200,95981,1,0
384,200,96169,5,0
384,200,96356,1,0
312,272,96544,5,0
296,272,96637,1,0
280,272,96731,1,0
264,272,96825,1,0
248,272,96919,1,0
232,272,97012,1,0
216,272,97106,1,0
256,208,97294,6,0,B|256:128,3,75
256,56,98044,1,4
448,312,98606,6,0,B|352:312,1,75
256,192,99075,1,0
64,312,99356,2,0,B|160:312,1,75
200,176,99919,6,10,B|168:144|104:152,1,75,10|2
104,80,100294,1,2
104,64,100387,1,2
104,48,100481,1,10
184,48,100669,1,10
256,48,100856,1,0
256,128,101044,5,0
40,192,101606,1,0
96,240,101794,1,0
256,128,102075,1,0
416,240,102356,1,0
472,192,102544,1,0
320,176,102919,6,10,B|344:144|408:152,1,75,10|2
408,80,103294,1,2
408,64,103387,1,2
408,48,103481,1,10
328,48,103669,1,10
256,48,103856,5,0
256,120,104044,2,2,B|256:72|256:72|424:80|424:160|256:272|256:272|256:184,1,450
176,200,105356,2,0,B|160:96,1,75
88,128,105731,1,0
32,176,105919,2,0,B|88:232,1,75
152,264,106294,1,0
288,320,106669,5,0
360,320,106856,1,0
432,320,107044,2,0,B|480:248|464:120|392:64|248:64,1,375
192,64,108169,1,0
120,64,108356,1,0
256,192,108544,12,0,109669
128,88,110044,5,0
184,136,110231,1,0
192,144,110325,1,0
200,152,110419,1,0
256,200,110606,2,0,B|336:200,2,75
408,200,111356,1,0
408,200,111544,1,0
328,328,111919,5,10
256,328,112106,1,2
200,280,112294,1,2
144,224,112481,1,10
136,216,112575,1,10
128,208,112669,1,10
80,152,112856,1,2
128,88,113044,5,0
184,136,113231,1,0
192,144,113325,1,0
200,152,113419,1,0
256,200,113606,2,0,B|336:200,2,75
408,200,114356,1,0
408,200,114544,1,0
256,192,114919,12,2,115669
256,48,115856,5,0
256,120,116044,2,2,B|256:72|256:72|88:80|88:160|256:272|256:272|256:184,1,450
336,200,117356,2,0,B|352:96,1,75
424,128,117731,1,0
480,176,117919,2,0,B|424:232,1,75
360,264,118294,1,0
224,320,118669,5,0
152,320,118856,1,0
80,320,119044,2,0,B|32:248|48:120|120:64|264:64,1,375
320,64,120169,1,0
392,64,120356,1,0
256,192,120544,12,4,122044
256,192,128044,5,4
72,56,128419,5,0
440,56,128794,1,0
440,328,129169,1,2
440,328,129356,1,2
72,328,129919,1,0
72,56,130294,1,0
440,56,130669,2,2,B|328:64|416:200|304:272|224:200,1,300,0|2
128,104,131794,6,0,B|56:168,1,75,2|0
128,280,132169,2,0,B|56:224,1,75,0|2
384,104,132731,2,0,B|456:168,1,75,2|2
384,280,133106,2,0,B|456:224,1,75,0|2
256,192,133669,1,0
72,56,134044,5,0
72,56,134231,1,2
128,104,134419,1,0
128,104,134606,1,2
184,56,134794,1,0
184,56,134981,1,2
240,104,135169,1,0
240,104,135356,1,2
296,56,135544,6,0,C|400:40,1,75,0|2
440,56,135919,2,0,C|464:152,1,75,0|2
400,176,136294,2,0,C|440:240,1,75,0|2
432,312,136669,2,0,C|336:352,1,75,0|2
312,280,137044,5,0
264,336,137231,1,2
184,336,137419,2,0,C|80:336,1,75,0|2
64,272,137794,1,0
120,224,137981,1,2
192,200,138169,2,0,C|280:224,1,75,0|2
256,192,138544,12,4,140044
88,104,143044,5,0
160,112,143231,1,0
192,120,143325,1,0
224,128,143419,1,0
176,184,143606,1,0
248,200,143794,1,0
280,208,143887,1,0
312,216,143981,1,0
304,288,144169,1,0
340,292,144262,1,0
373,299,144356,1,0
408,304,144450,1,0
440,192,144731,5,0
392,136,144919,1,0
328,96,145106,1,0
256,80,145294,1,0
184,80,145481,1,0
128,136,145669,5,0
160,152,145762,1,0
192,168,145856,1,0
224,184,145950,1,0
256,192,146044,6,0,B|304:104|480:152|440:224,1,225
464,232,146700,1,0
464,272,146794,1,0
400,312,146981,1,0
328,336,147169,1,2
256,328,147356,2,0,B|216:192|96:304|64:120,1,300
88,88,148200,1,0
120,72,148294,1,0
192,64,148481,1,0
272,72,148669,5,2
272,224,149044,2,0,L|320:152|360:224|416:104,1,300
352,56,149981,1,0
320,72,150075,1,0
288,88,150169,1,2
216,120,150356,2,0,B|104:112|48:216|96:352|232:328,1,375,0|4
384,328,151669,5,0
384,328,151856,1,0
384,328,151950,1,0
384,328,152044,1,0
256,192,152137,12,4,153356
440,336,154669,5,0
440,184,155044,2,0,C|464:88,1,75
392,144,155419,2,0,C|376:48,1,75
328,120,155794,2,0,C|280:24,1,75
256,120,156169,2,0,C|200:120,2,37.5
256,192,156544,5,0
240,192,156637,1,0
224,192,156731,1,0
208,192,156825,1,0
192,192,156919,1,0
176,192,157012,1,0
160,192,157106,1,0
128,128,157294,5,0
192,96,157481,1,0
264,72,157669,1,0
336,104,157856,1,0
408,136,158044,6,0,B|448:184|472:224|431:281|328:272,1,225
264,272,158794,2,0,B|344:152,1,112.5
264,272,159356,1,0
264,272,159544,1,0
120,320,159919,6,10,L|48:264,1,75,10|2
64,200,160294,1,2
64,184,160387,1,2
64,168,160481,1,10
64,96,160669,1,10
128,64,160856,1,0
200,40,161044,6,0,B|248:152|104:120|192:256,1,225
264,248,161794,2,0,B|304:128,2,112.5
264,248,162544,1,0
392,320,162919,6,10,L|464:264,1,75,10|2
448,200,163294,1,2
448,184,163387,1,2
448,168,163481,1,10
448,96,163669,5,10
384,64,163856,1,0
320,96,164044,2,2,B|272:8|72:24|8:120|24:232|72:296,1,450
128,264,165356,2,0,B|178:177,2,75
200,264,165919,2,0,B|248:176,2,75
160,120,166669,5,0
224,88,166856,1,0
288,120,167044,2,0,C|344:184|240:184|304:272|208:272,1,375
160,272,168169,5,0
88,272,168356,1,4
328,88,169106,5,0
304,120,169200,1,0
280,152,169294,1,0
288,224,169481,1,0
360,240,169669,1,0
432,264,169856,1,0
456,336,170044,6,0,B|432:248|360:280|328:384|280:288,1,225
336,240,170794,2,0,B|392:200|416:264|456:184,1,112.5
440,96,171356,1,0
440,96,171544,1,0
256,192,171919,12,2,172669
56,336,173044,6,0,B|80:248|152:280|184:384|232:288,1,225
176,240,173794,2,0,B|120:200|96:264|56:184,1,112.5
72,96,174356,1,0
72,96,174544,1,0
256,192,174919,12,2,175669
128,64,175856,5,0
192,96,176044,2,2,B|240:8|440:24|504:120|488:232|440:296,1,450
384,264,177356,2,0,B|328:184,2,75
304,264,177919,2,0,B|248:184,2,75
344,120,178669,5,0
280,80,178856,1,0
216,120,179044,2,0,C|160:184|264:184|200:272|296:272,1,375
344,272,180169,5,0
416,272,180356,1,4
182,35,182044,6,0,B|256:3|334:35,1,150
292,98,182606,2,0,B|255:80|216:101,1,75
204,325,183075,2,0,B|255:365|316:317,1,112.5,0|0
255,162,183731,1,0
293,98,183919,1,0
218,98,184106,1,0
255,163,184294,2,0,B|255:339,1,150,0|2
440,56,185419,5,10
72,56,185794,1,2
40,144,185981,1,0
40,232,186169,1,8
80,312,186356,1,2
440,312,186731,1,2
464,232,186919,1,8
464,144,187106,1,0
440,56,187294,1,2
72,56,187669,1,10
182,349,188044,6,0,B|256:381|334:349,1,150
292,286,188606,2,0,B|255:304|216:283,1,75
204,59,189075,2,0,B|255:19|316:67,1,112.5,0|0
255,224,189731,1,0
295,288,189919,1,0
218,286,190106,1,0
254,224,190294,2,0,B|254:48,1,150,0|2
56,184,191231,5,0
56,200,191325,1,0
56,216,191419,1,0
144,96,191794,1,0
144,112,191887,1,0
144,128,191981,1,0
144,144,192075,1,0
144,160,192169,1,0
144,176,192262,1,0
144,192,192356,1,0
256,96,192731,5,0
256,168,192919,1,0
256,240,193106,1,0
256,312,193294,1,0
368,216,193669,5,0
368,232,193762,1,0
368,248,193856,1,0
368,264,193950,1,0
368,280,194044,1,4
