osu file format v5

[General]
AudioFilename: 05 - Miracle-Hinacle.mp3
AudioLeadIn: 1015
PreviewTime: 38037
Countdown: 0
SampleSet: Normal
StackLeniency: 0.9
Mode: 1
LetterboxInBreaks: 1
EditorBookmarks: 74034
EditorDistanceSpacing: 1

[Metadata]
Title:Miracle-Hinacle
Artist:IOSYS
Creator:-SiN-
Version:Rokodo_[RL] Taiko Curse
Source:Touhou Soyu Shinpi
Tags:Touhou Miracle Hinacle IOSYS

[Difficulty]
HPDrainRate:8
CircleSize:5
OverallDifficulty:3
SliderMultiplier:1.4
SliderTickRate:1

[Events]
//Background and Video events
0,0,"Miracle-Hinacle_TAIKO.png"
//Break Periods
//Storyboard Layer 0 (Background)
//Storyboard Layer 1 (Failing)
//Storyboard Layer 2 (Passing)
//Storyboard Layer 3 (Foreground)
//Storyboard Sound Samples
//Background Colour Transformations
3,100,0,128,0

[TimingPoints]
544,375,4,1,0,100,1,0
38044,-100,4,1,0,100,0,1
62044,-100,4,1,0,100,0,0
98044,-100,4,1,0,100,0,1
122044,-100,4,1,0,100,0,0

[HitObjects]
32,32,544,1,0
32,96,731,1,8
32,160,919,1,8
32,224,1106,5,0
32,288,1294,1,8
96,288,1481,1,8
160,288,1669,5,8
160,224,1762,1,8
160,160,1856,1,8
160,128,1950,1,8
160,64,2044,1,0
224,64,2419,5,8
224,128,2606,1,0
224,192,2981,5,0
224,256,3169,1,8
288,256,3544,5,0
352,256,3919,1,8
352,192,4106,1,0
352,128,4481,5,0
352,64,4669,1,8
128,160,5044,1,0
128,224,5419,5,8
128,288,5606,1,0
224,288,5981,5,0
224,224,6169,1,8
320,224,6544,5,8
320,288,6731,1,8
384,288,6919,1,8
32,32,7106,5,8
32,96,7169,1,8
32,160,7231,1,8
32,224,7294,1,8
256,160,7481,5,8
352,160,7669,1,8
416,160,7856,1,8
416,96,8044,5,0
256,256,8231,1,8
256,320,8419,1,0
128,192,8606,5,0
128,256,8700,1,8
128,320,8887,1,0
192,320,8981,1,8
192,256,9169,5,0
192,192,9356,1,8
288,192,9544,1,0
288,288,9731,5,8
352,288,9919,1,0
352,224,10106,1,8
352,160,10200,1,0
352,96,10387,5,0
352,32,10481,1,8
288,64,10669,1,0
160,64,10856,1,8
128,128,11044,1,0
128,192,11231,5,0
128,256,11419,1,0
192,256,11606,1,0
192,320,11794,1,8
256,352,11887,1,0
288,288,12075,5,8
288,224,12169,1,0
288,160,12356,1,0
64,64,12544,2,0,B|512:96,1,420
32,32,14044,5,0
32,96,14231,1,0
32,160,14325,1,0
32,224,14419,1,8
96,224,14606,5,0
96,288,14794,1,8
192,288,14981,1,0
256,288,15169,5,8
256,224,15356,1,0
256,160,15544,1,0
256,96,15637,1,8
320,96,15825,5,8
320,160,15919,1,0
320,224,16106,1,8
320,288,16200,1,8
384,288,16294,1,8
384,224,16481,5,8
416,160,16669,1,0
416,96,16856,1,0
192,160,17044,5,8
192,224,17137,1,0
192,320,17325,5,0
128,320,17419,1,8
96,256,17606,5,8
96,192,17700,1,8
96,128,17794,1,0
160,64,17981,1,0
224,64,18169,1,0
256,128,18356,5,0
288,192,18544,1,0
288,256,18731,1,8
288,320,18919,5,8
352,320,19106,1,8
352,256,19294,1,4
32,288,20044,5,0
32,224,20231,1,8
32,160,20419,1,8
32,96,20606,1,8
32,288,20794,5,0
32,224,20981,1,8
32,160,21169,1,8
32,96,21356,1,8
96,288,21544,5,0
96,224,21731,1,0
96,160,21919,1,8
96,96,22106,5,8
160,96,22294,1,0
160,160,22481,1,0
160,224,22669,5,8
160,288,22856,1,8
224,288,23044,5,0
256,224,23137,1,8
320,224,23231,1,0
320,288,23325,1,0
384,288,23419,1,0
288,128,23606,5,8
352,128,23700,1,8
352,64,23794,1,0
288,64,23981,5,8
224,64,24169,1,0
160,64,24356,1,0
96,64,24731,5,8
96,128,24919,1,0
96,192,25106,1,8
160,192,25294,5,0
160,256,25481,1,0
160,320,25669,1,8
256,192,26044,12,0,28481
32,32,28669,5,0
32,96,29044,5,0
32,160,29231,5,8
32,224,29419,5,0
32,288,29606,5,8
96,288,29794,5,0
96,224,29887,1,8
96,160,29981,1,8
160,192,30169,1,0
160,256,30356,1,0
160,320,30544,1,8
224,320,30825,5,8
224,256,31106,1,8
224,192,31481,1,8
224,128,31669,1,8
288,288,32044,5,0
288,224,32137,1,0
288,160,32231,1,0
352,160,32419,1,0
352,224,32606,1,8
288,288,32794,1,0
288,224,32887,5,0
288,160,32981,1,0
352,160,33169,1,0
352,224,33356,1,8
288,288,33544,5,0
288,224,33637,1,0
288,160,33731,1,0
352,160,33919,1,0
352,224,34106,1,8
288,288,34294,5,0
288,224,34387,1,0
288,160,34481,1,0
352,160,34669,1,0
352,224,34856,1,8
64,64,35044,1,0
64,160,35419,5,0
64,224,35606,1,0
32,288,35981,5,0
32,352,36169,1,0
96,352,36544,5,0
160,352,36919,1,4
32,32,38044,5,4
32,96,38419,5,8
32,160,38606,1,8
32,224,38794,1,0
128,96,39169,5,8
128,160,39356,1,8
128,256,39544,1,0
192,256,39919,5,8
192,320,40106,1,0
256,320,40387,1,0
320,320,40669,5,0
320,256,40856,1,0
320,192,41044,1,0
224,192,41419,5,8
224,256,41606,1,8
224,320,41794,1,0
128,192,42169,5,8
128,256,42356,1,8
128,320,42544,1,0
320,256,42919,5,8
320,192,43106,1,0
320,128,43481,1,8
256,192,43669,5,8
256,256,43762,1,8
256,320,43856,1,0
320,320,44044,1,8
384,288,44231,1,8
64,192,44606,5,0
64,256,44794,1,8
64,320,44981,1,8
64,192,45356,5,0
64,256,45544,1,8
64,320,45731,1,8
64,192,46106,5,0
64,256,46294,1,8
64,320,46481,1,8
192,320,46856,5,4
192,256,47044,1,8
192,192,47137,1,8
192,128,47231,1,0
192,64,47325,1,0
256,64,47419,1,0
256,128,47606,5,0
256,192,47794,1,8
256,256,47887,1,8
256,320,47981,1,0
320,320,48075,1,8
320,256,48169,1,0
320,192,48356,5,0
320,128,48544,1,4
320,64,48825,5,4
384,64,49106,1,4
64,320,50044,5,0
64,256,50137,1,0
64,192,50231,1,8
128,192,50419,1,0
128,256,50606,1,8
64,320,50794,5,0
64,256,50887,1,0
64,192,50981,1,8
128,192,51169,1,0
128,256,51356,1,8
64,320,51544,5,0
64,256,51637,1,0
64,192,51731,1,8
128,192,51919,1,0
128,256,52106,1,8
64,320,52294,5,0
64,256,52387,1,0
64,192,52481,1,8
128,192,52669,1,0
128,256,52856,1,8
192,320,53044,1,0
224,256,53231,5,8
256,192,53325,1,8
288,128,53419,1,0
288,64,53512,1,0
352,64,53606,1,8
352,128,53794,1,0
352,224,53981,5,8
352,288,54075,1,8
416,288,54169,1,0
416,224,54262,1,8
416,160,54356,1,0
32,32,54544,1,8
32,96,54606,1,8
32,160,54669,1,8
32,224,54731,1,8
160,320,54919,1,0
160,256,55106,1,0
128,192,55294,1,12
128,128,55669,5,12
192,192,55856,1,0
256,192,56044,1,0
256,128,56137,1,8
256,64,56231,1,8
320,64,56419,5,0
320,128,56606,1,8
320,192,56794,1,0
320,256,56981,1,8
320,320,57075,1,0
384,320,57262,5,0
384,288,57356,1,8
384,224,57544,5,0
384,160,57637,1,0
416,96,57731,1,8
160,192,57919,1,0
160,288,58106,1,8
224,288,58294,1,0
256,224,58481,5,8
256,160,58575,1,0
256,96,58762,1,0
256,32,58856,1,8
320,288,59044,1,8
384,288,59137,1,8
384,224,59231,1,0
384,160,59419,5,8
384,96,59606,1,0
160,288,59794,1,8
160,224,59887,1,8
160,192,59981,1,0
160,128,60169,5,8
96,192,60356,1,0
64,288,60544,1,0
96,352,60637,1,0
160,352,60731,1,8
224,352,60825,1,0
288,352,60919,1,0
320,288,61106,5,0
320,224,61294,1,0
288,160,61481,1,0
224,224,61669,1,0
128,192,61856,5,4
160,128,62044,1,4
32,32,65044,5,0
32,96,65419,1,0
32,160,65606,1,8
32,224,65794,1,8
96,224,66169,1,8
96,288,66356,1,0
160,288,66731,5,8
160,224,66919,1,0
160,160,67106,1,0
160,96,67294,1,0
224,128,67669,1,8
224,192,68044,1,0
64,128,71044,5,0
64,192,71137,1,0
64,256,71231,1,8
128,256,71419,1,0
192,256,71606,1,8
64,128,71794,1,0
64,192,71887,5,0
64,256,71981,1,8
128,256,72169,1,0
256,256,72356,1,0
320,256,72544,1,0
320,192,72731,5,0
320,128,72919,1,0
160,96,73106,1,0
256,64,73294,5,0
320,64,73387,1,0
416,64,73481,1,0
416,128,73575,1,0
416,192,73669,1,0
416,256,73856,5,0
32,288,74044,2,0,B|320:352,1,280
160,160,75731,5,0
160,224,75919,1,0
160,288,76106,1,0
224,288,76294,1,0
320,288,76575,5,0
320,224,76856,1,0
320,160,77044,1,0
224,160,77231,1,8
320,160,77419,5,0
224,160,77606,1,8
320,160,77794,1,0
224,160,77981,5,8
320,160,78169,1,0
224,160,78356,1,8
64,256,78544,5,0
128,288,78731,1,8
192,288,78919,1,8
192,224,79106,5,0
128,224,79294,1,8
96,64,80044,5,0
128,128,80137,1,0
160,160,80231,1,0
224,160,80419,1,0
288,160,80606,1,8
320,224,80794,5,0
288,256,80887,1,0
224,256,80981,1,0
160,256,81169,1,0
96,192,81356,1,8
96,64,81544,5,0
128,128,81637,1,0
160,160,81731,1,0
224,160,81919,1,0
288,160,82106,1,8
320,224,82294,5,0
288,256,82387,1,0
224,256,82481,1,0
160,256,82669,1,0
96,192,82856,1,8
384,96,83044,5,0
320,64,83231,1,8
256,64,83419,5,8
192,96,83606,1,0
192,160,83794,5,8
224,224,83887,1,0
288,256,83981,1,8
352,256,84169,5,8
416,288,84356,1,0
384,352,84544,5,0
320,352,84731,1,8
224,352,84919,5,0
160,320,85106,1,0
96,256,85294,5,0
224,192,86044,1,4
320,224,86606,5,0
352,288,86794,1,0
384,224,87075,5,0
384,160,87356,5,0
320,128,87544,1,8
288,160,87731,5,8
256,224,87919,1,8
256,288,88106,5,0
320,288,88294,1,8
96,320,88669,5,0
96,256,88856,1,0
96,160,89044,1,8
96,96,89325,5,8
160,96,89606,5,0
160,160,89794,1,8
160,224,90075,5,8
160,288,90356,5,0
160,352,90544,1,8
192,224,91669,5,0
256,224,91856,1,0
320,224,92044,1,0
384,224,92325,1,8
384,288,92606,5,8
320,320,92794,1,0
224,320,92981,5,0
160,320,93075,1,0
96,320,93169,1,8
128,256,93356,5,8
192,256,93544,1,8
288,256,93825,5,8
320,192,94106,1,8
320,128,94669,5,4
64,256,95044,1,0
128,320,95419,1,8
224,320,95606,1,0
128,320,95981,5,8
224,320,96169,1,0
288,288,96544,5,0
288,224,96731,1,8
288,160,96825,1,0
288,96,96919,1,0
352,128,97106,5,0
352,224,97481,1,8
352,288,97669,1,0
32,32,98044,1,0
32,96,98231,5,8
32,160,98325,1,0
32,224,98419,1,0
96,224,98606,1,8
96,288,98794,1,0
160,288,98981,5,8
160,224,99075,1,0
160,192,99169,1,0
224,160,99356,1,8
288,256,99544,5,0
288,320,99637,1,0
384,320,99731,5,8
384,256,99825,1,0
384,192,99919,1,0
384,128,100012,1,0
384,64,100106,5,8
320,64,100200,1,0
288,64,100294,1,8
224,64,100481,5,8
224,128,100669,1,0
224,192,100856,1,8
192,256,101044,1,0
128,288,101137,1,0
128,224,101231,1,8
128,160,101419,5,0
128,96,101606,1,8
192,96,101794,1,0
224,96,101887,1,0
288,96,101981,1,8
320,160,102169,5,0
320,224,102356,1,8
320,288,102544,1,0
256,320,102919,1,12
160,320,103106,1,4
64,160,103481,5,8
64,224,103669,1,8
128,224,103856,1,8
256,224,104044,1,0
256,160,104137,1,0
256,96,104231,1,8
288,96,104419,5,0
320,96,104606,1,8
256,224,104794,1,0
256,160,104887,1,0
256,96,104981,1,8
288,96,105169,5,0
320,96,105356,1,8
256,224,105544,1,0
256,160,105637,1,0
256,96,105731,1,8
288,96,105919,5,0
320,96,106106,1,8
256,224,106294,1,0
256,160,106387,1,0
256,96,106481,1,8
288,96,106669,5,0
320,96,106856,1,8
256,224,107044,1,0
256,160,107137,1,0
256,96,107231,1,8
288,96,107419,5,0
320,96,107606,1,8
256,224,107794,1,0
256,160,107887,1,0
256,96,107981,1,8
288,96,108169,5,0
320,96,108356,1,8
256,224,108544,1,0
256,160,108637,1,0
256,96,108731,1,8
288,96,108919,5,0
320,96,109106,1,8
256,224,109294,1,0
256,160,109387,1,0
256,96,109481,1,8
288,96,109669,5,0
320,96,109856,1,8
32,256,110044,5,0
64,320,110137,1,8
128,320,110231,1,8
32,256,110419,5,0
64,320,110512,1,8
128,320,110606,1,8
32,256,110794,5,0
64,320,110887,1,8
128,320,110981,1,8
32,256,111169,5,0
64,320,111262,1,8
128,320,111356,1,8
32,256,111544,5,0
64,320,111637,1,8
128,320,111731,1,8
32,256,111919,5,0
64,320,112012,1,8
128,320,112106,1,8
32,256,112294,5,0
64,320,112387,1,8
128,320,112481,1,8
32,256,112669,5,0
64,320,112762,1,8
128,320,112856,1,8
224,320,113044,5,0
224,256,113137,1,8
224,192,113231,1,0
224,320,113419,5,0
224,256,113512,1,8
224,192,113606,1,0
224,320,113794,5,0
224,256,113887,1,8
224,192,113981,1,0
224,320,114169,5,0
224,256,114262,1,8
224,192,114356,1,0
288,160,114544,5,8
288,192,114637,1,8
288,224,114731,1,8
288,160,114919,5,8
288,192,115012,1,8
288,224,115106,1,8
288,160,115294,5,8
288,192,115387,1,8
288,224,115481,1,8
288,160,115669,5,8
288,192,115762,1,8
288,224,115856,1,8
64,288,116044,5,0
64,224,116137,1,0
64,192,116231,1,0
64,160,116325,1,0
64,96,116419,1,8
128,128,116606,1,8
64,288,116794,1,0
64,224,116887,5,0
64,192,116981,1,0
64,160,117075,1,0
64,96,117169,1,8
128,128,117356,1,8
224,256,117544,5,0
288,256,117637,1,0
352,256,117731,1,0
416,256,117825,1,0
416,192,117919,5,8
416,128,118012,1,8
416,64,118106,1,8
352,64,118200,1,8
352,128,118294,5,0
352,192,118387,1,0
288,192,118481,1,0
224,192,118575,1,0
256,128,118669,5,8
192,128,118762,1,8
192,192,118856,1,8
192,256,118950,1,8
96,288,119044,5,0
96,224,119137,1,0
96,160,119231,5,8
96,96,119325,1,8
128,64,119419,5,0
192,64,119512,1,0
256,64,119606,5,8
320,64,119700,1,8
320,128,119794,1,8
320,192,119981,5,8
320,256,120169,5,8
320,320,120262,1,8
384,320,120356,1,8
32,128,120544,2,4,B|160:288|384:32,1,420
256,192,122044,5,4
