osu file format v5

[General]
AudioFilename: 05 - Miracle-Hinacle.mp3
AudioLeadIn: 0
PreviewTime: 38037
Countdown: 0
SampleSet: Normal
StackLeniency: 0.7
Mode: 0
LetterboxInBreaks: 1
EditorBookmarks: 38034,62034,74041,86034,110034,128034,143034,146034,170051,182034,191221
EditorDistanceSpacing: 1

[Metadata]
Title:Miracle-Hinacle
Artist:IOSYS
Creator:-SiN-
Version:Lesjuh Curse
Source:Touhou Soyu Shinpi
Tags:Touhou Miracle Hinacle IOSYS

[Difficulty]
HPDrainRate:5
CircleSize:5
OverallDifficulty:6
SliderMultiplier:1.5
SliderTickRate:1

[Events]
//Background and Video events
0,0,"IOSYS-TouhouSoyuShinpiCover.jpg"
//Break Periods
2,12546,12984
2,25670,30609
2,48546,48984
2,60546,61134
2,72546,72984
2,85670,90609
2,108546,108984
2,120546,126984
2,128234,132984
2,180546,181359
//Storyboard Layer 0 (Background)
//Storyboard Layer 1 (Failing)
//Storyboard Layer 2 (Passing)
//Storyboard Layer 3 (Foreground)
//Storyboard Sound Samples
//Background Colour Transformations
3,100,0,128,0

[TimingPoints]
544,375,4,1,1,100,1,0
5325,-100,4,2,0,100,0,0
7950,-100,4,1,0,100,0,0
13669,-100,4,2,0,100,0,0
31575,-100,4,1,0,100,0,0
39825,-100,4,2,0,100,0,0
40950,-100,4,1,0,100,0,0
42825,-100,4,2,0,100,0,0
43950,-100,4,1,0,100,0,0
51825,-100,4,2,0,100,0,0
52950,-100,4,1,0,100,0,0
54825,-100,4,2,0,100,0,0
55856,-100,4,1,0,100,0,0
65325,-100,4,2,0,100,0,0
67950,-100,4,1,0,100,0,0
73669,-100,4,2,0,100,0,0
91294,-100,4,1,0,100,0,0
93262,-100,4,1,0,100,0,0
99825,-100,4,2,0,100,0,0
100950,-100,4,1,0,100,0,0
102825,-100,4,2,0,100,0,0
103856,-100,4,1,0,100,0,0
111825,-100,4,2,0,100,0,0
112950,-100,4,1,0,100,0,0
114825,-100,4,2,0,100,0,0
115856,-100,4,1,0,100,0,0
127950,-100,4,2,0,100,0,0
142950,-100,4,1,0,100,0,0
152044,-200,4,1,0,100,0,0
153262,-100,4,1,0,100,0,0
159825,-100,4,2,0,100,0,0
160950,-100,4,1,0,100,0,0
162836,-100,4,2,0,100,0,0
163762,-100,4,1,0,100,0,0
171731,-100,4,2,0,100,0,0
172950,-100,4,1,0,100,0,0
174731,-100,4,2,0,100,0,0
175950,-100,4,1,0,100,0,0
185325,-100,4,2,0,100,0,0
188044,-100,4,1,0,100,0,0

[Colours]
Combo1 : 255,157,60
Combo2 : 180,6,6
Combo3 : 140,210,140

[HitObjects]
64,256,2044,2,0,B|160:288|232:208,1,150
205,233,2606,1,0
160,168,2794,1,0
248,96,3075,1,0
320,176,3356,1,0
456,232,3731,5,0
424,296,3919,1,0
360,328,4106,1,0
288,320,4294,1,0
320,176,4669,1,0
168,64,5419,5,10
304,120,5794,2,0,B|304:176|240:192,1,75,2|0
200,208,6169,1,8
128,200,6356,2,0,B|72:264|144:368|264:312,1,225,2|8
304,288,7106,1,0
352,224,7294,1,2
352,224,7669,1,10
216,80,8044,6,0,B|120:64|80:160,1,150
90,139,8606,1,0
160,152,8794,1,0
120,256,9075,1,0
232,280,9356,1,0
376,312,9731,5,0
440,280,9919,1,0
456,208,10106,1,0
408,152,10294,1,0
272,208,10669,1,0
216,64,11044,6,0,B|168:144,1,75,0|8
177,128,11419,1,8
136,192,11606,2,0,B|88:168,2,37.5,0|0|8
200,224,11981,1,8
160,288,12169,1,0
224,320,12356,1,8
128,112,14044,5,2
96,176,14231,1,0
104,248,14419,2,0,B|104:296|168:312,1,75,10|0
216,320,14794,1,2
272,264,14981,1,0
272,264,15075,1,2
272,264,15169,1,8
272,192,15356,2,0,B|352:200|360:272|328:312,1,150,0|2
336,298,15919,1,10
160,312,16294,6,2,B|96:352|32:288,2,112.5
112,248,17044,2,0,B|88:208|104:168,1,75,0|2
101,176,17419,1,8
120,104,17606,1,0
192,112,17794,1,2
224,176,17981,1,2
256,240,18169,1,8
312,280,18356,6,0,B|400:304|440:208,1,150,2|2
360,192,18919,2,0,B|312:168|352:104,1,75,8|0
408,152,19294,1,2
256,152,19669,6,8,B|256:96,2,37.5
256,224,20044,5,6
256,224,20231,2,0,B|248:312|160:328,1,150
88,320,20794,1,2
40,256,20981,1,0
88,192,21169,1,8
40,128,21356,2,2,B|88:64|192:88,1,150
208,152,21919,2,2,B|264:208|352:168,1,150,8|2
448,120,22575,2,2,B|480:176|448:248,1,112.5,2|0
392,264,23044,5,2
328,224,23231,1,0
264,264,23419,1,8
200,224,23606,1,0
128,248,23794,2,0,B|80:232|104:160,1,75,2|0
97,187,24169,1,8
104,112,24356,6,2,B|184:152|272:88,1,150,6|0
312,72,24919,1,2
384,96,25106,2,0,B|392:184|320:232,1,150,4|0
256,192,31669,5,0
256,192,32044,1,4
256,192,32137,12,4,33356
144,72,33731,5,0
208,104,33919,1,0
272,64,34106,1,0
336,104,34294,1,0
328,176,34481,1,0
256,192,34669,5,0
112,192,35044,2,0,C|112:280,1,75
184,264,35419,2,0,C|184:184,1,75
256,192,35794,2,0,C|256:272,1,75
328,264,36169,2,0,C|328:184,1,75
328,112,36544,6,0,B|328:64,3,37.5
328,112,36919,2,0,B|384:112,2,37.5
248,112,37294,5,0
176,112,37481,1,0
96,112,37669,1,0
24,112,37856,1,0
56,176,38044,6,4,B|48:272|160:288,1,150,4|0
192,232,38606,1,0
248,280,38794,2,0,B|296:280|304:216,1,75
300,235,39075,1,0
300,235,39169,1,0
376,232,39356,1,4
448,232,39544,1,4
200,56,39919,6,0,B|200:112|264:120,1,75,8|2
312,112,40294,2,0,B|312:168|248:176,1,75,0|8
200,176,40669,2,0,B|200:232|264:240,1,75,8|0
312,232,41044,6,0,B|312:336|208:344,1,150,4|4
152,328,41606,1,0
168,256,41794,1,0
96,240,41981,1,0
96,240,42075,1,0
96,240,42169,1,0
112,168,42356,1,0
40,160,42544,1,4
200,56,42919,6,0,B|200:112|264:120,1,75,8|2
312,112,43294,2,0,B|312:168|248:176,1,75,0|8
200,176,43669,2,0,B|200:232|264:240,1,75,8|0
200,296,44044,6,0,B|248:416|448:192|472:352,1,300,4|4
472,176,45169,5,0
400,200,45356,2,0,B|312:232,1,75
328,152,45731,1,0
328,152,45919,2,0,B|224:192,1,75
257,178,46294,1,0
72,136,46669,5,0
40,200,46856,1,0
40,272,47044,2,0,B|88:344|168:368|280:360|328:312|368:224,1,375,4|0
368,176,48169,1,0
296,176,48356,1,4
456,176,50044,6,4,B|464:272|352:288,1,150,4|0
320,232,50606,1,0
264,184,50794,2,0,B|216:184|208:248,1,75
211,228,51075,1,0
211,228,51169,1,0
184,296,51356,1,4
112,264,51544,1,4
200,56,51919,6,0,B|200:112|264:120,1,75,8|2
312,112,52294,2,0,B|312:168|248:176,1,75,0|8
200,176,52669,2,0,B|200:232|264:240,1,75,8|0
312,232,53044,6,0,B|416:232|424:336,1,150,4|4
344,328,53606,1,0
272,304,53794,1,0
200,328,53981,1,0
200,328,54075,1,0
200,328,54169,1,0
160,264,54356,1,0
80,264,54544,1,4
312,56,54919,6,0,B|312:112|248:120,1,75,8|2
200,112,55294,2,0,B|200:168|264:176,1,75,0|8
312,176,55669,2,0,B|312:232|248:240,1,75,8|0
312,296,56044,6,0,B|264:416|64:192|40:352,1,300,4|4
40,176,57169,5,0
112,200,57356,2,0,B|200:232,1,75
184,152,57731,1,0
184,152,57919,2,0,B|288:192,1,75
255,178,58294,1,0
440,136,58669,5,0
472,200,58856,1,0
472,272,59044,2,0,B|424:344|344:368|232:360|184:312|144:224,1,375,4|0
144,176,60169,1,0
216,176,60356,1,4
416,144,62044,6,0,B|448:240|368:312,1,150
393,285,62606,1,0
320,312,62794,1,0
320,200,63075,1,0
208,208,63356,1,0
56,232,63731,5,0
88,296,63919,1,0
152,328,64106,1,0
224,320,64294,1,0
136,200,64669,1,0
344,64,65419,5,10
208,120,65794,2,0,B|208:176|272:192,1,75,2|0
312,208,66169,1,8
384,200,66356,2,0,B|440:264|368:368|248:312,1,225,2|8
208,288,67106,1,0
160,224,67294,1,2
160,224,67669,1,10
296,80,68044,6,0,B|392:64|432:160,1,150
422,139,68606,1,0
456,208,68794,1,0
344,200,69075,1,0
392,296,69356,1,0
248,328,69731,5,0
176,336,69919,1,0
112,296,70106,1,0
96,224,70294,1,0
240,176,70669,1,0
328,56,71044,6,0,B|376:136,1,75,0|8
367,120,71419,1,8
408,176,71606,2,0,B|456:152,2,37.5,0|0|8
336,208,71981,1,8
376,272,72169,1,0
312,304,72356,1,8
112,56,74044,5,2
96,128,74231,1,0
136,192,74419,2,0,B|136:240|72:256,1,75,10|0
56,312,74794,1,2
112,352,74981,1,0
112,352,75075,1,2
112,352,75169,1,8
184,328,75356,2,0,B|264:320|272:248|240:208,1,150,0|2
248,221,75919,1,10
368,128,76294,6,2,B|432:168|496:104,2,112.5
296,96,77044,2,0,B|256:72|216:88,1,75,0|2
224,85,77419,1,8
152,104,77606,1,0
104,160,77794,1,2
160,208,77981,1,2
216,256,78169,1,8
264,304,78356,6,0,B|352:328|392:232,1,150,2|2
368,168,78919,2,0,B|320:144|360:80,1,75,8|0
416,128,79294,1,2
256,152,79669,6,8,B|256:96,2,37.5
256,224,80044,5,6
256,224,80231,2,0,B|248:312|160:328,1,150
88,320,80794,1,2
128,256,80981,1,0
64,208,81169,1,8
80,136,81356,2,2,B|128:72|232:96,1,150
256,152,81919,2,2,B|312:208|400:168,1,150,8|2
416,280,82575,2,2,B|360:312|288:280,1,112.5,2|0
240,328,83044,5,2
168,296,83231,1,0
96,320,83419,1,8
48,264,83606,1,0
120,240,83794,2,0,B|168:224|144:152,1,75,2|0
80,152,84169,1,8
128,96,84356,6,2,B|208:136|296:72,1,150,6|0
344,64,84919,1,2
392,120,85106,2,0,B|400:208|328:256,1,150,4|0
256,192,91669,5,0
256,192,92044,1,4
256,192,92137,12,4,93356
144,72,93731,5,0
208,104,93919,1,0
272,64,94106,1,0
336,104,94294,1,0
328,176,94481,1,0
256,192,94669,5,0
112,264,95044,2,0,C|112:176,1,75
184,192,95419,2,0,C|184:280,1,75,0|0
256,264,95794,2,0,C|256:184,1,75
328,192,96169,2,0,C|328:272,1,75
328,344,96544,6,0,B|328:392,3,37.5
328,344,96919,2,0,B|384:344,2,37.5
248,344,97294,5,0
176,344,97481,1,0
104,344,97669,1,0
32,344,97856,1,0
72,280,98044,6,4,B|168:288|184:176,1,150,4|0
179,198,98606,1,0
256,200,98794,2,0,B|256:248|320:256,1,75
301,252,99075,1,0
301,252,99169,1,0
376,248,99356,1,4
408,176,99544,1,4
200,56,99919,6,0,B|200:112|264:120,1,75,8|2
312,112,100294,2,0,B|312:168|248:176,1,75,0|8
200,176,100669,2,0,B|200:232|264:240,1,75,8|0
312,232,101044,6,0,B|312:336|208:344,1,150,4|4
152,328,101606,1,0
80,304,101794,1,0
104,232,101981,1,0
104,232,102075,1,0
104,232,102169,1,0
32,200,102356,1,0
64,136,102544,1,4
200,56,102919,6,0,B|200:112|264:120,1,75,8|2
312,112,103294,2,0,B|312:168|248:176,1,75,0|8
200,176,103669,2,0,B|200:232|264:240,1,75,8|0
200,296,104044,6,0,B|248:416|448:192|472:352,1,300,4|4
472,176,105169,5,0
400,200,105356,2,0,B|312:232,1,75
328,152,105731,1,0
328,152,105919,2,0,B|224:192,1,75
257,178,106294,1,0
72,136,106669,5,0
40,200,106856,1,0
40,272,107044,2,0,B|88:344|168:368|280:360|328:312|368:224,1,375,4|0
368,176,108169,1,0
296,176,108356,1,4
456,176,110044,6,4,B|464:272|352:288,1,150,4|0
376,208,110606,1,0
304,216,110794,2,0,B|256:216|248:280,1,75
251,260,111075,1,0
251,260,111169,1,0
176,232,111356,1,4
136,296,111544,1,4
200,56,111919,6,0,B|200:112|264:120,1,75,8|2
312,112,112294,2,0,B|312:168|248:176,1,75,0|8
200,176,112669,2,0,B|200:232|264:240,1,75,8|0
312,232,113044,6,0,B|416:232|424:336,1,150,4|4
352,336,113606,1,0
280,304,113794,1,0
208,328,113981,1,0
208,328,114075,1,0
208,328,114169,1,0
144,288,114356,1,0
80,328,114544,1,4
312,56,114919,6,0,B|312:112|248:120,1,75,8|2
200,112,115294,2,0,B|200:168|264:176,1,75,0|8
312,176,115669,2,0,B|312:232|248:240,1,75,8|0
312,296,116044,6,0,B|264:416|64:192|40:352,1,300,4|4
40,176,117169,5,0
112,200,117356,2,0,B|200:232,1,75
184,152,117731,1,0
184,152,117919,2,0,B|288:192,1,75
255,178,118294,1,0
440,136,118669,5,0
472,200,118856,1,0
472,272,119044,2,0,B|424:344|344:368|232:360|184:312|144:224,1,375,4|0
144,176,120169,1,0
216,176,120356,1,4
256,192,128044,5,4
72,96,134044,6,0,B|32:176|112:248,1,150,4|2
160,272,134606,1,2
232,280,134794,1,0
304,264,134981,1,0
352,208,135169,1,0
368,136,135356,2,2,B|368:80|304:40|256:56,1,150
192,72,135919,1,0
160,136,136106,1,0
216,192,136294,1,2
216,192,136669,1,2
256,192,137044,12,2,139294
72,288,140044,6,2,B|32:208|112:136,1,150,4|0
160,112,140606,1,2
232,104,140794,1,0
304,120,140981,1,0
352,176,141169,1,0
368,248,141356,2,2,B|368:304|304:344|256:328,1,150
192,312,141919,1,0
160,248,142106,1,0
208,184,142294,1,2
208,184,142669,1,2
280,328,143044,6,0,B|328:248,1,75,0|8
319,264,143419,1,8
360,200,143606,2,0,B|392:144,2,37.5,0|0|8
288,168,143981,1,8
328,104,144169,1,0
256,72,144356,1,2
256,192,144544,12,0,145669
64,184,146044,6,0,B|96:256|216:256,1,150,4|0
296,248,146700,1,0
296,248,146794,1,0
360,216,146981,1,0
384,144,147169,1,0
344,80,147356,2,0,B|248:56|200:160,1,150
176,200,147919,1,0
168,272,148106,2,0,B|216:336|312:320,1,150
368,296,148669,5,0
368,296,148762,1,0
416,240,148950,1,0
416,240,149044,2,0,B|472:176|416:80,1,150,4|0
320,56,149700,1,0
320,56,149794,1,0
256,88,149981,1,0
312,144,150169,1,0
272,208,150356,2,0,B|200:280|104:216,1,150
134,233,150919,5,0
134,233,151106,1,0
72,184,151294,1,0
72,184,151481,1,0
96,112,151669,5,0
160,72,151856,1,0
160,72,151950,1,0
160,72,152044,2,0,B|272:176|400:80,1,262.5
432,240,153731,5,0
360,256,153919,1,0
280,240,154106,1,0
208,256,154294,1,0
136,240,154481,1,0
64,256,154669,1,4
144,128,155044,6,0,C|144:40,1,75
216,56,155419,2,0,C|216:144,1,75,0|0
288,128,155794,2,0,C|288:48,1,75
360,56,156169,2,0,C|360:136,1,75
360,206,156544,6,0,B|360:254,3,37.5
360,208,156919,2,0,B|416:208,2,37.5
288,200,157294,1,0
216,216,157481,1,0
144,200,157669,1,0
72,216,157856,1,0
96,288,158044,6,0,B|152:352|256:320,1,150,4|8
344,312,158700,6,8,B|400:296|408:232,1,75,4|12
400,224,158981,2,8,B|456:208|464:144,1,75,4|12
400,128,159356,1,8
400,128,159450,1,8
400,128,159544,1,4
256,80,159919,5,12
208,136,160106,1,0
272,176,160294,1,2
224,232,160481,1,8
288,272,160669,1,4
240,328,160856,1,2
168,320,161044,6,12,B|72:304|88:200,1,150,4|8
128,112,161700,6,8,B|184:96|192:32,1,75,4|12
216,64,161981,2,8,B|272:80|280:144,1,75,4|12
344,136,162356,1,8
344,136,162450,1,8
344,136,162544,1,4
376,280,162919,5,12
320,328,163106,1,0
280,264,163294,1,2
224,312,163481,1,8
184,248,163669,1,4
128,296,163856,1,0
80,232,164044,6,8,B|72:136|192:112,1,150,4|8
272,120,164700,2,0,B|320:120,2,37.5,4|0|8
272,120,164981,1,0
232,184,165169,5,8
304,200,165356,2,8,B|328:168|392:168,1,75,0|4
370,169,165731,1,0
370,169,165919,2,0,B|410:273,1,75,0|4
396,240,166294,1,0
456,104,166669,5,0
488,168,166856,1,0
488,240,167044,2,0,B|462:301|416:352|304:368|208:352|144:296,1,375,4|0
162,310,168169,1,0
162,310,168356,1,4
88,104,169294,5,0
200,104,169481,1,0
312,104,169669,1,0
424,104,169856,1,0
456,168,170044,6,4,B|464:264|352:280,1,150,4|8
320,224,170606,1,0
264,272,170794,2,0,B|216:272|208:208,1,75
212,227,171075,1,0
212,227,171169,1,8
136,224,171356,1,4
64,224,171544,1,4
312,48,171919,6,0,B|312:104|248:112,1,75,12|2
200,104,172294,2,0,B|200:160|264:168,1,75,0|8
312,168,172669,2,0,B|312:224|248:232,1,75,12|0
200,224,173044,6,0,B|200:328|304:336,1,150,4|4
360,320,173606,1,0
344,248,173794,1,0
416,232,173981,1,0
416,232,174075,1,0
416,232,174169,1,0
400,160,174356,1,0
472,152,174544,1,4
312,48,174919,6,0,B|312:104|248:112,1,75,12|2
200,104,175294,2,0,B|200:160|264:168,1,75,0|8
312,168,175669,2,0,B|312:224|248:232,1,75,12|0
312,288,176044,6,0,B|264:408|64:184|40:344,1,300,4|4
40,168,177169,5,0
112,192,177356,2,0,B|200:224,1,75
184,144,177731,1,0
184,144,177919,2,0,B|288:184,1,75
255,170,178294,1,0
440,128,178669,5,0
472,192,178856,1,0
472,264,179044,2,0,B|424:336|344:360|232:352|184:304|144:216,1,375,4|0
144,168,180169,1,0
216,168,180356,1,4
256,56,182419,5,8
408,312,183169,1,8
104,312,183919,1,8
256,144,184481,1,0
256,144,184669,1,8
112,200,185044,6,4,B|136:280|240:296,1,150,4|10
360,248,185794,1,2
360,248,185887,1,2
360,248,185981,1,2
336,176,186169,1,10
264,200,186356,2,2,B|192:48,1,150
128,96,186919,2,10,B|176:192,2,75,10|0|2
264,40,187669,1,2
256,328,188419,5,8
408,72,189169,1,8
104,72,189919,1,8
256,240,190481,1,0
256,240,190669,1,8
56,136,191231,5,0
88,200,191419,1,0
224,136,191794,1,0
296,120,191981,1,0
296,120,192075,1,0
296,120,192169,1,0
352,168,192356,1,0
392,304,192731,5,0
328,344,192919,1,0
256,360,193106,1,0
184,344,193294,1,0
120,312,193481,1,0
120,312,193669,2,4,B|160:256|288:264,1,150
