osu file format v3

[General]
AudioFilename: Marisa wa Taihen na Mono wo Nusunde Ikimashita.mp3
AudioLeadIn: 0
AudioHash: 493340b0bf20260970d3a9374cb211f8
PreviewTime: 91764
SampleSet: Normal

[Metadata]
Title:Marisa wa Taihen na Mono wo Nusunde Ikimashita
Artist:IOSYS
Creator:DJPop
Version:Hard

[Difficulty]
HPDrainRate:3
CircleSize:5
OverallDifficulty:8
SliderMultiplier: 1.5
SliderTickRate: 2

[Events]
0,0,"Marisa wa Taihen na Mono wo Nusunde Ikimashita.png"
2,35494,45838
2,117376,127720
3,0,255,255,128

[TimingPoints]
0,352.941176470588

[HitObjects]
160,192,6352,5,0,
352,192,6882,1,2,
160,128,7411,5,0,
160,192,7764,1,0,
160,192,7851,1,0,
160,192,7941,1,0,
160,192,8117,2,0,L|160:192|160:288,1,75
256,128,8823,5,0,
256,192,9176,1,0,
256,192,9263,1,0,
256,192,9351,1,0,
256,192,9529,2,0,L|256:192|256:288,1,75
352,128,10235,5,0,
352,192,10588,1,0,
352,192,10676,1,0,
352,192,10764,1,0,
352,192,10941,2,0,L|352:192|352:288,1,75
256,256,11294,6,0,L|256:256|160:256,1,75
256,192,11647,2,0,L|256:192|352:192,1,75
256,128,12000,2,0,L|256:128|160:128,1,75
181,128,12264,1,0,
181,128,12352,1,6,
128,32,12705,6,0,L|128:32|128:128,2,75
192,32,13235,2,0,L|192:32|192:128,2,75
256,32,13764,2,0,L|256:32|256:128,2,75
320,32,14294,2,0,L|320:32|320:128,2,75
384,32,14823,2,0,L|384:32|384:128,2,75
384,224,15529,6,0,L|384:224|384:128,2,75
320,224,16058,2,0,L|320:224|320:128,2,75
256,224,16588,2,0,L|256:224|256:128,2,75
192,224,17117,2,0,L|192:224|192:128,2,75
128,224,17647,2,0,L|128:224|128:128,2,75
128,352,18352,6,0,L|128:352|128:288,2,75
192,352,18882,2,0,L|192:352|192:288,2,75
256,352,19411,2,0,L|256:352|256:288,2,75
320,352,19941,2,0,L|320:352|320:320,2,75
384,352,20470,2,0,L|384:352|384:288,2,75
480,192,21176,6,0,L|480:192|352:192,1,112.5
367,192,21529,2,0,L|367:192|224:192,1,112.5
254,192,21882,1,0,
192,192,22058,1,0,
128,192,22235,1,0,
128,192,22323,1,0,
128,192,22411,1,0,
64,192,22588,6,0,L|64:192|64:96,1,75
64,192,22941,2,0,L|64:192|64:288,1,75
128,192,23294,2,0,L|128:192|224:192,3,75
224,160,24000,5,4,
224,96,24176,1,0,
224,32,24352,1,0,
288,32,24529,1,0,
288,96,24705,1,0,
288,160,24882,1,0,
352,160,25058,1,0,
352,96,25235,1,0,
352,32,25411,1,0,
416,32,25588,1,0,
416,96,25764,1,0,
416,160,25941,1,0,
480,160,26117,1,0,
480,96,26294,1,0,
480,32,26470,1,2,
480,352,26823,5,0,
480,288,27000,1,0,
480,224,27176,1,0,
416,224,27352,1,0,
416,288,27529,1,0,
416,352,27705,1,0,
352,352,27882,1,0,
352,288,28058,1,0,
352,224,28235,1,0,
288,224,28411,1,0,
288,288,28588,1,0,
288,352,28764,1,0,
224,352,28941,1,0,
224,288,29117,1,0,
224,224,29294,1,2,
160,64,29647,5,0,
96,64,29823,1,0,
32,64,30000,1,0,
32,128,30176,1,0,
96,128,30352,1,0,
160,128,30529,1,0,
160,192,30705,1,0,
96,192,30882,1,0,
32,192,31058,1,0,
32,256,31235,1,0,
96,256,31411,1,0,
160,256,31588,1,0,
160,320,31764,1,0,
96,320,31941,1,0,
32,320,32117,1,2,
256,192,32469,5,0,
256,192,32557,1,0,
256,192,32645,1,0,
256,192,32733,1,0,
256,192,32821,1,0,
256,192,32910,1,0,
256,192,32998,1,0,
256,192,33086,1,0,
256,192,33174,1,0,
256,192,33263,1,0,
256,192,33351,1,0,
256,192,33439,1,0,
256,192,33527,1,0,
256,192,33616,1,0,
256,192,33704,1,0,
256,192,33792,1,0,
256,192,33880,5,0,
256,192,33969,1,0,
256,192,34057,1,0,
256,192,34145,1,0,
256,192,34233,1,0,
256,192,34321,1,0,
256,192,34410,1,0,
256,192,34498,1,0,
256,192,34586,1,2,
256,192,34674,1,0,
256,192,34763,1,0,
256,192,34851,1,0,
256,192,34939,1,2,
256,192,35027,1,0,
256,192,35116,1,0,
256,192,35204,1,0,
256,192,35292,5,4,
480,32,46588,6,0,L|480:32|384:32,1,75
352,32,46941,2,0,L|352:32|256:32,1,75
224,32,47294,2,0,L|224:32|160:32,1,75
96,32,47647,2,0,L|96:32|32:32,1,75
32,96,48000,2,0,L|32:96|64:96,1,75
160,96,48352,2,0,L|160:96|224:96,1,75
288,96,48705,2,0,L|288:96|384:96,1,75
416,96,49058,2,0,L|416:96|480:96,1,75
480,160,49411,6,0,L|480:160|416:160,1,75
352,160,49764,2,0,L|352:160|288:160,1,75
224,160,50117,2,0,L|224:160|160:160,1,75
96,160,50470,2,0,L|96:160|32:160,1,75
32,224,50823,2,0,L|32:224|96:224,1,75
160,224,51176,2,0,L|160:224|256:224,1,75
288,224,51529,2,0,L|288:224|320:224,2,37.5
384,224,51882,1,2,
480,352,52235,6,0,L|480:352|384:352,1,75
352,352,52588,2,0,L|352:352|256:352,1,75
224,352,52941,2,0,L|224:352|160:352,1,75
96,352,53294,2,0,L|96:352|32:352,1,75
32,288,53647,2,0,L|32:288|64:288,1,75
160,288,53999,2,0,L|160:288|224:288,1,75
288,288,54352,2,0,L|288:288|384:288,1,75
416,288,54705,2,0,L|416:288|480:288,1,75
480,224,55058,6,0,L|480:224|416:224,1,75
352,224,55411,2,0,L|352:224|288:224,1,75
224,224,55764,2,0,L|224:224|160:224,1,75
96,224,56117,2,0,L|96:224|32:224,1,75
32,160,56470,2,0,L|32:160|96:160,1,75
160,160,56823,2,0,L|160:160|256:160,1,75
288,160,57176,2,0,L|288:160|320:160,3,37.5
384,160,57705,1,2,
480,96,57882,6,0,L|480:96|480:64,2,37.5
416,96,58235,2,0,L|416:96|416:64,2,37.5
352,96,58588,2,0,L|352:96|352:64,2,37.5
288,96,58941,2,0,L|288:96|288:64,2,37.5
224,96,59294,2,0,L|224:96|224:64,2,37.5
160,96,59647,2,0,L|160:96|160:64,2,37.5
96,96,60000,2,0,L|96:96|96:64,2,37.5
32,96,60353,2,0,L|32:96|32:64,2,37.5
32,288,60705,6,0,L|32:288|32:320,2,37.5
96,288,61058,2,0,L|96:288|96:320,2,37.5
160,288,61411,2,0,L|160:288|160:320,2,37.5
224,288,61764,2,0,L|224:288|224:320,2,37.5
288,288,62117,2,0,L|288:288|288:320,2,37.5
352,288,62470,2,0,L|352:288|352:320,2,37.5
416,288,62823,2,0,L|416:288|416:320,2,37.5
480,288,63176,2,0,L|480:288|480:320,2,37.5
480,192,63529,5,0,
480,192,63705,1,2,
416,192,63882,1,0,
416,192,64058,1,2,
352,192,64235,1,0,
352,192,64411,1,2,
288,192,64588,1,0,
288,192,64764,1,2,
224,192,64941,5,0,
224,192,65117,1,2,
160,192,65294,1,0,
160,192,65470,1,2,
96,192,65647,1,0,
96,192,65823,1,2,
32,192,66000,1,0,
32,192,66176,1,2,
64,192,66352,5,0,
64,192,66529,1,2,
128,192,66705,1,0,
128,192,66882,1,2,
192,192,67058,1,0,
192,192,67147,1,0,
192,192,67235,1,2,
256,192,67411,1,0,
256,192,67588,1,2,
320,192,67764,1,0,
320,192,67941,1,2,
384,192,68117,1,0,
384,192,68294,1,2,
448,192,68470,1,0,
448,192,68558,1,0,
448,192,68647,1,2,
256,192,69000,5,0,
256,192,69088,1,0,
256,192,69176,2,0,L|256:192|416:192,1,150
448,128,69882,1,2,
448,64,70147,1,2,
384,64,70411,5,0,
384,64,70500,1,0,
384,64,70588,2,0,L|384:64|224:64,1,150
160,64,71294,2,0,L|160:64|0:64,1,150
64,128,72000,5,0,
160,192,72352,1,2,
256,256,72705,1,0,
256,256,72882,1,0,
352,192,73235,1,2,
448,128,73588,1,0,
448,128,73764,1,0,
256,128,74117,1,2,
256,192,74470,5,0,
256,192,74647,1,0,
256,192,74823,2,0,L|256:192|256:352,1,150
320,352,75529,1,0,
192,352,75882,1,0,
256,288,76235,2,0,L|256:288|256:128,1,150
256,64,76764,2,0,L|256:64|64:64,1,187.5
68,64,77294,1,2,
64,192,77647,6,0,L|64:192|64:352,1,150
128,352,78176,2,0,L|128:352|128:192,1,150
128,202,78617,1,0,
128,202,78705,1,2,
192,192,79058,2,0,L|192:192|192:352,1,150
288,352,79764,5,2,
352,352,80029,1,2,
416,352,80294,1,2,
480,352,80470,2,0,L|480:352|480:192,1,150
480,128,81176,1,2,
480,64,81441,1,2,
416,64,81705,1,0,
416,64,81794,1,0,
416,64,81882,2,0,L|416:64|256:64,1,150
192,64,82588,2,0,L|192:64|32:64,1,150
64,192,83294,5,0,
192,192,83647,1,2,
320,192,84000,1,0,
320,192,84176,1,0,
448,192,84529,1,2,
448,320,84882,5,0,
384,320,85058,1,0,
256,320,85411,1,2,
160,320,85676,1,2,
64,320,85941,2,0,L|64:320|64:32,1,262.5
64,57,86647,2,0,L|64:57|320:64,1,225
352,64,87529,2,0,L|352:64|352:320,2,225
416,64,88941,2,0,L|416:64|416:224,1,150
416,288,89470,2,0,L|416:288|160:288,1,225
256,192,90352,5,0,
256,192,90441,1,0,
256,192,90529,1,0,
256,192,90617,1,0,
256,192,90705,1,0,
256,192,90794,1,0,
256,192,90882,1,0,
256,192,90970,1,0,
256,192,91058,1,0,
256,192,91147,1,0,
256,192,91235,1,0,
256,192,91323,1,0,
256,192,91411,1,0,
256,192,91500,1,0,
256,192,91588,1,0,
256,192,91676,1,0,
256,192,91764,5,4,
320,160,92117,1,2,
384,128,92470,1,0,
448,96,92647,1,0,
448,160,93000,1,2,
448,224,93176,5,0,
384,192,93352,2,0,L|384:192|384:160,10,37.5
320,160,94411,1,2,
256,192,94588,5,0,
320,224,94941,1,2,
384,256,95294,1,0,
448,288,95558,1,0,
448,224,95823,1,2,
448,160,95999,6,0,L|448:160|448:192,2,37.5
384,192,96352,2,0,L|384:192|384:224,11,37.5
384,192,97411,5,0,
320,224,97764,1,2,
256,192,98117,1,0,
256,192,98382,1,0,
256,192,98647,1,2,
192,192,99000,2,0,L|192:192|32:192,1,150
42,192,99529,2,0,L|42:192|192:192,1,150
256,192,100235,2,0,L|256:192|416:192,2,150
256,192,101205,1,2,
256,192,101470,1,2,
256,128,101647,5,0,
256,256,102000,1,2,
256,128,102352,1,0,
256,256,102705,1,2,
256,192,103058,5,4,
192,160,103411,1,2,
128,128,103764,1,0,
64,96,103941,1,0,
64,160,104294,1,2,
64,224,104470,5,0,
128,192,104647,2,0,L|128:192|128:160,10,37.5
192,160,105705,1,2,
256,192,105882,5,0,
192,224,106235,1,2,
128,256,106588,1,0,
64,288,106852,1,0,
64,224,107117,1,2,
64,160,107294,6,0,L|64:160|64:192,2,37.5
128,192,107647,2,0,L|128:192|128:224,11,37.5
128,192,108705,5,0,
192,224,109058,1,2,
256,192,109411,1,0,
256,192,109676,1,0,
256,192,109941,1,2,
320,192,110294,2,0,L|320:192|480:192,1,150
470,192,110823,2,0,L|470:192|320:192,1,150
256,192,111529,2,0,L|256:192|32:32,1,262.5
42,39,112235,2,0,L|42:39|32:224,1,150
32,192,112941,2,0,L|32:192|32:352,1,150
32,342,113470,2,0,L|32:342|128:288,1,75
128,288,113911,1,0,
192,256,114176,1,0,
256,224,114352,1,0,
352,192,114529,5,2,
256,96,114882,1,2,
160,192,115235,1,2,
256,288,115588,1,2,
256,192,115941,5,2,
256,192,116029,1,0,
256,192,116117,1,0,
256,192,116294,1,2,
256,192,116382,1,0,
256,192,116470,1,0,
256,192,116647,1,2,
256,192,116735,1,0,
256,192,116823,1,0,
256,192,117000,1,2,
256,192,117088,1,0,
256,192,117176,1,4,
32,192,128470,5,0,
40,192,128558,1,0,
48,192,128647,1,0,
56,192,128735,1,0,
64,192,128823,1,0,
72,192,128911,1,0,
80,192,129000,1,0,
88,192,129088,1,0,
96,192,129176,1,0,
104,192,129264,1,0,
112,192,129353,1,0,
120,192,129441,1,0,
128,192,129529,1,0,
136,192,129617,1,0,
144,192,129706,1,0,
152,192,129794,1,0,
160,192,129882,5,0,
168,192,129970,1,0,
176,192,130059,1,0,
184,192,130147,1,0,
192,192,130235,1,0,
200,192,130323,1,0,
208,192,130412,1,0,
216,192,130500,1,0,
224,192,130588,1,0,
232,192,130676,1,0,
240,192,130765,1,0,
248,192,130853,1,0,
256,192,130941,1,0,
264,192,131029,1,0,
272,192,131118,1,0,
280,192,131206,1,0,
288,192,131294,5,0,
296,192,131382,1,0,
304,192,131471,1,0,
312,192,131559,1,0,
320,192,131647,1,0,
328,192,131735,1,0,
336,192,131824,1,0,
344,192,131912,1,0,
352,192,132000,1,0,
360,192,132088,1,0,
368,192,132177,1,0,
376,192,132265,1,0,
384,192,132353,1,0,
392,192,132441,1,0,
400,192,132530,1,0,
408,192,132618,1,0,
416,192,132705,5,0,
424,192,132793,1,0,
432,192,132882,1,0,
440,192,132970,1,0,
448,192,133058,1,0,
456,192,133146,1,0,
464,192,133235,1,0,
472,192,133323,1,0,
480,192,133411,1,0,
472,192,133499,1,0,
464,192,133588,1,0,
456,192,133676,1,0,
448,192,133764,1,0,
440,192,133852,1,0,
432,192,133941,1,0,
424,192,134029,1,0,
416,192,134117,5,0,
408,192,134205,1,0,
400,192,134294,1,0,
392,192,134382,1,0,
384,192,134470,1,0,
376,192,134558,1,0,
368,192,134647,1,0,
360,192,134735,1,0,
352,192,134823,1,0,
344,192,134911,1,0,
336,192,135000,1,0,
328,192,135088,1,0,
320,192,135176,1,0,
312,192,135264,1,0,
304,192,135353,1,0,
296,192,135441,1,0,
288,192,135529,5,0,
280,192,135617,1,0,
272,192,135706,1,0,
264,192,135794,1,0,
256,192,135882,1,0,
248,192,135970,1,0,
240,192,136059,1,0,
232,192,136147,1,0,
224,192,136235,1,0,
216,192,136323,1,0,
208,192,136412,1,0,
200,192,136500,1,0,
192,192,136588,1,0,
184,192,136676,1,0,
176,192,136765,1,0,
168,192,136853,1,0,
160,192,136941,6,0,L|160:192|128:192,3,37.5
160,192,137294,2,0,L|160:192|192:192,3,37.5
160,192,137647,2,0,L|160:192|160:160,3,37.5
160,192,137999,2,0,L|160:192|160:224,3,37.5
152,192,138352,5,0,
152,192,138441,1,0,
144,192,138529,1,0,
136,192,138617,1,0,
128,192,138705,2,0,L|128:192|96:192,1,37.5
128,192,138882,2,0,L|128:192|160:192,1,37.5
128,192,139058,2,0,L|128:192|128:160,1,37.5
128,192,139235,2,0,L|128:192|128:256,1,37.5
256,192,139588,5,0,
256,192,139676,1,0,
256,192,139764,2,0,L|256:192|96:192,1,150
64,256,140470,1,2,
64,320,140735,1,2,
128,320,140999,5,0,
128,320,141088,1,0,
128,320,141176,2,0,L|128:320|288:320,1,150
352,320,141882,2,0,L|352:320|512:320,1,150
448,256,142588,5,0,
352,192,142940,1,2,
256,128,143293,1,0,
256,128,143470,1,0,
160,192,143823,1,2,
64,256,144176,1,0,
64,256,144352,1,0,
256,256,144705,1,2,
256,192,145058,5,0,
256,192,145235,1,0,
256,192,145411,2,0,L|256:192|256:32,1,150
192,32,146117,1,0,
320,32,146470,1,0,
256,96,146823,2,0,L|256:96|256:256,1,150
256,320,147352,2,0,L|256:320|448:320,1,187.5
444,320,147882,1,2,
448,192,148235,6,0,L|448:192|448:32,1,150
384,32,148764,2,0,L|384:32|384:192,1,150
384,182,149205,1,0,
384,182,149293,1,2,
320,192,149646,2,0,L|320:192|320:32,1,150
224,32,150352,5,2,
160,32,150617,1,2,
96,32,150882,1,2,
32,32,151058,2,0,L|32:32|32:192,1,150
32,256,151764,1,2,
32,320,152029,1,2,
96,320,152293,1,0,
96,320,152382,1,0,
96,320,152470,2,0,L|96:320|256:320,1,150
320,320,153176,2,0,L|320:320|480:320,1,150
448,192,153882,5,0,
320,192,154235,1,2,
192,192,154588,1,0,
192,192,154764,1,0,
64,192,155117,1,2,
64,64,155470,5,0,
128,64,155646,1,0,
256,64,155999,1,2,
352,64,156264,1,2,
448,64,156529,2,0,L|448:64|448:352,1,262.5
448,327,157235,2,0,L|448:327|192:320,1,225
160,320,158117,2,0,L|160:320|160:64,2,225
96,320,159529,2,0,L|96:320|96:160,1,150
96,96,160058,2,0,L|96:96|352:96,1,225
256,192,160940,5,6,
256,192,161470,1,0,
256,192,161558,1,0,
256,192,161646,1,0,
256,192,161735,1,0,
256,192,161823,1,0,
256,192,161911,1,0,
256,192,161999,1,0,
256,192,162088,1,0,
256,192,162176,1,0,
256,192,162264,1,0,
256,192,162352,5,4,
192,224,162705,1,2,
128,256,163058,1,0,
64,288,163235,1,0,
64,224,163588,1,2,
64,160,163764,5,0,
128,192,163941,2,0,L|128:192|128:224,10,37.5
192,224,164999,1,2,
256,192,165176,5,0,
192,160,165529,1,2,
128,128,165882,1,0,
64,96,166146,1,0,
64,160,166411,1,2,
64,224,166588,6,0,L|64:224|64:192,2,37.5
128,192,166941,2,0,L|128:192|128:160,11,37.5
128,192,167999,5,0,
192,160,168352,1,2,
256,192,168705,1,0,
256,192,168970,1,0,
256,192,169235,1,2,
320,192,169588,2,0,L|320:192|480:192,1,150
470,192,170117,2,0,L|470:192|320:192,1,150
256,192,170823,2,0,L|256:192|96:192,2,150
256,192,171793,1,2,
256,192,172058,1,2,
256,256,172235,5,0,
256,128,172588,1,2,
256,256,172940,1,0,
256,128,173293,1,2,
256,192,173646,5,4,
320,224,173999,1,2,
384,256,174352,1,0,
448,288,174529,1,0,
448,224,174882,1,2,
448,160,175058,5,0,
384,192,175235,2,0,L|384:192|384:224,10,37.5
320,224,176293,1,2,
256,192,176470,5,0,
320,160,176823,1,2,
384,128,177176,1,0,
448,96,177440,1,0,
448,160,177705,1,2,
448,224,177882,6,0,L|448:224|448:192,2,37.5
384,192,178235,2,0,L|384:192|384:160,11,37.5
384,192,179293,5,0,
320,160,179646,1,2,
256,192,179999,1,0,
256,192,180264,1,0,
256,192,180529,1,2,
192,192,180882,2,0,L|192:192|32:192,1,150
42,192,181411,2,0,L|42:192|192:192,1,150
256,192,182117,2,0,L|256:192|480:352,1,262.5
470,345,182823,2,0,L|470:345|480:160,1,150
480,192,183529,2,0,L|480:192|480:32,1,150
480,42,184058,2,0,L|480:42|384:96,1,75
384,96,184499,1,0,
320,128,184764,1,0,
256,160,184940,1,0,
160,192,185117,5,2,
256,288,185470,1,2,
352,192,185823,1,2,
256,96,186176,1,2,
256,192,186529,5,2,
256,192,186617,1,0,
256,192,186705,1,0,
256,192,186882,1,2,
256,192,186970,1,0,
256,192,187058,1,0,
256,192,187235,1,2,
256,192,187323,1,0,
256,192,187411,1,0,
256,192,187588,1,2,
256,192,187676,1,0,
256,192,187764,1,4,
256,192,190588,5,4,
256,192,193411,5,4,
256,192,194823,5,4,
256,192,196235,5,4,
256,192,196941,1,4,
256,192,197647,5,4,
256,192,198352,1,4,
32,192,199058,5,4,
96,192,199411,1,4,
160,192,199764,1,4,
224,192,200117,1,4,
288,192,200470,5,4,
352,192,200823,1,4,
416,192,201176,1,4,
480,192,201529,1,4,
496,192,201882,5,4,
464,192,202058,1,4,
432,192,202235,1,4,
400,192,202411,1,4,
368,192,202588,1,4,
336,192,202764,1,4,
304,192,202941,1,4,
272,192,203117,1,4,
240,192,203294,5,4,
208,192,203470,1,4,
176,192,203647,1,4,
144,192,203823,1,4,
112,192,203999,1,4,
80,192,204176,1,4,
48,192,204352,1,4,
16,192,204529,1,4,
32,192,204705,5,4,
40,192,204794,1,4,
48,192,204882,1,4,
56,192,204970,1,4,
64,192,205058,1,4,
72,192,205147,1,4,
80,192,205235,1,4,
88,192,205323,1,4,
96,192,205411,1,4,
104,192,205500,1,4,
112,192,205588,1,4,
120,192,205676,1,4,
128,192,205764,1,4,
136,192,205853,1,4,
144,192,205941,1,4,
152,192,206029,1,4,
160,192,206117,5,4,
168,192,206206,1,4,
176,192,206294,1,4,
184,192,206382,1,4,
192,192,206470,1,4,
200,192,206559,1,4,
208,192,206647,1,4,
216,192,206735,1,4,
224,192,206823,1,4,
232,192,206912,1,4,
240,192,207000,1,4,
248,192,207088,1,4,
256,192,207176,1,4,
264,192,207265,1,4,
272,192,207353,1,4,
280,192,207441,1,4,
288,192,207529,6,4,L|288:192|304:192,1,18.75
296,192,207617,2,4,L|296:192|312:192,1,18.75
304,192,207705,2,4,L|304:192|320:192,1,18.75
312,192,207794,2,4,L|312:192|328:192,1,18.75
320,192,207882,2,4,L|320:192|336:192,1,18.75
328,192,207970,2,4,L|328:192|344:192,1,18.75
336,192,208058,2,4,L|336:192|352:192,1,18.75
344,192,208147,2,4,L|344:192|360:192,1,18.75
352,192,208235,2,4,L|352:192|368:192,1,18.75
360,192,208323,2,4,L|360:192|376:192,1,18.75
368,192,208411,2,4,L|368:192|384:192,1,18.75
376,192,208499,2,4,L|376:192|392:192,1,18.75
384,192,208588,6,4,L|384:192|400:192,1,18.75
392,192,208676,2,4,L|392:192|408:192,1,18.75
400,192,208764,2,4,L|400:192|416:192,1,18.75
408,192,208853,2,4,L|408:192|424:192,1,18.75
416,192,208941,2,4,L|416:192|432:192,1,18.75
424,192,209029,2,4,L|424:192|440:192,1,18.75
432,192,209117,2,4,L|432:192|448:192,1,18.75
440,192,209206,2,4,L|440:192|456:192,1,18.75
448,192,209294,2,4,L|448:192|464:192,1,18.75
456,192,209382,2,4,L|456:192|472:192,1,18.75
464,192,209470,2,4,L|464:192|480:192,1,18.75
472,192,209558,2,4,L|472:192|488:192,1,18.75
480,192,209647,6,4,L|480:192|464:192,1,18.75
472,192,209735,2,4,L|472:192|456:192,1,18.75
464,192,209823,2,4,L|464:192|448:192,1,18.75
456,192,209912,2,4,L|456:192|440:192,1,18.75
448,192,210000,2,4,L|448:192|432:192,1,18.75
440,192,210088,2,4,L|440:192|424:192,1,18.75
432,192,210176,2,4,L|432:192|416:192,1,18.75
424,192,210265,2,4,L|424:192|408:192,1,18.75
416,192,210353,2,4,L|416:192|400:192,1,18.75
408,192,210441,2,4,L|408:192|392:192,1,18.75
400,192,210529,2,4,L|400:192|384:192,1,18.75
392,192,210617,2,4,L|392:192|376:192,1,18.75
384,192,210705,6,4,L|384:192|368:192,1,18.75
376,192,210793,2,4,L|376:192|360:192,1,18.75
368,192,210881,2,4,L|368:192|352:192,1,18.75
360,192,210970,2,4,L|360:192|344:192,1,18.75
352,192,211058,2,4,L|352:192|336:192,1,18.75
344,192,211146,2,4,L|344:192|328:192,1,18.75
336,192,211234,2,4,L|336:192|320:192,1,18.75
328,192,211323,2,4,L|328:192|312:192,1,18.75
320,192,211411,2,4,L|320:192|304:192,1,18.75
312,192,211499,2,4,L|312:192|296:192,1,18.75
304,192,211587,2,4,L|304:192|288:192,1,18.75
296,192,211675,2,4,L|296:192|280:192,1,18.75
288,192,211764,6,4,L|288:192|272:192,1,18.75
280,192,211852,2,4,L|280:192|264:192,1,18.75
272,192,211940,2,4,L|272:192|256:192,1,18.75
264,192,212029,2,4,L|264:192|248:192,1,18.75
256,192,212117,2,4,L|256:192|240:192,1,18.75
248,192,212205,2,4,L|248:192|232:192,1,18.75
240,192,212293,2,4,L|240:192|224:192,1,18.75
232,192,212382,2,4,L|232:192|216:192,1,18.75
224,192,212470,2,4,L|224:192|208:192,1,18.75
216,192,212558,2,4,L|216:192|200:192,1,18.75
208,192,212646,2,4,L|208:192|192:192,1,18.75
200,192,212734,2,4,L|200:192|184:192,1,18.75
192,192,212823,6,4,L|192:192|176:192,1,18.75
184,192,212911,2,4,L|184:192|168:192,1,18.75
176,192,212999,2,4,L|176:192|160:192,1,18.75
168,192,213088,2,4,L|168:192|152:192,1,18.75
160,192,213176,2,4,L|160:192|144:192,1,18.75
152,192,213264,2,4,L|152:192|136:192,1,18.75
144,192,213352,2,4,L|144:192|128:192,1,18.75
136,192,213441,2,4,L|136:192|120:192,1,18.75
128,192,213529,2,4,L|128:192|112:192,1,18.75
120,192,213617,2,4,L|120:192|104:192,1,18.75
112,192,213705,2,4,L|112:192|96:192,1,18.75
104,192,213793,2,4,L|104:192|88:192,1,18.75
96,192,213882,6,4,L|96:192|80:192,1,18.75
88,192,213970,2,4,L|88:192|72:192,1,18.75
80,192,214058,2,4,L|80:192|64:192,1,18.75
72,192,214147,2,4,L|72:192|56:192,1,18.75
64,192,214235,2,4,L|64:192|48:192,1,18.75
56,192,214323,2,4,L|56:192|40:192,1,18.75
48,192,214411,2,4,L|48:192|32:192,1,18.75
40,192,214500,2,4,L|40:192|56:192,1,18.75
32,192,214588,2,4,L|32:192|48:192,1,18.75
40,192,214676,2,4,L|40:192|56:192,1,18.75
48,192,214764,2,4,L|48:192|64:192,1,18.75
56,192,214852,2,4,L|56:192|72:192,1,18.75
64,192,214941,6,4,L|64:192|80:192,1,18.75
72,192,215029,2,4,L|72:192|88:192,1,18.75
80,192,215117,2,4,L|80:192|96:192,1,18.75
88,192,215206,2,4,L|88:192|104:192,1,18.75
96,192,215294,2,4,L|96:192|112:192,1,18.75
104,192,215382,2,4,L|104:192|120:192,1,18.75
112,192,215470,2,4,L|112:192|128:192,1,18.75
120,192,215559,2,4,L|120:192|136:192,1,18.75
128,192,215647,2,4,L|128:192|144:192,1,18.75
136,192,215735,2,4,L|136:192|152:192,1,18.75
144,192,215823,2,4,L|144:192|160:192,1,18.75
152,192,215911,2,4,L|152:192|168:192,1,18.75
160,192,215999,5,4,
224,192,216264,1,2,
288,192,216529,1,2,
352,192,216705,1,0,
352,192,216794,1,0,
352,192,216882,1,0,
352,192,216970,1,0,
352,192,217058,1,2,
416,192,217235,1,0,
416,192,217323,1,0,
416,192,217411,1,0,
416,192,217499,1,0,
416,192,217588,1,0,
416,192,217676,1,0,
416,192,217764,1,0,
416,192,217852,1,0,
416,192,217941,1,0,
416,192,218029,1,0,
416,192,218117,1,0,
416,128,218294,1,2,
416,64,218647,1,2,
352,64,218823,5,0,
288,64,219088,1,2,
224,64,219352,1,2,
160,64,219529,1,0,
160,64,219617,1,0,
160,64,219705,1,0,
160,64,219794,1,0,
160,64,219882,1,2,
96,64,220058,1,0,
96,64,220147,1,0,
96,64,220235,1,0,
96,64,220323,1,0,
96,64,220411,1,0,
96,64,220499,1,0,
96,64,220588,1,0,
96,64,220676,1,0,
96,64,220764,1,0,
96,64,220852,1,0,
96,64,220941,1,0,
96,128,221117,1,2,
96,192,221470,1,2,
96,256,221647,5,0,
96,320,221911,1,2,
160,320,222176,1,2,
224,320,222352,1,0,
224,320,222441,1,0,
224,320,222529,1,0,
224,320,222617,1,0,
224,320,222705,1,2,
288,320,222882,1,0,
288,320,222970,1,0,
288,320,223058,1,0,
288,320,223147,1,0,
288,320,223235,1,0,
288,320,223323,1,0,
288,320,223411,1,0,
288,320,223499,1,0,
288,320,223588,1,0,
288,320,223676,1,0,
288,320,223764,1,0,
352,320,223941,1,2,
416,320,224294,1,2,
416,256,224470,5,0,
416,192,224735,1,2,
416,128,224999,1,2,
416,64,225176,1,0,
416,64,225264,1,0,
416,64,225352,1,0,
416,64,225441,1,0,
416,64,225529,1,2,
352,64,225705,1,2,
288,64,225882,5,0,
272,64,225970,1,0,
256,64,226058,1,0,
240,64,226147,1,0,
224,64,226235,1,0,
208,64,226323,1,0,
192,64,226411,1,0,
176,64,226499,1,0,
160,64,226588,1,0,
144,64,226676,1,0,
128,64,226764,1,0,
112,64,226853,1,0,
96,64,226941,1,0,
80,64,227029,1,0,
64,64,227117,1,0,
48,64,227205,1,0,
32,64,227294,1,4,
