osu file format v3

[General]
AudioFilename: Marisa wa Taihen na Mono wo Nusunde Ikimashita.mp3
AudioLeadIn: 0
AudioHash: 493340b0bf20260970d3a9374cb211f8
PreviewTime: 91764
SampleSet: Normal

[Metadata]
Title:Marisa wa Taihen na Mono wo Nusunde Ikimashita
Artist:IOSYS
Creator:DJPop
Version:Easy

[Difficulty]
HPDrainRate:2
CircleSize:5
OverallDifficulty:2
SliderMultiplier: 0.5
SliderTickRate: 2

[Events]
0,0,"Marisa wa Taihen na Mono wo Nusunde Ikimashita.png"
2,35494,45388
2,117376,126910
3,0,255,255,128

[TimingPoints]
0,352.941176470588

[HitObjects]
192,192,6352,5,0,
320,192,6882,1,2,
160,96,7411,5,0,
160,160,7764,1,0,
160,260,8294,1,2,
256,96,8823,5,0,
256,160,9176,1,0,
256,260,9706,1,2,
352,96,10235,5,0,
352,160,10588,1,0,
352,260,11118,1,2,
336,320,11294,6,4,L|336:320|176:320,1,150
128,256,12705,6,0,L|128:256|128:96,2,150
192,256,15176,1,2,
256,256,15529,6,0,L|256:256|256:96,2,150
320,256,17999,1,2,
384,256,18352,6,0,L|384:256|384:96,2,150
384,256,20823,1,2,
432,320,21176,6,0,L|432:320|80:320,1,350
64,256,23999,5,4,
96,208,24529,1,0,
128,160,25058,1,0,
160,112,25588,1,0,
192,64,26117,1,2,
320,64,26823,5,0,
352,112,27352,1,0,
384,160,27881,1,0,
416,208,28411,1,0,
448,256,28940,1,2,
256,256,29647,5,0,
256,208,30176,1,0,
256,160,30705,1,0,
256,112,31235,1,0,
256,64,31764,1,2,
256,192,32470,12,4,35294
480,96,46588,5,0,
448,96,46941,1,0,
416,96,47294,1,0,
384,96,47647,1,0,
352,96,47999,1,0,
320,96,48352,1,0,
288,96,48705,1,0,
256,96,49058,1,0,
224,96,49411,5,0,
192,96,49764,1,0,
160,96,50117,1,0,
128,96,50470,1,0,
96,96,50823,1,0,
64,96,51176,1,0,
32,96,51529,1,2,
32,288,52235,5,0,
64,288,52588,1,0,
96,288,52941,1,0,
128,288,53294,1,0,
160,288,53647,1,0,
192,288,53999,1,0,
224,288,54352,1,0,
256,288,54705,1,0,
288,288,55058,5,0,
320,288,55411,1,0,
352,288,55764,1,0,
384,288,56117,1,0,
416,288,56470,1,0,
448,288,56823,1,0,
480,288,57176,1,2,
480,192,57882,5,4,
480,192,58235,1,0,
416,192,58588,1,0,
416,192,58941,1,0,
352,192,59294,1,0,
352,192,59647,1,0,
288,192,59999,1,0,
288,192,60352,1,0,
224,192,60705,5,0,
224,192,61058,1,0,
160,192,61411,1,0,
160,192,61764,1,0,
96,192,62117,1,0,
96,192,62470,1,0,
32,192,62823,1,0,
32,192,63176,1,0,
256,192,63529,12,4,68470
64,256,69176,6,0,L|64:256|480:256,1,400
464,256,72705,1,2,
464,256,73411,1,2,
464,256,74117,1,2,
464,128,74823,6,0,L|464:128|48:128,1,400
64,128,78352,1,2,
64,128,79058,1,2,
64,128,79764,1,2,
160,192,80470,6,0,L|160:192|384:192,2,200
160,192,83999,1,2,
160,192,84705,1,2,
96,192,84882,6,0,L|96:192|32:192|496:192|352:192,1,650
256,192,90352,12,4,91764
256,192,92470,5,2,
320,144,93176,5,0,
320,176,93529,1,2,
320,208,93882,1,0,
320,240,94235,1,2,
256,192,94588,5,0,
256,192,95294,1,2,
192,144,95999,5,0,
192,176,96352,1,2,
192,208,96705,1,0,
192,240,97058,1,2,
256,192,97411,5,0,
256,192,98117,1,2,
256,192,98823,1,0,
256,192,99529,1,2,
320,144,100235,5,0,
320,176,100588,1,2,
320,208,100941,1,0,
320,240,101294,1,2,
192,144,101647,5,0,
192,176,101999,1,2,
192,208,102352,1,0,
192,240,102705,1,2,
256,192,103058,5,4,
256,192,103764,1,2,
320,240,104470,5,0,
320,208,104823,1,2,
320,176,105176,1,0,
320,144,105529,1,2,
256,192,105882,5,0,
256,192,106588,1,2,
192,240,107293,5,0,
192,208,107646,1,2,
192,176,107999,1,0,
192,144,108352,1,2,
256,192,108705,5,0,
256,192,109411,1,2,
256,192,110117,1,0,
256,192,110823,1,2,
320,240,111529,5,0,
320,208,111882,1,2,
320,176,112235,1,0,
320,144,112588,1,2,
192,240,112941,5,0,
192,208,113293,1,2,
192,176,113646,1,0,
192,144,113999,1,2,
256,192,114352,12,4,117176
256,192,128470,12,4,139058
448,128,139764,6,0,L|448:128|32:128,1,400
48,128,143293,1,2,
48,128,143999,1,2,
48,128,144705,1,2,
48,256,145411,6,0,L|48:256|464:256,1,400
448,256,148940,1,2,
448,256,149646,1,2,
448,256,150352,1,2,
352,192,151058,6,0,L|352:192|128:192,2,200
352,192,154587,1,2,
352,192,155293,1,2,
416,192,155470,6,0,L|416:192|480:192|16:192|160:192,1,650
256,192,160940,12,4,162352
256,192,163058,5,2,
192,240,163764,5,0,
192,208,164117,1,2,
192,176,164470,1,0,
192,144,164823,1,2,
256,192,165176,5,0,
256,192,165882,1,2,
320,240,166587,5,0,
320,208,166940,1,2,
320,176,167293,1,0,
320,144,167646,1,2,
256,192,167999,5,0,
256,192,168705,1,2,
256,192,169411,1,0,
256,192,170117,1,2,
192,240,170823,5,0,
192,208,171176,1,2,
192,176,171529,1,0,
192,144,171882,1,2,
320,240,172235,5,0,
320,208,172587,1,2,
320,176,172940,1,0,
320,144,173293,1,2,
256,192,173646,5,4,
256,192,174352,1,2,
192,144,175058,5,0,
192,176,175411,1,2,
192,208,175764,1,0,
192,240,176117,1,2,
256,192,176470,5,0,
256,192,177176,1,2,
320,144,177881,5,0,
320,176,178234,1,2,
320,208,178587,1,0,
320,240,178940,1,2,
256,192,179293,5,0,
256,192,179999,1,2,
256,192,180705,1,0,
256,192,181411,1,2,
192,144,182117,5,0,
192,176,182470,1,2,
192,208,182823,1,0,
192,240,183176,1,2,
320,144,183529,5,0,
320,176,183881,1,2,
320,208,184234,1,0,
320,240,184587,1,2,
256,192,184940,12,4,187764
256,192,190588,5,4,
256,192,193411,5,4,
256,192,194823,5,4,
256,192,196235,5,4,
256,192,196941,1,4,
256,192,197647,5,4,
256,192,198352,1,4,
256,128,199058,5,4,
320,192,199764,1,4,
256,256,200470,1,4,
192,192,201176,1,4,
256,128,201882,5,4,
320,192,202588,1,4,
256,256,203294,1,4,
192,192,203999,1,4,
256,128,204705,5,4,
288,160,205058,1,4,
320,192,205411,1,4,
288,224,205764,1,4,
256,256,206117,1,4,
224,224,206470,1,4,
192,192,206823,1,4,
224,160,207176,1,4,
256,192,207529,12,4,215999
256,192,216705,1,2,
320,192,217411,1,0,
384,192,218117,1,2,
384,128,218823,5,0,
320,128,219529,1,2,
256,128,220235,1,0,
192,128,220941,1,2,
128,128,221647,5,0,
128,192,222352,1,2,
128,256,223058,1,0,
192,256,223764,1,2,
256,256,224470,5,0,
320,256,225176,1,2,
384,256,225882,1,0,
384,192,226588,1,2,
256,192,227294,5,4,
