osu file format v6

[General]
AudioFilename: Marisa wa Taihen na Kanbu de Tomatte Ikimashita.mp3
AudioLeadIn: 0
PreviewTime: 300
Countdown: 0
SampleSet: Normal
StackLeniency: 0.3
Mode: 0
LetterboxInBreaks: 1

[Editor]
Bookmarks: 9881,19483,29085,38687,48289,57891,67493,77095,86697,96299,105901,115503,125104
DistanceSpacing: 0.699999988079071
BeatDivisor: 2
GridSize: 32

[Metadata]
Title:Marisa wa Taihen na Kanbu de Tomatte Ikimashita
Artist:IOSYS
Creator:DJPop
Version:Easy
Source:Nico Nico Douga
Tags:marisa kanbu niji tsumidango Yuuzen

[Difficulty]
HPDrainRate:3
CircleSize:4
OverallDifficulty:3
SliderMultiplier:0.96
SliderTickRate:2

[Events]
//Background and Video events
Video,-2044,"Marisa wa Taihen na Kanbu de Tomatte Ikimashita.avi"
0,0,"Marisa wa Taihen na Kanbu de Tomatte Ikimashita.png"
//Break Periods
2,48489,56451
2,96499,104461
//Storyboard Layer 0 (Background)
//Storyboard Layer 1 (Fail)
//Storyboard Layer 2 (Pass)
//Storyboard Layer 3 (Foreground)
//Storyboard Sound Samples
//Background Colour Transformations
3,100,0,0,0

[TimingPoints]
280,300.0600120024,4,1,0,80,1,0
125104,-100,4,1,1,80,0,0

[HitObjects]
480,192,9881,5,0
416,192,10482,1,0
352,192,11082,1,0
288,192,11682,1,0
224,192,12282,1,0
160,192,12882,1,0
96,192,13482,1,0
32,192,14082,1,0
256,192,14682,12,0,17083
96,192,18283,6,2,C|384:192,1,288
416,192,19483,5,4
416,288,20083,1,0
320,320,20684,1,0
224,352,21284,1,0
128,320,21884,6,0,B|56:304|24:288|8:256|0:192|8:128|24:96|56:80|130:64,1,384
224,32,23684,1,2
320,64,24284,5,0
416,96,24884,1,0
448,192,25485,1,0
416,288,26085,1,0
320,320,26685,6,0,B|160:368|32:285|32:160,1,384
64,64,28485,1,2
160,32,29085,5,4
256,64,29685,1,0
288,160,30286,1,0
256,256,30886,1,0
288,352,31486,6,0,B|472:352|496:256|498:192|496:128|472:32|284:32,1,576
192,64,33886,5,0
96,96,34486,1,0
64,192,35086,1,0
96,288,35687,1,0
192,320,36287,6,0,B|349:320|324:96|481:96,1,384
480,192,38087,1,2
448,288,38687,6,0,C|448:336,14,48,4|0|0|0|0|0|0|0|0|0|0|0|0|0|0
256,288,41088,6,0,C|256:336,14,48
64,288,43488,6,0,C|64:336,14,48,4|0|0|0|0|0|0|0|0|0|0|0|0|0|0
32,192,45889,6,0,C|64:64|128:32|192:64|257:143|320:64|384:32|448:64|480:192,1,768,0|4
448,320,57891,5,4
320,320,58491,1,0
192,320,59091,1,0
64,320,59691,1,0
64,192,60292,5,0
192,192,60892,1,0
320,192,61492,1,0
448,192,62092,1,0
448,64,62692,5,0
320,64,63292,1,0
192,64,63892,1,0
64,64,64492,1,0
256,192,65092,12,2,66893
448,320,67493,5,4
352,320,68093,1,0
256,320,68693,1,0
160,320,69293,2,2,B|54:299|32:192,1,192,2|0
32,96,70494,5,0
128,96,71094,1,0
224,96,71694,2,2,B|336:128|272:0|384:32,1,192,2|0
480,32,72894,5,0
480,128,73494,1,0
480,224,74094,2,2,B|457:332|352:352,1,192,2|0
256,352,75295,5,0
160,352,75895,2,2,B|188:192|368:192,1,288
416,192,77095,6,0,L|416:32|336:32|336:128|240:128|240:32|160:32|160:192,1,768,4|0
32,224,80095,1,0
160,256,80696,1,0
32,288,81296,1,0
160,320,81896,6,0,L|256:320|256:256|352:256|352:192|448:192|448:64|352:64|352:32|256:32,1,768
224,160,84896,1,0
192,32,85497,1,0
160,160,86097,1,0
128,32,86697,6,0,L|32:32|32:96|96:96|96:160|32:160|32:224|96:224|96:288|32:288|32:352|160:352,1,768,4|0
256,288,89697,1,0
384,352,90298,1,0
448,224,90898,1,0
352,128,91498,6,0,L|160:128,4,192,0|0|0|0|0
448,32,94498,5,0
320,32,95098,1,0
192,32,95699,1,2
64,32,96299,1,4
256,192,105901,12,2,110402
256,192,110702,12,2,114902
448,352,115503,5,4
352,320,116103,1,0
256,288,116703,1,0
160,256,117303,1,0
64,224,117903,5,0
32,128,118503,1,0
128,96,119103,1,0
224,64,119703,2,0,L|416:64,1,192
448,160,120904,5,0
480,256,121504,1,0
448,352,122104,1,0
352,320,122704,5,2
256,288,123304,1,2
160,256,123904,2,2,B|128:128|256:73|384:128|352:259,1,384,2|6
256,192,125179,12,8,131606
