osu file format v12

[General]
AudioFilename: Manatsu ni Hajikeru Indoor Vampire.mp3
AudioLeadIn: 0
PreviewTime: 54309
Countdown: 0
SampleSet: None
StackLeniency: 0.7
Mode: 0
LetterboxInBreaks: 0
WidescreenStoryboard: 1

[Editor]
DistanceSpacing: 0.6
BeatDivisor: 4
GridSize: 8

[Metadata]
Title:Manatsu ni Hajikeru Indoor Vampire
TitleUnicode:Manatsu ni Hajikeru Indoor Vampire
Artist:IOSYS
ArtistUnicode:IOSYS
Creator:Kyubeychan
Version:Hard
Source:Touhou
Tags:Touhou IOSYS Remilia Scarlet
BeatmapID:366810
BeatmapSetID:148315

[Difficulty]
HPDrainRate:6
CircleSize:4
OverallDifficulty:6
ApproachRate:7
SliderMultiplier:1
SliderTickRate:1

[Events]
//Background and Video events
0,0,"Remilia BG.jpg",0,0
Video,0,"Manatsu ni Hajikeru Indoor Vampire PV.avi"
//Break Periods
2,43116,53717
//Storyboard Layer 0 (Background)
//Storyboard Layer 1 (Fail)
//Storyboard Layer 2 (Pass)
//Storyboard Layer 3 (Foreground)
//Storyboard Sound Samples
//Background Colour Transformations
3,100,163,162,255

[TimingPoints]
1712.32731972269,307.122448979592,4,1,0,70,1,0
23825,307.922448979592,4,1,0,70,1,0
54617,-100,4,1,0,70,0,1
64470,-100,4,1,0,70,0,1
74324,-100,4,1,0,70,0,0

[Colours]
Combo1 : 255,255,0
Combo2 : 179,179,217
Combo3 : 255,191,223

[HitObjects]
48,120,23825,1,0,0:0:0:0:
136,56,23978,1,0,0:0:0:0:
136,176,24132,1,8,0:0:0:0:
136,56,24286,1,0,0:0:0:0:
208,120,24440,2,0,L|272:120,3,50,0|0|8|0,0:0|0:0|0:0|0:0,0:0:0:0:
256,208,25056,2,0,L|320:208,4,50,0|0|0|8|2,0:0|0:0|0:0|0:0|0:0,0:0:0:0:
88,312,26288,5,0,0:0:0:0:
168,312,26442,1,0,0:0:0:0:
256,312,26596,1,8,0:0:0:0:
352,312,26750,1,0,0:0:0:0:
440,208,26904,2,0,L|384:208,1,50
360,208,27212,2,0,L|304:208,1,50,8|0,0:0|0:0,0:0:0:0:
272,208,27520,2,0,L|208:208,3,50
112,208,28751,6,0,L|72:112,1,100
192,176,29367,2,0,L|152:80,1,100,4|0,0:0|0:0,0:0:0:0:
272,144,29983,2,0,L|232:48,1,100,0|0,0:0|0:0,0:0:0:0:
360,112,30599,2,0,L|320:16,1,100,6|0,0:0|0:0,0:0:0:0:
256,192,31215,12,6,33062,0:0:0:0:
424,224,33678,6,0,B|400:288|400:288,1,50
320,248,33986,2,0,B|296:312|296:312,1,50,8|0,0:0|0:0,0:0:0:0:
216,272,34294,2,0,B|192:336|192:336,2,50,0|0|8,0:0|0:0|0:0,0:0:0:0:
120,200,34910,2,0,B|168:152|168:152|208:136,1,100
224,192,35372,2,0,P|256:176|296:120,1,100,6|0,0:0|0:0,0:0:0:0:
368,48,36141,5,0,0:0:0:0:
432,136,36449,1,8,0:0:0:0:
368,208,36757,1,0,0:0:0:0:
432,136,37065,1,8,0:0:0:0:
368,48,37373,1,0,0:0:0:0:
280,152,38605,5,0,0:0:0:0:
176,88,38913,1,0,0:0:0:0:
280,152,39221,1,4,0:0:0:0:
176,216,39529,1,0,0:0:0:0:
376,216,39836,1,0,0:0:0:0:
280,152,40144,1,0,0:0:0:0:
376,216,40452,1,0,0:0:0:0:
256,192,41068,12,0,42916,0:0:0:0:
72,72,54617,6,0,B|144:64|144:64|224:88,1,150
200,168,55387,1,0,0:0:0:0:
264,216,55541,1,0,0:0:0:0:
392,160,55848,1,0,0:0:0:0:
272,88,56156,1,0,0:0:0:0:
352,64,56310,1,4,0:0:0:0:
200,192,57080,6,0,L|160:248,2,50
240,272,57696,2,0,L|200:328,2,50
320,256,58312,1,4,0:0:0:0:
400,152,59544,6,0,P|352:112|312:104,1,100
312,160,60005,2,0,P|256:168|216:144,1,100
240,96,60467,2,0,P|192:72|144:72,1,100
64,152,61083,1,0,0:0:0:0:
144,184,61391,1,6,0:0:0:0:
256,192,62007,12,0,63239,0:0:0:0:
168,64,63546,5,0,0:0:0:0:
168,240,63854,1,0,0:0:0:0:
344,240,64162,1,0,0:0:0:0:
344,64,64470,5,0,0:0:0:0:
344,128,64624,2,0,L|216:128,2,125
408,208,65702,1,0,0:0:0:0:
448,288,66010,1,0,0:0:0:0:
408,208,66318,1,4,0:0:0:0:
272,288,66934,6,0,L|160:288,1,100
168,240,67396,2,0,L|40:240,2,125,0|0|6,0:0|0:0|0:0,0:0:0:0:
176,152,69397,6,0,L|256:72,1,100
224,224,70013,1,0,0:0:0:0:
296,272,70321,1,0,0:0:0:0:
224,224,70629,1,4,0:0:0:0:
400,80,71860,5,0,0:0:0:0:
312,64,72014,1,0,0:0:0:0:
104,184,72476,1,0,0:0:0:0:
192,168,72630,1,0,0:0:0:0:
272,272,73092,2,0,L|384:312,3,100,0|0|0|6,0:0|0:0|0:0|0:0,0:0:0:0:
