osu file format v5

[General]
AudioFilename: cucumber.mp3
AudioLeadIn: 0
PreviewTime: -1
Countdown: 1
SampleSet: Normal
StackLeniency: 0.7
Mode: 0
EditorBookmarks: 9633,17633,25633,33633,73456

[Metadata]
Title:Kyuurimi no Biiru wo Nomeba Iiyo!
Artist:IOSYS
Creator:Hitoshirenu Shourai
Version:Normal
Source:
Tags:

[Difficulty]
HPDrainRate:3
CircleSize:4
OverallDifficulty:5
SliderMultiplier:1
SliderTickRate:1

[Events]
//Background and Video events
0,0,"vlcsnap-4927446.png"
1,-100,"cucumber.avi"
//Break Periods
2,64989,72739
2,95489,96589
//Storyboard Layer 0 (Background)
//Storyboard Layer 1 (Failing)
//Storyboard Layer 2 (Passing)
//Storyboard Layer 3 (Foreground)
//Storyboard Sound Samples
//Background Colour Transformations
3,100,163,162,255

[TimingPoints]
1790,333.333333333333,3,1,0,70

[Colours]
Combo1 : 168,255,168
Combo2 : 0,128,0
Combo3 : 0,179,0
Combo4 : 40,255,40

[HitObjects]
104,192,33790,6,0,B|272:192,1,150
336,256,34789,6,0,B|168:256,1,150
256,192,35789,12,0,36456
264,40,36789,6,0,B|432:40,1,150
360,128,37789,6,0,B|360:224|256:224,1,150
176,200,38789,6,0,B|40:112,1,150
256,192,39789,12,0,40456
464,184,40789,2,0,B|464:328|376:264,1,150
288,304,41789,6,0,B|336:232|272:208,1,100
240,192,42289,1,0
136,64,42789,2,0,B|136:184,1,100
136,224,43289,1,0
248,104,43789,6,0,B|360:104,1,100
408,144,44456,1,0
344,184,44789,2,0,B|344:296|368:296,1,100
320,296,45289,1,0
256,192,45789,12,0,46289
256,192,46789,12,0,47289
256,192,47789,12,0,49289
136,72,49789,6,0,B|72:176,1,100
104,184,50289,1,0
152,272,50789,6,0,B|264:256,1,100
280,240,51289,1,0
352,224,51623,1,0
352,192,51789,2,0,B|296:72|239:193|184:88,1,200
136,136,52789,1,0
104,336,53789,6,0,B|216:336,1,100
240,336,54289,1,0
168,256,54789,2,0,B|280:256,1,100
272,224,55289,1,0
216,176,55623,5,0
184,160,55789,2,0,B|336:112,1,150
344,144,56456,1,0
280,176,56789,1,0
80,120,57789,6,0,B|72:240,1,100
96,248,58289,1,0
200,272,58789,2,0,B|232:160,1,100
264,184,59289,1,0
192,192,59623,1,0
160,192,59789,2,0,B|120:64|215:32|256:40,1,200
264,96,60789,1,0
264,96,61789,6,0,B|152:96,1,100
152,128,62289,2,0,B|264:176,1,100
256,200,62789,2,0,B|144:240,1,100
144,264,63289,2,0,B|264:264,1,100
264,296,63789,2,0,B|403:295|384:224,1,150
400,208,64456,2,0,B|400:120|360:120,1,100
456,40,73789,6,0,B|344:40,1,100
288,40,74456,1,0
256,104,74789,2,0,B|472:104,1,200
456,176,75789,6,0,B|336:176,1,100
288,176,76456,1,0
280,248,76789,6,0,B|504:248,1,200
408,208,77789,5,0
296,208,78123,1,0
184,208,78456,1,0
112,120,78789,5,0
224,120,79123,1,0
336,120,79456,1,0
408,200,79789,5,0
296,200,80123,1,0
184,200,80456,1,0
128,296,80789,5,0
240,296,81123,1,0
336,248,81456,1,0
256,168,81789,6,0,B|152:144,1,100
112,120,82289,1,0
104,280,82789,2,0,B|224:280,1,100
256,280,83289,1,0
456,192,83789,6,0,B|352:136,1,100
264,96,84456,1,0
160,144,84789,2,0,B|80:240,1,100
48,256,85289,1,0
256,192,85789,12,0,86289
256,192,86789,12,0,87289
256,192,87789,12,0,89289
72,56,89789,6,0,B|192:56,1,100
224,56,90289,1,0
368,144,90789,2,0,B|264:144,1,100
224,176,91289,1,0
96,256,91789,6,0,B|96:313|176:328,1,100
216,328,92289,1,0
272,328,92456,2,0,B|312:272,1,50
328,248,92789,2,0,B|328:136,1,100
360,112,93289,1,0
216,88,93789,6,0,B|104:88,1,100
96,136,94289,1,0
64,280,94789,2,0,B|168:280,1,100
200,248,95289,1,0
480,136,97789,6,0,B|384:72,1,100
352,104,98289,1,0
232,192,98789,2,0,B|120:184,1,100
112,232,99289,1,0
184,312,99623,5,0
240,312,99789,2,0,B|314:271|344:128,1,200
240,128,100789,1,0
112,328,101789,6,0,B|224:272,1,100
248,264,102289,1,0
120,256,102789,2,0,B|96:136,1,100
96,104,103289,1,0
256,72,103789,2,0,B|424:216,1,200
336,272,104789,5,0
256,192,105789,12,0,108789
360,320,109623,5,0
360,264,109789,2,0,B|304:248|312:160,1,100
264,160,110289,1,0
120,160,110789,2,0,B|200:184|136:240,1,100
120,256,111289,1,0
256,192,111789,12,0,112789
