osu file format v5

[General]
AudioFilename: cucumber.mp3
AudioLeadIn: 0
PreviewTime: -1
Countdown: 1
SampleSet: Normal
StackLeniency: 0.7
Mode: 0
EditorBookmarks: 9633,17633,25633,33633,73623,81706,93706,109706

[Metadata]
Title:Kyuurimi no Biiru wo Nomeba Iiyo!
Artist:IOSYS
Creator:Hitoshirenu Shourai
Version:Insane
Source:
Tags:

[Difficulty]
HPDrainRate:4
CircleSize:6
OverallDifficulty:7
SliderMultiplier:1.6
SliderTickRate:1

[Events]
//Background and Video events
0,-10000,"vlcsnap-4927446.png"
1,-100,"cucumber.avi"
//Break Periods
2,64989,72889
2,95823,96889
//Storyboard Layer 0 (Background)
//Storyboard Layer 1 (Failing)
//Storyboard Layer 2 (Passing)
//Storyboard Layer 3 (Foreground)
//Storyboard Sound Samples
//Background Colour Transformations
3,100,163,162,255

[TimingPoints]
1790,333.333333333333,3,1,0,70

[Colours]
Combo1 : 168,255,168
Combo2 : 0,128,0
Combo3 : 0,179,0
Combo4 : 40,255,40

[HitObjects]
80,192,1789,1,0
80,192,2123,1,0
80,192,2456,1,0
192,192,2789,5,0
192,192,3123,1,0
192,192,3456,1,0
304,192,3789,5,0
304,192,4123,1,0
304,192,4456,1,0
416,192,4789,5,0
416,192,5123,1,0
416,192,5456,1,0
256,360,5789,5,0
256,360,6123,1,0
256,360,6456,1,0
256,248,6789,5,0
256,248,7123,1,0
256,248,7456,1,0
256,136,7789,5,0
256,136,8123,1,0
256,136,8456,1,0
256,24,8789,5,0
256,24,9123,1,0
256,24,9456,1,0
64,64,9789,5,0
64,64,10123,1,0
64,64,10456,1,0
64,320,10789,5,0
64,320,11123,1,0
64,320,11456,1,0
448,320,11789,5,0
448,320,12123,1,0
448,320,12456,1,0
448,64,12789,5,0
448,64,13123,1,0
448,64,13456,1,0
32,192,13789,5,0
32,192,14123,1,0
32,192,14456,1,0
256,32,14789,5,0
256,32,15123,1,0
256,32,15456,1,0
480,192,15789,5,0
480,192,16123,1,0
480,192,16456,1,0
256,352,16789,5,0
256,352,17123,1,0
256,352,17456,1,0
256,240,17789,5,0
312,240,17956,1,0
368,240,18123,1,0
424,240,18289,1,0
480,240,18456,1,0
256,168,18789,5,0
200,168,18956,1,0
144,168,19123,1,0
88,168,19289,1,0
32,168,19456,1,0
256,104,19789,5,0
312,104,19955,1,0
368,104,20122,1,0
424,104,20289,1,0
480,104,20455,1,0
256,40,20789,5,0
200,40,20956,1,0
144,40,21123,1,0
88,40,21289,1,0
32,40,21456,1,0
128,88,21789,5,0
128,144,21956,1,0
128,200,22123,1,0
128,256,22289,1,0
128,312,22456,1,0
192,88,22789,5,0
192,144,22956,1,0
192,200,23123,1,0
192,256,23289,1,0
192,312,23456,1,0
256,88,23789,5,0
256,144,23956,1,0
256,200,24123,1,0
256,256,24289,1,0
256,312,24456,1,0
320,88,24789,5,0
320,144,24956,1,0
320,200,25123,1,0
320,256,25289,1,0
320,312,25456,1,0
488,216,25789,5,0
432,216,25956,1,0
400,216,26039,1,0
368,216,26123,1,0
312,216,26289,1,0
256,216,26456,1,0
32,168,26789,5,0
88,168,26956,1,0
112,168,27039,1,0
136,168,27123,1,0
192,168,27289,1,0
248,168,27456,1,0
232,32,27789,5,0
232,88,27956,1,0
232,112,28039,1,0
232,136,28123,1,0
232,192,28289,1,0
232,248,28456,1,0
232,304,28623,1,0
280,360,28789,5,0
280,304,28956,1,0
280,272,29039,1,0
280,240,29123,1,0
280,184,29289,1,0
280,128,29456,1,0
280,72,29623,1,0
392,72,29789,5,0
392,72,29873,1,0
392,72,29956,1,0
392,72,30039,1,0
392,72,30123,1,0
392,128,30289,1,0
336,128,30456,1,0
336,184,30623,1,0
336,328,30789,5,0
336,328,30873,1,0
336,328,30956,1,0
336,328,31039,1,0
336,328,31123,1,0
336,272,31289,1,0
280,272,31456,1,0
224,272,31623,1,0
104,272,31789,5,0
104,272,31873,1,0
104,272,31956,1,0
104,272,32039,1,0
104,272,32123,1,0
104,216,32289,1,0
104,160,32456,1,0
104,104,32623,1,0
200,40,32789,5,0
200,40,32873,1,0
200,40,32956,1,0
200,40,33039,1,0
200,40,33123,1,0
200,96,33289,1,0
144,96,33456,1,0
104,136,33623,1,0
104,192,33790,6,0,B|280:192,1,160
320,192,34290,1,0
368,224,34456,1,0
416,256,34623,1,0
440,304,34789,6,0,B|256:304,1,160
224,304,35289,1,0
168,304,35456,1,0
112,280,35623,1,0
64,240,35789,6,0,B|64:64,1,160
104,40,36289,1,0
160,40,36456,1,0
216,40,36623,1,0
272,40,36789,2,0,B|272:96|392:96|392:40,1,160
391,42,37289,1,0
392,96,37456,1,0
392,120,37539,1,0
392,144,37623,1,0
392,208,37789,6,0,B|392:304|272:304,1,160
288,248,38289,1,0
232,256,38456,1,0
176,264,38623,1,0
120,256,38789,6,0,B|120:136|32:136,1,160
40,80,39289,1,0
96,80,39456,1,0
152,80,39623,1,0
208,80,39789,6,0,B|208:152|304:152|304:80,1,160
360,80,40289,1,0
416,88,40456,1,0
456,128,40623,1,0
464,184,40789,2,0,B|464:328|408:328,1,160
360,328,41289,1,0
304,328,41456,1,0
272,328,41539,1,0
240,328,41623,1,0
184,328,41789,6,0,L|184:216|112:264|112:184,1,240
112,168,42456,1,0
112,112,42623,1,0
112,112,42789,2,0,L|112:64|192:136|232:24,1,240
272,56,43456,1,0
328,56,43623,1,0
384,56,43789,6,0,B|464:56|464:144,1,160
408,176,44289,1,0
456,200,44456,1,0
416,232,44623,1,0
464,248,44789,2,0,L|464:328|376:328,1,160
328,328,45289,2,0,L|288:328,2,40
328,272,45623,1,0
328,216,45789,6,0,B|240:216|160:128,1,160
152,104,46289,1,0
96,104,46456,1,0
152,104,46623,1,0
192,64,46789,2,0,B|336:64|360:104,1,160
400,104,47289,1,0
448,72,47456,1,0
448,128,47623,1,0
448,184,47789,5,0
448,184,47873,1,0
448,184,47956,1,0
448,184,48039,1,0
448,184,48123,1,0
448,240,48289,1,0
392,240,48456,1,0
392,296,48623,1,0
336,296,48789,1,0
336,296,48873,1,0
336,296,48956,1,0
336,296,49039,1,0
336,296,49123,1,0
280,296,49289,1,0
112,296,49789,5,0
112,296,49873,1,0
112,296,49956,1,0
112,240,50123,1,0
72,200,50289,1,0
72,144,50456,1,0
72,88,50623,1,0
112,56,50789,5,0
112,56,50873,1,0
112,56,50956,1,0
168,56,51123,1,0
224,56,51289,1,0
280,56,51456,1,0
336,56,51623,5,0
368,104,51789,1,0
368,104,51873,1,0
368,104,51956,1,0
368,104,52039,1,0
368,104,52123,1,0
400,56,52289,1,0
448,32,52456,1,0
472,144,52789,1,0
472,248,53123,5,0
432,288,53289,1,0
392,248,53456,1,0
352,288,53623,1,0
312,248,53789,2,0,B|144:248,1,160
96,248,54289,2,0,B|96:160|240:168,1,160
264,168,54789,2,0,B|432:168,1,160
480,168,55289,2,0,B|480:104|320:112,1,160
288,112,55789,6,0,B|168:112,1,80
152,112,56123,2,0,B|72:160,1,80
72,208,56456,2,0,B|128:288,1,80
168,288,56789,2,0,B|160:200,4,80
416,296,57789,6,0,B|400:216,1,80
400,160,58123,1,0
376,112,58289,2,0,B|288:88,1,80
240,88,58623,1,0
184,88,58789,2,0,B|216:176,1,80
152,176,59123,1,0
96,160,59289,2,0,B|40:224,1,80
32,272,59623,5,0
48,320,59789,2,0,B|128:352,1,80
144,296,60123,2,0,B|216:344,1,80
240,296,60456,2,0,B|312:240,6,80
232,240,61623,1,0
224,184,61789,2,0,B|288:32,1,160
344,40,62289,2,0,B|272:208,1,160
336,184,62789,2,0,B|400:32,1,160
456,40,63289,2,0,B|392:200,1,160
400,240,63789,5,0
400,240,63873,1,0
400,240,63956,1,0
344,240,64123,1,0
344,240,64206,1,0
344,240,64289,1,0
288,240,64456,1,0
288,240,64539,1,0
288,240,64623,1,0
288,240,64706,1,0
288,240,64789,1,0
64,320,73789,5,0
120,320,73956,1,0
176,320,74123,1,0
120,320,74289,1,0
64,320,74456,1,0
448,320,74789,5,0
392,320,74956,1,0
336,320,75123,1,0
392,320,75289,1,0
448,320,75456,1,0
64,192,75789,5,0
120,192,75956,1,0
176,192,76123,1,0
120,192,76289,1,0
64,192,76456,1,0
448,192,76789,5,0
392,192,76956,1,0
336,192,77123,1,0
392,192,77289,1,0
448,192,77456,1,0
176,304,77789,5,0
176,304,77873,1,0
176,304,77956,1,0
176,304,78039,1,0
176,304,78123,1,0
176,304,78289,1,0
176,304,78456,1,0
176,304,78623,1,0
328,304,78789,5,0
328,304,78873,1,0
328,304,78956,1,0
328,304,79039,1,0
328,304,79123,1,0
328,304,79289,1,0
328,304,79456,1,0
328,304,79623,1,0
176,192,79789,5,0
176,192,79873,1,0
176,192,79956,1,0
176,192,80039,1,0
176,192,80123,1,0
176,192,80289,1,0
176,192,80456,1,0
176,192,80623,1,0
328,192,80789,5,0
328,192,80873,1,0
328,192,80956,1,0
328,192,81039,1,0
328,192,81123,1,0
328,192,81289,1,0
328,192,81456,1,0
328,192,81623,1,0
256,24,81789,6,0,B|256:208,1,160
256,240,82289,1,0
256,296,82456,1,0
256,352,82623,1,0
312,352,82789,6,0,B|312:184,1,160
312,136,83289,1,0
312,80,83456,1,0
312,24,83623,1,0
368,24,83789,6,0,B|464:24|472:152,1,160
472,184,84289,1,0
472,240,84456,1,0
472,296,84623,1,0
472,352,84789,2,0,B|368:352|368:240,1,160
368,200,85289,1,0
368,144,85456,1,0
368,144,85539,1,0
368,144,85623,1,0
368,88,85789,6,0,B|288:32|216:48,1,160
200,96,86289,2,0,B|288:120,2,80
184,152,86789,2,0,B|304:184|304:256,1,160
280,296,87289,2,0,B|248:360|184:352,2,80
224,288,87789,2,0,B|136:288,1,80
176,240,88123,2,0,B|88:240,1,80
128,192,88456,2,0,B|32:192,1,80
48,136,88789,2,0,B|96:136,2,40
48,80,89123,1,0
104,80,89289,2,0,B|152:80,4,40
256,192,89789,12,0,90123
256,192,90289,1,0
256,192,90456,1,0
256,192,90623,1,0
256,192,90789,12,0,91123
256,192,91289,1,0
256,192,91456,1,0
256,192,91623,1,0
256,248,91789,2,0,B|256:336,1,80
312,328,92123,2,0,B|312:240,1,80
368,248,92456,2,0,B|368:336,1,80
424,328,92789,2,0,B|424:240,1,80
424,192,93123,2,0,B|328:192,3,80
288,192,93789,5,0
288,192,93873,1,0
288,192,93956,1,0
232,192,94123,1,0
176,192,94289,1,0
120,192,94456,1,0
64,192,94623,1,0
64,136,94789,5,0
64,136,94873,1,0
64,136,94956,1,0
120,136,95123,1,0
176,136,95289,1,0
232,136,95456,1,0
288,136,95623,1,0
392,64,97789,5,0
392,120,97956,1,0
392,176,98123,1,0
392,232,98289,1,0
392,288,98456,1,0
392,344,98623,1,0
336,344,98789,6,0,B|168:344,1,160
120,344,99289,2,0,B|24:344|32:232,1,160
32,184,99789,2,0,B|32:16,1,160
88,24,100289,2,0,B|88:128,1,80
88,160,100623,2,0,B|88:72,1,80
144,80,100956,2,0,B|216:80,2,40
144,136,101289,1,0
144,136,101373,1,0
144,136,101456,1,0
144,192,101623,5,0
144,248,101789,2,0,B|144:352|264:352,1,160
296,352,102289,1,0
352,352,102456,1,0
376,352,102539,1,0
400,352,102623,1,0
456,352,102789,2,0,B|456:184,1,160
456,136,103289,1,0
456,80,103456,5,0
408,56,103623,1,0
352,64,103789,1,0
296,56,103956,1,0
240,64,104123,1,0
184,56,104289,1,0
128,64,104456,1,0
80,96,104623,6,0,B|80:200,4,80
80,96,105456,1,0
80,96,105623,1,0
80,152,105789,6,0,B|80:328,1,160
136,312,106289,1,0
192,312,106456,2,0,B|256:248,1,80
264,200,106789,1,0
320,208,106956,2,0,B|376:296,1,80
408,240,107289,1,0
416,184,107456,2,0,B|440:72,1,80
384,72,107789,1,0
328,72,107956,2,0,B|216:72,1,80
192,72,108289,2,0,B|104:72,1,80
112,128,108623,2,0,B|168:128,6,40
112,184,109289,2,0,B|112:280,2,80
168,184,109789,5,0
168,184,109956,1,0
224,184,110123,1,0
224,184,110289,1,0
280,184,110456,1,0
280,184,110623,1,0
280,240,110789,5,0
280,240,110956,1,0
224,240,111123,1,0
224,240,111289,1,0
168,240,111456,1,0
168,240,111623,1,0
168,296,111789,5,0
168,296,111873,1,0
168,296,111956,1,0
224,296,112123,1,0
224,296,112206,1,0
224,296,112289,1,0
280,296,112456,1,0
280,296,112539,1,0
280,296,112623,1,0
280,296,112706,1,0
280,296,112789,1,0
