osu file format v14

[General]
AudioFilename: lalalala.mp3
AudioLeadIn: 0
PreviewTime: 3435
Countdown: 1
SampleSet: Normal
StackLeniency: 0.2
Mode: 0
LetterboxInBreaks: 1
WidescreenStoryboard: 0

[Editor]
DistanceSpacing: 1.4
BeatDivisor: 4
GridSize: 8
TimelineZoom: 0.4999999

[Metadata]
Title:Kuchiku-kan uranai no uta
TitleUnicode:Kuchiku-kan uranai no uta
Artist:IOSYS
ArtistUnicode:IOSYS
Creator:SakiZ
Version:SakolleZ
Source:
Tags:Shimakaze Yukikaze Nenohi Inazuma Kasumi Fubuki Kisaragi Mutsumi Rainbow Tylenol Can't Defeat Airman Utage Eien Ni TAG4 The Big Black Skystar He Has No Mittens Freedom Dive Genryuu Kaiko Star Platinum
BeatmapID:743149
BeatmapSetID:335749

[Difficulty]
HPDrainRate:4
CircleSize:4
OverallDifficulty:7
ApproachRate:9
SliderMultiplier:3.59999990463257
SliderTickRate:1

[Events]
//Background and Video events
0,0,"OCEAN.jpg",0,0
//Break Periods
2,12035,14835
2,24035,26835
2,36035,38835
2,48635,50835
2,60035,72435
2,81635,84435
2,93635,96435
//Storyboard Layer 0 (Background)
//Storyboard Layer 1 (Fail)
//Storyboard Layer 2 (Pass)
//Storyboard Layer 3 (Foreground)
//Storyboard Sound Samples

[TimingPoints]
1035,600,4,1,0,100,1,0
3435,-200,4,1,0,100,0,0
15435,-100,4,1,0,100,0,0
34035,-50,4,1,0,100,0,0
51435,-100,4,1,0,100,0,0
97035,-100,4,1,0,100,0,1
99435,300,4,1,0,100,1,0
99435,-50,4,1,0,100,0,1
105435,-100,4,1,0,100,0,0
106635,600,4,1,0,100,1,0
116235,-100,4,1,0,5,0,0

[HitObjects]
120,160,3435,5,0,0:0:0:0:
296,104,4035,5,0,0:0:0:0:
72,96,4635,5,0,0:0:0:0:
480,320,5235,5,0,0:0:0:0:
136,280,5835,5,0,0:0:0:0:
448,208,6435,5,0,0:0:0:0:
176,312,7035,6,0,B|232:296|256:336|256:336|280:296|336:312,1,179.999995231628
40,40,8235,5,0,0:0:0:0:
472,40,8835,1,0,0:0:0:0:
40,344,9435,1,0,0:0:0:0:
472,344,10035,1,0,0:0:0:0:
216,160,10635,2,0,B|216:192|216:192|224:216|72:256|256:384|440:256|288:216|296:192|296:192|296:160,1,359.999990463257,0|4,0:0|0:0,0:0:0:0:
184,344,15435,5,0,0:0:0:0:
328,344,15585,1,0,0:0:0:0:
184,344,15735,1,0,0:0:0:0:
328,344,15885,1,0,0:0:0:0:
256,344,16035,2,0,L|256:160,1,179.999995231628
184,40,16635,5,0,0:0:0:0:
136,104,16785,1,0,0:0:0:0:
376,104,16935,1,0,0:0:0:0:
328,40,17085,1,0,0:0:0:0:
256,72,17235,2,0,L|256:256,1,179.999995231628
104,160,17835,6,0,B|32:192|32:304|32:304|128:352,1,269.999992847443
176,288,18435,2,0,P|256:328|336:288,1,179.999995231629
408,160,19035,6,0,B|480:192|480:304|480:304|384:352,1,269.999992847443
336,288,19635,2,0,P|256:328|176:288,1,179.999995231629
256,40,20235,5,0,0:0:0:0:
408,40,20385,1,0,0:0:0:0:
408,192,20535,1,0,0:0:0:0:
256,192,20685,1,0,0:0:0:0:
104,192,20835,5,0,0:0:0:0:
104,344,20985,1,0,0:0:0:0:
256,344,21135,1,0,0:0:0:0:
256,192,21285,1,0,0:0:0:0:
256,40,21435,5,0,0:0:0:0:
104,40,21585,1,0,0:0:0:0:
104,192,21735,1,0,0:0:0:0:
256,192,21885,5,0,0:0:0:0:
408,192,22035,1,0,0:0:0:0:
104,192,22335,1,0,0:0:0:0:
256,192,22635,12,4,23835,0:0:0:0:
256,344,27435,5,0,0:0:0:0:
192,264,27585,1,0,0:0:0:0:
320,264,27735,1,0,0:0:0:0:
184,168,27885,1,0,0:0:0:0:
328,168,28035,2,0,P|400:96|360:24,2,179.999995231629
256,88,28785,1,0,0:0:0:0:
184,168,28935,1,0,0:0:0:0:
112,88,29085,2,0,P|64:272|104:344,1,269.999992847443
400,88,29835,5,0,0:0:0:0:
112,88,30135,1,0,0:0:0:0:
256,280,30435,1,0,0:0:0:0:
296,216,30585,1,0,0:0:0:0:
216,216,30735,1,0,0:0:0:0:
256,40,31035,5,0,0:0:0:0:
184,40,31185,1,0,0:0:0:0:
328,40,31335,1,0,0:0:0:0:
112,40,31485,1,0,0:0:0:0:
400,40,31635,1,0,0:0:0:0:
184,40,31785,1,0,0:0:0:0:
328,40,31935,1,0,0:0:0:0:
256,40,32085,1,0,0:0:0:0:
256,344,32235,5,0,0:0:0:0:
180,60,32385,1,0,0:0:0:0:
332,323,32535,1,0,0:0:0:0:
124,116,32685,1,0,0:0:0:0:
387,268,32835,1,0,0:0:0:0:
104,192,32985,1,0,0:0:0:0:
408,192,33135,1,0,0:0:0:0:
124,267,33285,1,0,0:0:0:0:
387,116,33435,1,0,0:0:0:0:
179,323,33585,1,0,0:0:0:0:
332,60,33735,1,0,0:0:0:0:
256,344,33885,1,0,0:0:0:0:
256,40,34035,1,0,0:0:0:0:
112,96,34335,6,0,P|224:136|256:192,1,179.999995231629
400,96,34635,2,0,P|288:136|256:192,1,179.999995231629
112,288,34935,2,0,P|224:248|256:192,1,179.999995231629
400,288,35235,2,0,P|288:248|256:192,1,179.999995231629
40,192,35535,5,0,0:0:0:0:
256,192,35685,1,0,0:0:0:0:
472,192,35835,1,4,0:0:0:0:
472,40,39435,5,0,0:0:0:0:
472,344,39585,5,0,0:0:0:0:
40,40,39735,5,0,0:0:0:0:
40,344,39885,5,0,0:0:0:0:
344,136,40035,5,0,0:0:0:0:
416,272,40185,5,0,0:0:0:0:
168,136,40335,5,0,0:0:0:0:
96,272,40485,5,0,0:0:0:0:
272,80,40635,5,0,0:0:0:0:
336,256,40785,5,0,0:0:0:0:
144,336,40935,5,0,0:0:0:0:
56,152,41085,5,0,0:0:0:0:
424,80,41235,5,0,0:0:0:0:
248,304,41385,5,0,0:0:0:0:
472,184,41535,5,0,0:0:0:0:
112,64,41685,5,0,0:0:0:0:
208,240,41835,5,0,0:0:0:0:
304,104,41985,5,0,0:0:0:0:
368,320,42135,5,0,0:0:0:0:
96,248,42285,5,0,0:0:0:0:
368,168,42435,5,0,0:0:0:0:
272,344,42585,5,0,0:0:0:0:
224,48,42735,5,0,0:0:0:0:
152,168,42885,5,0,0:0:0:0:
432,56,43035,5,0,0:0:0:0:
200,344,43185,5,0,0:0:0:0:
432,264,43335,5,0,0:0:0:0:
120,96,43485,5,0,0:0:0:0:
232,264,43635,5,0,0:0:0:0:
336,80,43785,5,0,0:0:0:0:
88,224,43935,5,0,0:0:0:0:
112,344,44085,5,0,0:0:0:0:
472,40,44235,5,0,0:0:0:0:
40,40,44385,5,0,0:0:0:0:
40,344,44535,5,0,0:0:0:0:
472,344,44685,5,0,0:0:0:0:
296,40,44835,5,0,0:0:0:0:
40,232,44985,5,0,0:0:0:0:
296,344,45135,5,0,0:0:0:0:
472,152,45285,5,0,0:0:0:0:
224,272,45435,5,0,0:0:0:0:
288,272,45585,5,0,0:0:0:0:
288,112,45735,5,0,0:0:0:0:
224,112,45885,5,0,0:0:0:0:
312,296,46035,5,0,0:0:0:0:
368,120,46185,5,0,0:0:0:0:
200,88,46335,5,0,0:0:0:0:
144,264,46485,5,0,0:0:0:0:
256,192,46635,12,4,48435,0:0:0:0:
256,0,51435,6,0,L|256:96,1,89.9999976158143
256,384,51735,2,0,L|256:288,1,89.9999976158143
160,25,52035,2,0,L|208:108,1,89.9999976158143
352,358,52335,2,0,L|304:275,1,89.9999976158143
89,96,52635,2,0,L|172:144,1,89.9999976158143
422,288,52935,2,0,L|339:240,1,89.9999976158143
64,192,53235,2,0,L|160:192,1,89.9999976158143
448,192,53535,2,0,L|352:192,1,89.9999976158143
89,288,53835,6,0,L|172:240,1,89.9999976158143
344,141,54135,2,0,L|422:96,1,89.9999976158143
160,358,54435,2,0,L|208:275,1,89.9999976158143
307,103,54735,2,0,L|352:25,1,89.9999976158143
256,383,55035,2,0,L|256:288,1,89.9999976158143
256,90,55335,2,0,L|256:0,1,89.9999976158143
352,358,55635,2,0,L|304:275,1,89.9999976158143
204,103,55935,2,0,L|159:25,1,89.9999976158143
328,64,56235,6,0,P|368:88|376:176,1,89.9999976158143
384,264,56535,2,0,P|360:304|272:312,1,89.9999976158143
184,320,56835,2,0,P|144:296|136:208,1,89.9999976158143
128,120,57135,2,0,P|152:80|240:72,1,89.9999976158143
358,86,57435,6,0,P|391:120|376:207,1,89.9999976158143
361,294,57735,2,0,P|327:327|240:312,1,89.9999976158143
153,297,58035,2,0,P|120:263|135:176,1,89.9999976158143
150,89,58335,2,0,P|184:56|271:71,1,89.9999976158143
368,128,58635,5,0,0:0:0:0:
320,304,58935,1,0,0:0:0:0:
144,256,59235,1,0,0:0:0:0:
192,80,59535,1,0,0:0:0:0:
256,192,59835,5,4,0:0:0:0:
40,280,73035,5,0,0:0:0:0:
123,232,73185,1,0,0:0:0:0:
80,302,73335,5,0,0:0:0:0:
82,209,73485,1,0,0:0:0:0:
122,278,73635,5,0,0:0:0:0:
40,233,73785,1,0,0:0:0:0:
123,232,73935,5,0,0:0:0:0:
40,280,74085,1,0,0:0:0:0:
82,209,74235,5,0,0:0:0:0:
80,302,74385,1,0,0:0:0:0:
40,233,74535,5,0,0:0:0:0:
122,278,74685,1,0,0:0:0:0:
193,256,74835,6,0,P|217:208|217:160,1,89.9999976158143
176,56,75135,2,0,P|256:80|384:48,1,179.999995231629
408,160,75585,6,0,P|312:192|296:232,2,89.9999976158143
272,288,76035,2,0,P|320:344|368:344,2,89.9999976158143
408,192,76635,5,0,0:0:0:0:
368,128,76785,1,0,0:0:0:0:
448,128,76935,1,0,0:0:0:0:
328,160,77085,2,0,L|232:152,1,89.9999976158143
80,64,77385,2,0,L|176:56,1,89.9999976158143
347,132,77835,5,0,0:0:0:0:
315,283,77985,1,0,0:0:0:0:
164,251,78135,1,0,0:0:0:0:
196,100,78285,1,0,0:0:0:0:
396,184,78435,5,0,0:0:0:0:
263,332,78585,1,0,0:0:0:0:
115,199,78735,1,0,0:0:0:0:
248,51,78885,1,0,0:0:0:0:
419,275,79035,5,0,0:0:0:0:
172,355,79185,1,0,0:0:0:0:
92,108,79335,1,0,0:0:0:0:
339,28,79485,1,0,0:0:0:0:
373,372,79635,5,0,0:0:0:0:
75,309,79785,1,0,0:0:0:0:
138,11,79935,1,0,0:0:0:0:
436,74,80085,1,0,0:0:0:0:
256,192,80235,12,4,81435,0:0:0:0:
152,64,85035,5,0,0:0:0:0:
184,72,85110,1,0,0:0:0:0:
216,88,85185,1,0,0:0:0:0:
240,104,85260,1,0,0:0:0:0:
264,128,85335,1,0,0:0:0:0:
280,160,85410,1,0,0:0:0:0:
288,192,85485,1,0,0:0:0:0:
288,224,85560,1,0,0:0:0:0:
280,256,85635,6,0,L|328:296,3,44.9999988079071
256,280,85935,2,0,L|280:352,3,44.9999988079071
224,288,86235,1,0,0:0:0:0:
192,280,86310,1,0,0:0:0:0:
168,256,86385,1,0,0:0:0:0:
160,224,86460,1,0,0:0:0:0:
168,192,86535,1,0,0:0:0:0:
200,168,86610,1,0,0:0:0:0:
232,168,86685,1,0,0:0:0:0:
264,184,86760,1,0,0:0:0:0:
296,176,86835,1,0,0:0:0:0:
320,144,86910,1,0,0:0:0:0:
312,112,86985,1,0,0:0:0:0:
280,96,87060,1,0,0:0:0:0:
248,96,87135,6,0,L|232:48,3,44.9999988079071
216,88,87435,1,0,0:0:0:0:
152,80,87510,1,0,0:0:0:0:
96,104,87585,1,0,0:0:0:0:
56,152,87660,1,0,0:0:0:0:
48,208,87735,1,0,0:0:0:0:
72,264,87810,1,0,0:0:0:0:
120,304,87885,1,0,0:0:0:0:
176,304,87960,1,0,0:0:0:0:
232,288,88035,1,0,0:0:0:0:
272,248,88110,1,0,0:0:0:0:
304,200,88185,1,0,0:0:0:0:
352,176,88260,5,0,0:0:0:0:
408,184,88335,1,0,0:0:0:0:
456,224,88410,1,0,0:0:0:0:
464,280,88485,1,0,0:0:0:0:
440,336,88560,1,0,0:0:0:0:
384,352,88635,1,0,0:0:0:0:
328,344,88710,1,0,0:0:0:0:
288,304,88785,1,0,0:0:0:0:
272,248,88860,1,0,0:0:0:0:
264,192,88935,1,0,0:0:0:0:
232,144,89010,1,0,0:0:0:0:
184,112,89085,1,0,0:0:0:0:
128,96,89160,1,0,0:0:0:0:
72,96,89235,6,0,L|40:48,3,44.9999988079071
56,152,89535,2,0,L|0:144,3,44.9999988079071
72,184,89835,1,0,0:0:0:0:
96,208,89910,1,0,0:0:0:0:
128,224,89985,1,0,0:0:0:0:
160,224,90060,1,0,0:0:0:0:
192,208,90135,1,0,0:0:0:0:
208,176,90210,1,0,0:0:0:0:
224,152,90285,1,0,0:0:0:0:
256,128,90360,1,0,0:0:0:0:
288,128,90435,1,0,0:0:0:0:
320,144,90510,1,0,0:0:0:0:
344,160,90585,1,0,0:0:0:0:
384,168,90660,1,0,0:0:0:0:
400,200,90735,1,0,0:0:0:0:
416,232,90810,1,0,0:0:0:0:
448,256,90885,1,0,0:0:0:0:
440,296,90960,1,0,0:0:0:0:
408,304,91035,5,0,0:0:0:0:
376,296,91110,1,0,0:0:0:0:
344,288,91185,1,0,0:0:0:0:
304,288,91260,1,0,0:0:0:0:
272,296,91335,1,0,0:0:0:0:
240,320,91410,1,0,0:0:0:0:
200,320,91485,1,0,0:0:0:0:
176,288,91560,1,0,0:0:0:0:
176,248,91635,1,0,0:0:0:0:
192,216,91710,1,0,0:0:0:0:
216,192,91785,1,0,0:0:0:0:
208,152,91860,1,0,0:0:0:0:
184,128,91935,1,0,0:0:0:0:
152,112,92010,1,0,0:0:0:0:
112,120,92085,1,0,0:0:0:0:
88,152,92160,1,0,0:0:0:0:
96,192,92235,5,0,0:0:0:0:
80,216,92310,1,0,0:0:0:0:
40,224,92385,1,0,0:0:0:0:
32,264,92460,1,0,0:0:0:0:
48,288,92535,1,0,0:0:0:0:
80,312,92610,1,0,0:0:0:0:
120,312,92685,1,0,0:0:0:0:
144,296,92760,1,0,0:0:0:0:
176,288,92835,1,0,0:0:0:0:
216,304,92910,1,0,0:0:0:0:
232,328,92985,1,0,0:0:0:0:
280,328,93060,1,0,0:0:0:0:
304,304,93135,1,0,0:0:0:0:
312,264,93210,1,0,0:0:0:0:
296,232,93285,1,0,0:0:0:0:
264,216,93360,1,0,0:0:0:0:
256,184,93435,5,4,0:0:0:0:
376,248,97035,6,0,P|432:208|448:152,1,89.9999976158143
312,296,97335,2,0,P|264:304|192:272,1,89.9999976158143
392,296,97635,2,0,P|440:304|512:272,1,89.9999976158143
328,248,97935,2,0,P|272:208|256:152,1,89.9999976158143
136,64,98235,6,0,P|80:24|64:-32,1,89.9999976158143
200,112,98535,2,0,P|248:120|320:88,1,89.9999976158143
120,112,98835,2,0,P|72:120|0:88,1,89.9999976158143
184,64,99135,2,0,P|240:24|256:-32,1,89.9999976158143
432,16,99435,6,0,L|512:368,1,359.999990463257
80,16,99735,2,0,L|0:368,1,359.999990463257
512,16,100035,6,0,L|432:368,1,359.999990463257
0,16,100335,2,0,L|80:368,1,359.999990463257
472,368,100635,6,0,L|392:16,1,359.999990463257
40,368,100935,2,0,L|120:16,1,359.999990463257
392,368,101235,6,0,L|472:16,1,359.999990463257
120,368,101535,2,0,L|40:16,1,359.999990463257
448,48,101835,6,0,P|448:184|224:336,1,359.999990463257
64,336,102135,2,0,P|64:200|288:48,1,359.999990463257
448,336,102435,6,0,P|448:200|224:48,1,359.999990463257
64,48,102735,2,0,P|64:184|288:336,1,359.999990463257
293,54,103035,6,0,P|431:161|448:336,1,359.999990463257
217,54,103335,2,0,P|79:161|63:335,1,359.999990463257
216,352,103635,5,0,0:0:0:0:
360,344,103710,1,0,0:0:0:0:
480,264,103785,1,0,0:0:0:0:
488,128,103860,1,0,0:0:0:0:
424,0,103935,1,0,0:0:0:0:
256,192,104235,12,4,105435,0:0:0:0:
128,120,106635,5,0,0:0:0:0:
128,120,106785,2,0,P|224:120|304:88,1,179.999995231629
368,144,107235,2,0,P|344:264|296:320,1,179.999995231629
224,328,107685,1,0,0:0:0:0:
136,280,107835,6,0,P|96:240|80:184,1,89.9999976158143
128,120,108135,2,0,P|161:149|180:190,1,89.9999976158143
323,233,108435,2,0,P|283:193|267:137,1,89.9999976158143
315,73,108735,2,0,P|348:102|367:143,1,89.9999976158143
456,192,109035,6,0,P|424:296|320:328,1,179.999995231629
280,288,109485,1,0,0:0:0:0:
192,328,109635,2,0,P|160:272|104:232,1,89.9999976158143
40,272,109935,2,0,P|72:328|128:368,1,89.9999976158143
224,208,110235,6,0,P|320:152|336:80,1,179.999995231629
80,56,110835,2,0,P|96:184|128:216,1,179.999995231629
376,256,111435,6,0,P|416:136|464:104,1,179.999995231629
368,56,111885,1,0,0:0:0:0:
296,112,112035,2,0,P|176:144|88:128,1,179.999995231629
64,208,112485,1,0,0:0:0:0:
144,272,112635,2,0,P|192:288|248:288,1,89.9999976158143
376,256,112935,2,0,P|328:240|272:240,1,89.9999976158143
160,152,113235,2,0,P|256:144|344:72,1,179.999995231629
216,304,113835,5,0,2:0:0:0:
237,95,113985,1,0,2:0:0:0:
341,277,114135,1,0,2:0:0:0:
151,194,114285,1,0,2:0:0:0:
355,151,114435,1,0,2:0:0:0:
166,313,114585,5,0,2:0:0:0:
263,58,114735,1,0,2:0:0:0:
333,322,114885,1,0,2:0:0:0:
122,155,115035,1,0,2:0:0:0:
393,169,115185,1,0,2:0:0:0:
109,308,115335,5,0,2:0:0:0:
310,30,115485,1,0,2:0:0:0:
307,372,115635,1,0,2:0:0:0:
108,102,115785,1,0,2:0:0:0:
430,206,115935,1,4,2:0:0:0:
256,192,116235,12,0,121035,0:0:0:0:
