osu file format v13

[General]
AudioFilename: my darling!.mp3
AudioLeadIn: 0
PreviewTime: -1
Countdown: 1
SampleSet: Normal
StackLeniency: 0.7
Mode: 0
LetterboxInBreaks: 1
WidescreenStoryboard: 0

[Editor]
DistanceSpacing: 1
BeatDivisor: 2
GridSize: 4
TimelineZoom: 1

[Metadata]
Title:Koishiteru yo my darling !
TitleUnicode:恋してるよ my darling !
Artist:IOSYS
ArtistUnicode:IOSYS
Creator:blahpy
Version:Hard
Source:Project U-Ta-Hi-Me
Tags:project u-ta-hi-me iosys
BeatmapID:460866
BeatmapSetID:194029

[Difficulty]
HPDrainRate:4
CircleSize:4
OverallDifficulty:6
ApproachRate:7
SliderMultiplier:0.7
SliderTickRate:1

[Events]
//Background and Video events
//Break Periods
//Storyboard Layer 0 (Background)
//Storyboard Layer 1 (Fail)
//Storyboard Layer 2 (Pass)
//Storyboard Layer 3 (Foreground)
//Storyboard Sound Samples
//Background Colour Transformations
3,100,163,162,255

[TimingPoints]
1528,220.588235294118,4,1,0,100,1,0

[Colours]
Combo1 : 255,128,192
Combo2 : 128,255,255
Combo3 : 0,128,192
Combo4 : 192,192,192

[HitObjects]
256,192,204,12,0,1307,0:0:0:0:
128,78,1527,6,0,P|99:53|60:46,2,70,0|0|0,0:0|0:0|0:0,0:0:0:0:
182,122,2189,1,0,0:0:0:0:
182,122,2300,2,0,P|217:160|279:163,1,105
337,161,2851,1,0,0:0:0:0:
375,295,3292,6,0,P|421:309|471:299,2,70,0|0|0,0:0|0:0|0:0,0:0:0:0:
312,263,3954,1,0,0:0:0:0:
312,263,4064,2,0,P|271:232|233:169,1,105
211,124,4616,1,0,0:0:0:0:
346,87,5057,5,0,0:0:0:0:
366,154,5278,2,0,L|407:138,2,35,0|0|0,0:0|0:0|0:0,0:0:0:0:
304,186,5719,1,0,0:0:0:0:
304,186,5829,2,0,P|249:208|178:196,1,105
135,192,6380,1,0,0:0:0:0:
210,73,6822,5,0,0:0:0:0:
176,134,7042,1,0,0:0:0:0:
146,197,7263,2,0,P|141:238|152:279,1,70
164,295,7594,2,0,P|208:325|274:326,1,105
329,324,8145,1,0,0:0:0:0:
429,226,8586,6,0,P|454:194|467:151,2,70,0|0|0,0:0|0:0|0:0,0:0:0:0:
377,274,9248,1,0,0:0:0:0:
377,274,9358,2,0,P|324:292|269:299,1,105
206,302,9910,1,0,0:0:0:0:
206,302,10351,5,0,0:0:0:0:
272,281,10572,1,0,0:0:0:0:
333,247,10792,1,0,0:0:0:0:
386,201,11013,1,0,0:0:0:0:
386,201,11123,2,0,P|416:159|434:98,1,105
434,38,11675,1,0,0:0:0:0:
295,38,12116,5,0,0:0:0:0:
235,73,12336,2,0,L|199:42,2,35,0|0|0,0:0|0:0|0:0,0:0:0:0:
283,125,12778,1,0,0:0:0:0:
283,125,12888,2,0,P|300:177|306:228,1,105
282,293,13439,1,0,0:0:0:0:
226,336,13660,1,0,0:0:0:0:
156,341,13880,5,0,0:0:0:0:
83,266,14101,1,0,0:0:0:0:
187,284,14322,1,0,0:0:0:0:
92,330,14542,1,0,0:0:0:0:
141,237,14763,1,0,0:0:0:0:
412,72,15645,5,0,0:0:0:0:
384,136,15866,1,0,0:0:0:0:
412,200,16086,1,0,0:0:0:0:
320,308,16528,5,0,0:0:0:0:
256,280,16749,1,0,0:0:0:0:
192,308,16969,1,0,0:0:0:0:
96,208,17410,6,0,P|92:160|108:112,1,70
160,108,17851,2,0,P|164:156|152:192,1,70
104,220,18292,1,0,0:0:0:0:
76,156,18513,1,0,0:0:0:0:
104,92,18733,1,0,0:0:0:0:
244,96,19175,5,0,0:0:0:0:
300,224,19616,1,0,0:0:0:0:
160,200,20058,2,0,P|116:224|96:252,1,70
112,308,20499,2,0,P|156:284|176:256,1,70
192,204,20940,5,0,0:0:0:0:
352,68,21381,1,0,0:0:0:0:
389,274,21822,1,0,0:0:0:0:
237,38,22704,5,0,0:0:0:0:
298,72,22925,1,0,0:0:0:0:
355,111,23145,1,0,0:0:0:0:
403,162,23366,1,0,0:0:0:0:
403,162,23476,2,0,B|434:211|435:211|442:259,1,105
433,327,24028,1,0,0:0:0:0:
369,356,24248,1,0,0:0:0:0:
298,356,24469,5,0,0:0:0:0:
234,327,24689,1,0,0:0:0:0:
234,327,24800,1,0,0:0:0:0:
234,327,24910,1,0,0:0:0:0:
186,276,25130,1,0,0:0:0:0:
186,276,25241,2,0,P|150:224|136:182,1,105
120,116,25792,2,0,P|123:76|138:49,1,70
205,33,26233,5,0,0:0:0:0:
275,31,26454,1,0,0:0:0:0:
340,55,26675,1,0,0:0:0:0:
386,106,26895,1,0,0:0:0:0:
386,106,27005,2,0,P|414:164|417:208,1,105
394,270,27557,1,0,0:0:0:0:
333,305,27778,6,0,L|301:320,2,35,0|0|0,0:0|0:0|0:0,0:0:0:0:
266,326,28219,2,0,L|212:331,2,35,0|0|0,0:0|0:0|0:0,0:0:0:0:
196,314,28660,1,0,0:0:0:0:
196,314,28770,2,0,P|148:293|106:258,1,105
68,201,29322,1,0,0:0:0:0:
