osu file format v9

[General]
AudioFilename: kitto mou hatarakanai.mp3
AudioLeadIn: 0
PreviewTime: 63039
Countdown: 0
SampleSet: Normal
StackLeniency: 0.7
Mode: 0
LetterboxInBreaks: 0

[Editor]
DistanceSpacing: 1
BeatDivisor: 4
GridSize: 4

[Metadata]
Title:Kitto Mou Hatarakanai
Artist:IOSYS
Creator:mochi
Version:Normal
Source:Touhou
Tags:arm kaguya lunatic princess yukkuri imperishable night

[Difficulty]
HPDrainRate:3
CircleSize:3
OverallDifficulty:3
ApproachRate:4
SliderMultiplier:0.9
SliderTickRate:1

[Events]
//Background and Video events
0,0,"bg.jpg"
Video,0,"neet.avi"
//Break Periods
2,20204,23649
//Storyboard Layer 0 (Background)
//Storyboard Layer 1 (Fail)
//Storyboard Layer 2 (Pass)
//Storyboard Layer 3 (Foreground)
//Storyboard Sound Samples
//Background Colour Transformations
3,100,212,212,212

[TimingPoints]
142,413.793103448276,4,1,1,65,1,0
20004,-100,4,1,2,65,0,0
26211,-100,4,1,1,65,0,0
31590,-100,4,1,2,65,0,0
32832,-100,4,1,1,65,0,0
58073,-100,4,1,1,70,0,0
59728,-100,4,1,1,75,0,0
63038,-100,4,1,1,75,0,1
76228,-100,4,1,1,75,0,0
76279,-100,4,1,1,75,0,1
89521,-100,4,1,1,75,0,0
99452,-100,4,1,1,75,0,1
99504,-100,4,1,1,75,0,0

[Colours]
Combo1 : 242,154,96
Combo2 : 149,130,238
Combo3 : 251,162,164
Combo4 : 154,235,241

[HitObjects]
96,276,6762,1,4
180,245,7176,2,0,B|202:298|160:340,2,90,8|0|8
144,164,8417,1,0
172,78,8831,2,0,B|198:74|198:74|270:106,1,90,8|0
337,139,9659,1,8
384,215,10073,6,0,B|429:191|428:136,2,90,0|8|0
302,253,11314,1,8
240,318,11728,2,0,B|223:327|223:327|187:323|150:290,1,90,0|8
96,232,12555,2,0,B|72:185|106:140,1,90,0|8
166,84,13383,5,4
250,115,13797,2,0,B|272:62|230:20,2,90,8|0|8
206,193,15038,1,0
243,274,15452,2,0,B|277:320|341:302,1,90,8|0
409,284,16279,1,8
406,193,16693,6,0,B|457:188|485:235,2,90,0|8|0
316,202,17935,1,8
246,259,18348,2,0,B|229:268|229:268|193:264|156:231,1,90,0|8
77,220,19176,2,0,B|84:165|139:151,1,90,0|8
218,134,20004,1,4
223,233,24969,6,0,B|250:279|311:265,2,90,4|4|4
293,176,26210,6,0,B|266:130|205:144,1,90,8|4
129,166,27038,1,8
87,245,27452,2,0,B|90:299|139:317,1,90,0|8
178,325,28073,1,0
222,326,28279,2,0,B|277:339|316:285,2,90,0|8|0
238,237,29521,5,8
276,155,29935,2,0,B|296:122|296:122|361:106,1,90,4|8
422,157,30762,2,0,B|402:190|402:190|337:206,1,90,4|8
273,245,31590,2,0,B|244:277|244:277|192:290,2,90,4|12|4
276,155,32831,1,8
355,113,33245,5,4
432,156,33659,2,0,B|462:107|428:58,2,90,8|0|8
368,220,34900,1,0
340,306,35314,2,0,B|313:309|313:309|242:278,1,90,8|0
175,245,36142,1,8
128,169,36555,6,0,B|83:193|84:248,2,90,0|8|0
210,131,37797,1,8
272,66,38210,2,0,B|289:57|289:57|324:60|362:94,1,90,0|8
416,152,39038,2,0,B|440:199|406:244,1,90,0|8
346,300,39866,5,4
262,269,40279,2,0,B|240:322|282:364,2,90,8|0|8
306,191,41521,1,0
269,110,41935,2,0,B|235:64|171:82,1,90,8|0
103,100,42762,1,8
106,191,43176,6,0,B|55:196|26:148,2,90,0|8|0
196,182,44417,1,8
266,125,44831,2,0,B|283:116|283:116|318:119|356:153,1,90,0|8
435,164,45659,2,0,B|428:219|372:232,1,90,0|8
299,267,46486,5,4
210,283,46900,2,0,B|219:340|276:355,2,90,8|0|8
196,193,48142,1,0
146,117,48555,2,0,B|92:153|112:212,2,90,8|0|8
228,81,49797,5,6
317,85,50210,2,0,B|360:20,2,67.5,2|2|2
379,149,51245,1,2
393,237,51659,1,2
393,237,51866,2,0,B|448:230|468:171,2,90,2|0|0
304,220,53107,5,4
270,136,53521,2,0,B|254:106|254:106|188:94,1,90,8|0
126,150,54348,2,0,B|142:180|142:180|208:192,1,90,8|0
296,340,55590,6,0,B|352:349|385:297,1,90,0|0
375,219,56417,2,2,B|457:227|465:314,2,135,6|2|2
311,155,58073,6,2,B|319:73|406:65,2,135,6|2|2
247,218,59728,6,2,B|165:210|157:123,2,135,6|2|2
292,218,61176,1,6
214,53,63038,6,0,B|256:27|298:53,1,90,12|0
256,132,63866,1,8
222,262,64486,6,0,B|248:315|306:306,1,90,8|0
298,218,65314,2,0,B|375:228|384:302|384:302|471:263,1,225,8|0
426,89,67176,6,0,B|394:62|394:62|328:74,1,90,8|0
258,88,68004,1,8
192,149,68417,2,0,B|155:113|172:59,2,90,0|8|0
255,213,69659,2,0,B|332:275|345:189|429:257,1,180,8|0
329,350,71107,5,0
239,339,71521,1,0
239,339,71728,2,0,B|212:328|212:328|192:304|192:260,1,90,8|0
105,294,72555,2,0,B|90:268|90:268|90:237|118:203,1,90,8|0
169,143,73383,5,0
169,143,73590,2,0,B|121:108|75:131,2,90,8|0|8
241,196,74831,1,0
290,271,75245,2,0,B|354:225|320:149,1,135,8|0
273,75,76279,6,0,B|246:33|197:38,1,90,12|0
111,68,77107,1,8
66,195,77728,6,0,B|92:248|150:239,1,90,8|0
142,151,78555,2,0,B|219:161|228:235|228:235|315:196,1,225,8|0
435,63,80417,6,0,B|462:95|462:95|450:161,1,90,8|0
433,230,81245,1,8
372,296,81659,2,0,B|408:333|462:316,2,90,0|8|0
307,232,82900,2,0,B|230:170|217:256|133:188,1,180,8|0
48,92,84348,5,0
126,49,84762,1,0
126,49,84969,2,0,B|153:38|153:38|184:41|214:73,1,90,8|0
267,131,85797,2,0,B|293:146|293:146|324:146|358:118,1,90,8|0
427,82,86624,5,0
427,82,86831,2,0,B|400:32|341:37,2,90,8|0|8
453,168,88073,1,0
413,248,88486,2,0,B|367:312|291:278,1,135,8|0
221,226,89521,6,0,B|142:152,1,90,0|8
204,88,90348,2,0,B|283:162,1,90,0|8
337,209,91176,1,0
348,300,91590,2,0,B|403:297|425:238,2,90,8|0|8
257,300,92831,6,0,B|153:300,1,90,0|8
132,216,93659,2,0,B|236:216,1,90,0|8
312,216,94486,1,0
358,138,94900,2,0,B|407:163|402:230,2,90,8|0|8
281,91,96142,5,4
192,77,96555,2,0,B|156:94|156:94|133:156,1,90,8|0
48,150,97383,2,0,B|43:189|43:189|83:241,1,90,8|4
256,228,98624,6,0,B|256:328,2,90,4|8|0
256,182,99659,1,4
