osu file format v9

[General]
AudioFilename: kitto mou hatarakanai.mp3
AudioLeadIn: 0
PreviewTime: 63039
Countdown: 0
SampleSet: Normal
StackLeniency: 0.7
Mode: 0
LetterboxInBreaks: 0

[Editor]
DistanceSpacing: 1
BeatDivisor: 4
GridSize: 4

[Metadata]
Title:Kitto Mou Hatarakanai
Artist:IOSYS
Creator:mochi
Version:Lunatic
Source:Touhou
Tags:arm kaguya lunatic princess yukkuri imperishable night

[Difficulty]
HPDrainRate:6
CircleSize:4
OverallDifficulty:7
ApproachRate:8
SliderMultiplier:1.8
SliderTickRate:1

[Events]
//Background and Video events
0,0,"bg.jpg"
Video,0,"neet.avi"
//Break Periods
2,20203,24219
//Storyboard Layer 0 (Background)
//Storyboard Layer 1 (Fail)
//Storyboard Layer 2 (Pass)
//Storyboard Layer 3 (Foreground)
//Storyboard Sound Samples
//Background Colour Transformations
3,100,212,212,212

[TimingPoints]
142,413.793103448276,4,1,1,65,1,0
20004,-100,4,1,2,65,0,0
26211,-100,4,1,1,65,0,0
31590,-100,4,1,2,65,0,0
32832,-100,4,1,1,65,0,0
46590,-100,4,1,1,45,0,0
46901,-100,4,1,1,65,0,0
47004,-100,4,1,1,45,0,0
47315,-100,4,1,1,65,0,0
47418,-100,4,1,1,45,0,0
47728,-100,4,1,1,65,0,0
47832,-100,4,1,1,45,0,0
48142,-100,4,1,1,65,0,0
48246,-100,4,1,1,45,0,0
48556,-100,4,1,1,65,0,0
48659,-100,4,1,1,45,0,0
48970,-100,4,1,1,65,0,0
49073,-100,4,1,1,45,0,0
49384,-100,4,1,1,65,0,0
49487,-100,4,1,1,45,0,0
49797,-100,4,1,1,65,0,0
53211,-100,4,1,1,45,0,0
53521,-100,4,1,1,65,0,0
53625,-100,4,1,1,45,0,0
53935,-100,4,1,1,65,0,0
54039,-100,4,1,1,45,0,0
54349,-100,4,1,1,65,0,0
54452,-100,4,1,1,45,0,0
54763,-100,4,1,1,65,0,0
54866,-100,4,1,1,45,0,0
55177,-100,4,1,1,65,0,0
55280,-100,4,1,1,45,0,0
55590,-100,4,1,1,65,0,0
55694,-100,4,1,1,45,0,0
56004,-100,4,1,1,65,0,0
56108,-100,4,1,1,45,0,0
56418,-100,4,1,1,65,0,0
58073,-100,4,1,1,70,0,0
59728,-100,4,1,1,75,0,0
61177,-100,4,1,1,39,0,0
61384,-100,4,1,1,43,0,0
61590,-100,4,1,1,47,0,0
61797,-100,4,1,1,51,0,0
62004,-100,4,1,1,55,0,0
62211,-100,4,1,1,59,0,0
62418,-100,4,1,1,63,0,0
62625,-100,4,1,1,67,0,0
62832,-100,4,1,1,71,0,0
63038,-100,4,1,1,75,0,1
76228,-100,4,1,1,75,0,0
76279,-100,4,1,1,75,0,1
89521,-100,4,1,1,75,0,0
99452,-100,4,1,1,75,0,1
99504,-100,4,1,1,75,0,0

[Colours]
Combo1 : 242,154,96
Combo2 : 149,130,238
Combo3 : 251,162,164
Combo4 : 154,235,241

[HitObjects]
151,330,6762,2,0,B|181:316|181:316|201:285|183:218,1,90,4|0
174,172,7176,1,8
84,155,7383,1,0
84,155,7486,2,0,B|108:78|184:80,1,135
338,172,8004,1,8
428,155,8210,1,0
428,155,8314,2,0,B|403:78|327:80,1,135
256,136,8831,5,8
221,219,9038,1,0
216,250,9141,1,0
222,281,9245,1,0
240,306,9348,1,0
261,328,9452,2,0,B|305:366|361:329,1,90,8|8
424,295,9866,1,0
440,206,10073,6,0,B|380:190|343:250,1,90
299,298,10486,1,8
212,322,10693,1,0
212,322,10797,2,0,B|180:329|180:329|124:301|130:229,1,135
213,86,11314,1,8
300,62,11521,1,0
300,62,11624,2,0,B|332:55|332:55|388:83|382:155,1,135
382,227,12141,5,8
305,179,12348,1,0
276,166,12452,1,0
244,162,12555,1,0
213,171,12659,1,0
186,188,12762,2,8,B|148:238|65:210,1,90
116,129,13176,1,0
48,69,13383,6,0,B|86:19|169:47,1,90,4|0
196,95,13797,1,8
277,57,14004,1,0
277,57,14107,2,0,B|312:47|312:47|395:138,1,135
316,289,14624,1,8
235,327,14831,1,0
235,327,14935,2,0,B|200:337|200:337|117:246,1,135
77,194,15452,5,8
102,107,15659,1,0
119,80,15762,1,0
143,61,15866,1,0
173,51,15969,1,0
204,46,16073,2,8,B|254:42|277:87,1,90
300,174,16486,1,0
313,263,16693,6,0,B|335:308|386:304,1,90
465,260,17107,1,8
387,214,17314,1,0
387,214,17417,2,0,B|398:180|398:180|381:119|297:116,1,135
238,99,17935,1,8
148,107,18141,5,0
127,115,18245,1,0
108,127,18348,1,8
91,142,18452,1,0
77,160,18555,5,0
67,180,18659,1,0
62,202,18762,1,8
61,224,18866,1,0
65,246,18969,5,0
73,266,19073,1,0
85,284,19176,1,8
99,301,19279,1,0
115,316,19383,5,0
135,325,19486,1,0
156,331,19590,2,0,B|210:350|272:323,2,90,8|0|4
256,64,24969,5,4
396,306,25383,1,4
115,306,25797,1,4
256,192,26210,5,8
290,275,26417,2,0,B|310:303|310:303|390:323,1,90,0|4
450,142,26831,2,0,B|430:114|430:114|350:94,1,90,0|8
287,83,27245,1,0
287,83,27348,1,0
287,83,27452,2,0,B|228:78|185:118,1,90,0|0
129,159,27866,1,8
164,241,28073,5,0
184,264,28176,1,0
213,275,28279,1,0
244,269,28383,1,0
272,255,28486,2,0,B|319:229|373:266,1,90,0|8
475,361,28900,2,0,B|437:322|439:265,1,90
439,190,29314,1,0
442,158,29417,1,0
451,128,29521,2,0,B|448:104|448:104|438:77|385:54,1,90,8|0
311,80,29935,5,4
187,49,30141,1,0
155,173,30348,1,8
280,204,30555,1,0
362,167,30762,5,4
295,323,30969,1,0
135,256,31176,1,8
203,96,31383,1,0
285,58,31590,6,0,B|310:58|310:58|337:76|341:113,1,90,4|0
419,250,32004,2,0,B|406:271|406:271|377:285|343:271,1,90,12|0
185,269,32417,2,0,B|173:248|173:248|175:216|206:193,1,90,4|8
296,192,32831,1,8
57,64,33245,5,4
97,143,33452,1,0
92,232,33659,2,0,B|107:256|107:256|129:271|180:260,1,90,8|0
198,257,33969,1,0
229,254,34073,2,0,B|278:241|340:286,1,90
449,360,34486,2,0,B|400:333|397:268,1,90,8|0
397,257,34797,1,0
395,225,34900,2,0,B|400:165|338:122,1,90
284,104,35314,6,0,B|307:55|373:54,1,90,8|0
386,54,35624,1,0
416,60,35728,1,0
444,73,35831,1,0
467,94,35935,1,8
489,181,36142,2,0,B|479:220|479:220|411:262,1,90,8|0
360,295,36555,5,0
282,248,36762,1,0
230,322,36969,2,0,B|171:345|122:279,1,90,8|0
124,282,37279,1,0
107,255,37383,2,0,B|94:203|128:154,1,90
32,39,37797,2,0,B|72:77|124:79,1,90,8|0
143,79,38107,1,0
174,82,38210,2,0,B|233:86|290:136,1,90
325,172,38624,6,0,B|349:203|349:203|354:245|311:282,1,90,8|0
322,279,38935,1,0
301,303,39038,1,0
274,319,39142,1,0
244,329,39245,1,8
160,297,39452,2,0,B|142:279|142:279|140:246|174:195,1,90,8|0
212,143,39866,5,4
288,191,40073,1,0
376,173,40279,2,0,B|394:156|394:156|396:123|365:70,1,90,8|0
363,65,40590,1,0
338,45,40693,2,0,B|307:27|307:27|233:45,1,90
109,31,41107,2,0,B|163:59|163:59|197:110,1,90,8|0
194,110,41417,1,0
209,137,41521,2,0,B|223:163|223:163|212:258,1,90
210,313,41935,6,0,B|238:367|321:349,1,90,8|0
316,352,42245,1,0
346,345,42348,1,0
374,332,42452,1,0
398,312,42555,1,8
458,245,42762,2,0,B|491:203|460:150,1,90,8|0
421,81,43176,5,0
342,36,43383,1,0
310,119,43590,2,0,B|290:166|196:176,1,90,8|0
207,178,43900,1,0
177,187,44004,2,0,B|116:203|103:265,1,90
15,353,44417,2,0,B|57:321|139:327,1,90,8|0
131,324,44728,1,0
162,326,44831,2,0,B|216:331|275:289,1,90
326,259,45245,6,0,B|345:231|345:231|344:202|308:148,1,90,8|0
306,153,45555,1,0
284,130,45659,1,0
256,114,45762,1,0
225,107,45866,1,8
134,107,46073,2,0,B|69:120|72:199,1,90,8|0
62,255,46486,5,4
58,277,46590,1,0
59,299,46693,1,0
66,320,46797,1,0
80,337,46900,1,0
100,348,47004,1,0
121,354,47107,1,0
143,356,47210,1,0
165,355,47314,5,0
186,349,47417,1,0
206,339,47521,1,0
220,321,47624,1,0
228,300,47728,1,0
237,279,47831,1,0
250,261,47935,1,0
267,246,48038,1,0
287,238,48142,5,0
309,234,48245,1,0
331,229,48348,1,0
350,218,48452,1,0
366,202,48555,1,0
376,182,48659,1,0
378,159,48762,1,0
372,137,48866,1,0
358,119,48969,5,0
339,105,49073,1,0
318,94,49176,1,0
295,90,49279,1,0
272,89,49383,1,0
249,92,49486,1,0
229,103,49590,1,0
213,119,49693,1,0
204,139,49797,6,0,B|167:209|215:289,1,135,6|0
204,268,50210,2,0,B|228:219|309:212,1,90,2|0
306,221,50521,1,2
319,249,50624,2,0,B|338:306|413:294,1,90,0|2
478,290,51038,1,0
489,200,51245,6,0,B|493:159|493:159|393:73,1,135,2|0
422,97,51659,2,0,B|406:127|406:127|319:168,1,90,2|2
273,187,52073,1,0
244,201,52176,1,0
216,216,52279,1,0
187,230,52383,2,0,B|154:250|154:250|143:335,2,90
187,230,52900,1,0
267,327,53107,5,4
289,327,53210,1,0
311,322,53314,1,0
330,311,53417,1,0
344,293,53521,1,0
352,271,53624,1,0
356,249,53728,1,0
353,226,53831,1,0
344,205,53935,5,0
338,183,54038,1,0
337,160,54142,1,0
341,137,54245,1,0
349,116,54348,1,0
365,100,54452,1,0
385,89,54555,1,0
407,86,54659,1,0
428,94,54762,5,0
445,108,54866,1,0
455,128,54969,1,0
457,150,55073,1,0
451,172,55176,1,0
437,190,55279,1,0
416,198,55383,1,0
393,199,55486,1,0
371,189,55590,5,0
354,174,55693,1,0
340,155,55797,1,0
325,137,55900,1,0
308,122,56004,1,0
289,109,56107,1,0
269,98,56210,1,0
247,91,56314,1,0
224,91,56417,6,0,B|156:85|90:169,1,135,6|2
107,148,56831,2,0,B|164:154|192:212,1,90,0|2
233,267,57245,1,0
248,294,57348,1,0
270,315,57452,1,2
297,330,57555,1,0
327,337,57659,2,0,B|387:348|425:301,1,90,2|2
464,242,58073,6,0,B|477:198|477:198|420:96,1,135,6|2
433,120,58486,2,0,B|416:153|416:153|336:180,1,90,0|2
281,201,58900,1,0
251,212,59004,1,0
221,223,59107,1,2
191,234,59210,1,0
161,245,59314,2,0,B|121:261|121:261|51:216,1,90,2|2
57,148,59728,6,0,B|51:115|51:115|76:57|143:53,1,135,6|2
127,55,60142,2,0,B|131:85|131:85|145:112|205:128,1,90,0|2
372,90,60555,2,0,B|368:60|368:60|354:33|294:17,2,90,0|2|2
361,179,61176,1,4
354,200,61279,1,0
341,218,61383,5,0
326,234,61486,1,0
306,245,61590,1,0
284,252,61693,1,0
261,255,61797,5,0
238,254,61900,1,0
216,248,62004,1,0
195,238,62107,1,0
173,230,62210,5,0
150,227,62314,1,0
129,235,62417,1,0
115,252,62521,1,0
108,273,62624,5,0
111,295,62728,1,0
122,314,62831,1,0
140,326,62935,1,0
161,332,63038,6,0,B|225:349|263:296,1,90,4|0
306,132,63452,2,0,B|242:115|204:168,1,90,8|0
152,207,63866,1,0
232,46,64073,1,0
278,219,64279,1,8
221,148,64486,6,0,B|189:126|189:126|109:110,1,90
32,278,64900,2,0,B|64:300|64:300|144:316,1,90,0|8
203,324,65314,1,0
233,330,65417,1,0
263,336,65521,1,0
294,330,65624,1,0
324,324,65728,2,0,B|362:306|362:306|404:248,1,90,8|8
442,193,66142,1,0
393,117,66348,5,0
393,117,66452,1,0
393,117,66555,2,0,B|372:109|372:109|335:109|304:156,1,90,0|8
267,218,66969,1,0
184,253,67176,2,0,B|124:256|111:178,1,90
206,32,67590,2,0,B|266:29|279:107,1,90,8|0
289,169,68004,5,0
298,199,68107,1,0
319,221,68210,1,0
344,239,68314,1,0
371,254,68417,2,0,B|381:280|381:280|385:312|339:337,1,90,8|0
267,293,68831,2,0,B|220:273|177:296,1,90,0|0
37,352,69245,2,0,B|89:330|105:260,1,90,8|0
119,200,69659,5,0
126,178,69762,1,0
137,158,69866,1,0
152,142,69969,1,0
171,130,70073,1,8
192,122,70176,1,0
214,121,70279,1,0
236,125,70383,1,0
255,135,70486,1,0
274,146,70590,1,0
295,154,70693,2,0,B|350:177|406:126,1,90,0|8
453,91,71107,6,0,B|485:134|456:202,1,90
430,260,71521,1,0
271,330,71728,1,8
358,180,71935,1,0
376,352,72142,1,0
260,224,72348,1,0
339,269,72555,6,0,B|313:322|244:315,1,90,8|0
140,167,72969,2,0,B|166:114|235:121,2,90,0|0|8
101,248,73590,1,0
155,319,73797,1,0
155,319,73900,1,0
155,319,74004,2,0,B|190:332|190:332|260:296,1,90,0|8
374,355,74417,6,0,B|320:344|323:276,1,90
330,200,74831,1,0
337,169,74935,1,0
336,137,75038,1,8
325,107,75142,1,0
307,80,75245,2,0,B|281:39|223:44,1,90
185,122,75659,1,8
73,187,75866,2,0,B|59:141|100:100,1,90,8|0
185,122,76279,6,0,B|217:86|273:101,1,90,4|0
405,238,76693,2,0,B|372:273|316:258,1,90,8|0
235,235,77107,1,0
373,349,77314,1,0
343,172,77521,1,8
322,259,77728,6,0,B|310:310|248:330,1,90
94,229,78142,2,0,B|106:178|168:158,1,90,0|8
239,140,78555,1,0
269,134,78659,1,0
300,136,78762,1,0
328,148,78866,1,0
351,169,78969,2,8,B|396:213|372:280,1,90
359,338,79383,1,0
269,332,79590,5,0
269,332,79693,1,0
269,332,79797,2,0,B|240:322|240:322|220:301|213:263,1,90,0|8
171,189,80210,1,0
83,165,80417,2,0,B|99:101|169:98,1,90
332,138,80831,2,0,B|316:202|246:205,1,90,8|0
189,232,81245,5,0
162,248,81348,1,0
145,274,81452,1,0
147,305,81555,1,0
161,332,81659,2,0,B|196:375|261:353,1,90,8|0
295,285,82073,2,0,B|314:232|394:230,1,90
495,314,82486,2,0,B|453:287|446:234,1,90,8|0
431,151,82900,5,0
422,120,83004,1,0
404,93,83107,1,0
377,76,83210,1,0
346,66,83314,1,8
314,66,83417,1,0
283,74,83521,2,0,B|236:100|169:86,1,90
163,88,83831,1,0
131,90,83935,2,0,B|72:91|33:152,1,90,0|8
20,212,84348,6,0,B|32:235|32:235|57:263|122:245,1,90
180,236,84762,1,0
311,123,84969,1,8
271,291,85176,1,0
204,132,85383,1,0
353,220,85590,1,0
264,200,85797,6,0,B|273:141|341:128,1,90,8|0
448,280,86210,2,0,B|438:338|370:351,2,90,0|0|8
458,190,86831,1,0
375,226,87038,1,0
375,226,87142,1,0
375,226,87245,2,0,B|332:203|343:144,1,90,0|8
445,47,87659,6,0,B|403:78|326:64,1,90
268,65,88073,1,0
236,65,88176,1,0
204,69,88279,1,8
175,82,88383,1,0
151,102,88486,2,0,B|104:133|98:193,1,90
167,235,88900,1,8
218,358,89107,2,0,B|161:354|126:304,1,90,8|0
167,235,89521,6,0,B|221:207|221:207|261:213,1,90
277,78,89935,2,0,B|304:132|304:132|298:172,1,90,8|0
434,189,90348,2,0,B|379:216|379:216|339:210,1,90
323,345,90762,2,0,B|295:290|295:290|301:250,1,90,8|0
319,173,91176,5,0
308,143,91279,1,0
292,115,91383,1,0
269,93,91486,1,0
239,81,91590,1,8
207,80,91693,1,0
176,86,91797,1,0
148,101,91900,1,0
124,121,92004,2,0,B|79:170|111:238,1,90,0|8
238,341,92417,2,0,B|283:292|251:224,1,90,8|0
175,233,92831,6,0,B|183:199|183:199|253:164,1,90
205,48,93245,2,0,B|238:56|238:56|273:126,1,90,8|0
389,79,93659,2,0,B|380:112|380:112|310:147,1,90
359,263,94073,2,0,B|325:254|325:254|290:184,1,90,8|0
273,118,94486,5,0
293,94,94590,1,0
320,79,94693,1,0
351,77,94797,1,0
380,87,94900,1,8
403,107,95004,1,0
420,133,95107,1,0
430,162,95210,1,0
433,193,95314,2,0,B|438:252|388:283,1,90,0|8
214,322,95728,2,0,B|209:263|259:232,1,90,8|0
245,241,96142,1,4
373,35,96555,5,0
106,79,96969,1,0
138,348,97383,1,0
405,304,97797,1,4
328,168,98624,6,0,B|300:108|212:108|184:168,2,180,4|0|0
256,222,99659,1,4
