osu file format v9

[General]
AudioFilename: kitto mou hatarakanai.mp3
AudioLeadIn: 0
PreviewTime: 63039
Countdown: 0
SampleSet: Normal
StackLeniency: 0.7
Mode: 0
LetterboxInBreaks: 0

[Editor]
DistanceSpacing: 1
BeatDivisor: 4
GridSize: 4

[Metadata]
Title:Kitto Mou Hatarakanai
Artist:IOSYS
Creator:mochi
Version:Hard
Source:Touhou
Tags:arm kaguya lunatic princess yukkuri imperishable night

[Difficulty]
HPDrainRate:5
CircleSize:4
OverallDifficulty:5
ApproachRate:7
SliderMultiplier:1.5
SliderTickRate:1

[Events]
//Background and Video events
0,0,"bg.jpg"
Video,0,"neet.avi"
//Break Periods
2,20203,24069
//Storyboard Layer 0 (Background)
//Storyboard Layer 1 (Fail)
//Storyboard Layer 2 (Pass)
//Storyboard Layer 3 (Foreground)
//Storyboard Sound Samples
//Background Colour Transformations
3,100,212,212,212

[TimingPoints]
142,413.793103448276,4,1,1,65,1,0
20004,-100,4,1,2,65,0,0
26211,-100,4,1,1,65,0,0
31590,-100,4,1,2,65,0,0
32832,-100,4,1,1,65,0,0
58073,-100,4,1,1,70,0,0
59728,-100,4,1,1,75,0,0
61177,-100,4,1,1,80,0,0
63038,-100,4,1,1,75,0,1
76228,-100,4,1,1,75,0,0
76279,-100,4,1,1,75,0,1
89521,-100,4,1,1,75,0,0
99452,-100,4,1,1,75,0,1
99504,-100,4,1,1,75,0,0

[Colours]
Combo1 : 242,154,96
Combo2 : 149,130,238
Combo3 : 251,162,164
Combo4 : 154,235,241

[HitObjects]
148,117,6762,2,0,B|132:65|72:61,2,75,4|0|8
75,138,7383,1,0
75,138,7486,2,0,B|99:210|187:188,1,112.5
234,174,8004,1,8
283,117,8210,1,0
283,117,8314,2,0,B|313:92|313:92|359:93|406:138,1,112.5
437,166,8831,5,8
423,239,9038,1,0
423,239,9141,2,0,B|400:288|400:288|326:304,1,112.5,0|8
269,317,9659,1,8
196,296,9866,1,0
156,232,10073,6,0,B|116:256|120:310,2,75,0|0|8
220,192,10693,1,0
220,192,10797,2,0,B|276:144|351:198,1,112.5
392,214,11314,1,8
462,188,11521,1,0
462,188,11624,2,0,B|480:160|480:160|485:113|424:60,1,112.5
380,110,12141,5,8
309,84,12348,1,0
309,84,12452,2,0,B|275:72|275:72|202:140,1,112.5,0|8
165,177,12969,1,8
133,244,13176,1,0
133,319,13383,6,0,B|79:320|60:261,2,75,4|0|8
207,312,14004,1,0
207,312,14107,2,0,B|228:285|228:285|240:246|196:184,1,112.5,0|0
164,153,14624,1,8
97,118,14831,1,0
97,118,14935,2,0,B|137:53|217:92,1,112.5
265,105,15452,5,8
302,170,15659,1,0
302,170,15762,2,0,B|317:206|354:216|354:216|349:289,1,112.5,0|8
344,331,16279,1,8
413,303,16486,1,0
454,240,16693,6,0,B|500:268|485:338,2,75,0|0|8
382,216,17314,1,0
382,216,17417,2,0,B|307:203|297:119,1,112.5
278,74,17935,1,8
215,32,18141,1,0
215,32,18245,2,0,B|180:31|180:31|143:48|118:114,1,112.5
95,154,18762,5,8
95,229,18969,2,0,B|95:256|95:256|140:301,1,75
187,337,19383,1,8
257,313,19590,2,0,B|294:286|294:286|300:220|243:178,1,150,8|4
107,172,24969,5,4
256,72,25383,1,4
405,172,25797,1,4
256,192,26210,5,8
256,192,26417,2,0,B|252:245|192:276,1,75,0|4
147,271,26831,2,0,B|95:268|79:206,1,75,0|8
64,159,27245,1,0
101,94,27452,2,0,B|132:72|132:72|200:59|248:120,1,150,0|8
283,161,28073,5,0
351,190,28279,2,0,B|380:203|380:203|436:170,1,75
408,106,28693,2,0,B|379:93|379:93|323:126,1,75,8|0
283,161,29107,2,0,B|200:214,1,75
163,251,29521,6,0,B|150:290|150:290|177:334|262:346,1,150,8|4
317,349,30141,1,0
382,312,30348,2,0,B|452:240,1,75,8|0
366,224,30762,2,0,B|296:152,1,75,4|0
381,136,31176,2,0,B|451:64,1,75,8|0
484,27,31590,5,4
474,215,32004,1,12
316,112,32417,1,4
305,301,32831,1,8
157,326,33245,6,0,B|108:312|96:248,1,75,4|0
173,247,33659,2,0,B|159:198|95:186,1,75,8|0
123,194,33969,2,0,B|102:171|102:171|92:124|125:75,1,112.5
168,40,34486,2,0,B|254:40,1,75,8|0
243,40,34797,2,0,B|256:70|256:70|340:116,1,112.5
393,141,35314,6,0,B|417:150|417:150|468:124,1,75,8|0
460,127,35624,2,0,B|508:180|461:264,1,112.5,0|8
438,298,36142,1,8
373,336,36348,1,0
299,350,36555,6,0,B|289:298|345:260,1,75
363,219,36969,2,0,B|373:167|317:129,1,75,8|0
342,150,37279,2,0,B|273:182|219:104,1,112.5
206,61,37797,2,0,B|181:21|120:28,1,75,8|0
142,27,38107,2,0,B|86:76|86:76|80:136,1,112.5
78,188,38624,6,0,B|136:264,1,75,8|0
123,247,38935,2,0,B|104:275|104:275|101:334|171:340,1,112.5,0|8
219,341,39452,1,8
290,316,39659,1,0
326,250,39866,6,0,B|345:227|345:227|412:212,1,75,4|0
396,292,40279,2,0,B|440:282|440:282|459:259,1,75,8|0
459,259,40590,2,0,B|476:230|476:230|449:138,1,112.5
428,83,41107,2,0,B|419:66|419:66|340:60,1,75,8|0
363,61,41417,2,0,B|346:127|270:137,1,112.5
210,134,41935,6,0,B|163:127|148:76,1,75,8|0
153,90,42245,2,0,B|104:130|123:226,1,112.5,0|8
127,266,42762,1,8
166,330,42969,1,0
239,346,43176,6,0,B|287:257,1,75
207,246,43590,2,0,B|255:157,1,75,8|0
243,180,43900,2,0,B|199:159|199:159|173:91,1,112.5
239,59,44417,2,0,B|256:103|256:103|311:129,1,75,8|0
281,114,44728,2,0,B|322:104|322:104|408:176,1,112.5
428,202,45245,6,0,B|444:228|444:228|421:295,1,75,8|0
429,270,45555,2,0,B|363:267|300:320,1,112.5,0|8
261,344,46073,1,8
187,328,46279,1,0
129,280,46486,5,4
197,97,46900,1,0
25,189,47314,1,0
209,250,47728,1,0
278,67,48142,5,0
470,35,48555,1,0
312,150,48969,1,0
467,267,49383,1,0
278,314,49797,6,0,B|204:293|231:204,1,112.5,6|0
225,228,50210,2,0,B|159:251|108:173,2,112.5,2|2|2
213,77,51245,6,0,B|258:71|258:71|316:133,1,112.5,2|0
303,120,51659,2,0,B|342:113|342:113|397:142,1,75,2|2
443,159,52073,2,0,B|420:225,3,37.5
405,264,52590,2,0,B|386:289|386:289|321:314,1,75
345,304,52900,1,0
274,329,53107,5,4
117,213,53521,1,0
194,32,53935,1,0
296,197,54348,1,0
473,277,54762,6,0,B|461:224|461:224|373:158,1,150
273,327,55590,1,0
187,151,56004,1,0
359,241,56417,2,0,B|410:235|410:235|445:173,2,112.5,6|2|2
199,157,57452,5,2
246,97,57659,1,2
188,50,57866,1,0
141,109,58073,2,0,B|72:120|72:120|25:82,2,112.5,6|2|2
315,157,59107,5,2
373,206,59314,1,2
422,150,59521,1,0
365,101,59728,2,0,B|386:35|477:38,2,112.5,6|2|2
293,267,60762,6,0,B|274:308|200:308,1,75,2|2
157,317,61176,2,0,B|116:320|116:320|64:294|56:220,1,150,6|0
44,159,61797,1,0
78,92,62004,1,0
78,92,62107,1,0
78,92,62210,2,0,B|110:78|110:78|181:100,1,75
221,108,62624,1,0
245,116,62728,1,0
270,124,62831,1,0
294,132,62935,1,0
318,140,63038,6,0,B|335:153|335:153|357:232,1,75,4|0
317,349,63452,2,0,B|319:326|319:326|377:268,1,75,8|0
498,244,63866,2,0,B|477:252|477:252|398:232,1,75
349,204,64279,5,8
324,195,64383,1,0
299,186,64486,2,0,B|266:173|266:173|204:200,1,75
216,114,64900,2,0,B|181:121|181:121|143:177,1,75,0|8
109,97,65314,2,0,B|83:121|83:121|65:188|132:252,1,150,0|8
160,284,65935,5,8
228,315,66142,1,0
228,315,66245,1,0
228,315,66348,2,0,B|269:338|326:313,1,75
373,302,66762,2,0,B|360:251|300:242,1,75,8|0
254,222,67176,6,0,B|169:201|173:95,1,150,0|8
179,35,67797,1,0
240,77,68004,2,0,B|301:128|392:107,1,150,0|8
455,96,68624,1,0
430,166,68831,2,0,B|404:245|318:268,1,150,0|8
252,278,69452,1,0
213,213,69659,5,0
213,213,69762,1,0
213,213,69866,2,0,B|172:232|176:298,1,75,0|8
171,349,70279,2,0,B|118:349|103:291,1,75
86,240,70693,1,0
86,240,70797,1,0
86,240,70900,1,8
91,165,71107,6,0,B|98:127|98:127|135:91|233:72,1,150
271,64,71728,1,8
316,123,71935,1,0
391,123,72142,1,0
426,189,72348,1,0
395,257,72555,1,8
460,293,72762,1,0
396,333,72969,6,0,B|344:336|316:274,1,75
291,237,73383,1,8
275,163,73590,2,0,B|243:79|134:76,1,150
85,81,74210,1,8
46,145,74417,6,0,B|33:173|33:173|53:244|141:246,1,150
193,257,75038,1,8
193,257,75142,1,0
193,257,75245,2,0,B|225:245|225:245|252:193,1,75
175,177,75659,2,0,B|193:140|193:140|225:128,1,75,8|8
297,104,76073,1,0
369,85,76279,6,0,B|384:135|332:177,1,75,4|0
199,201,76693,2,0,B|234:163|297:187,1,75,8|0
385,289,77107,2,0,B|334:276|323:210,1,75
305,170,77521,5,8
296,145,77624,1,0
283,122,77728,2,0,B|260:74|194:69,1,75
207,147,78142,2,0,B|161:119|103:151,1,75,0|8
154,210,78555,2,0,B|100:211|68:268|68:268|68:301|108:329,1,150,0|8
140,355,79176,5,8
201,311,79383,1,0
201,311,79486,1,0
201,311,79590,2,0,B|234:281|280:304,1,75
337,334,80004,2,0,B|358:297|331:252,1,75,8|0
288,203,80417,6,0,B|251:172|251:172|124:164,1,150,0|8
74,163,81038,1,0
114,99,81245,2,0,B|140:64|140:64|249:52,1,150,0|8
320,43,81866,1,0
381,85,82073,2,0,B|411:114|411:114|363:231,1,150,0|8
336,281,82693,1,0
267,312,82900,5,0
267,312,83004,1,0
267,312,83107,2,0,B|234:318|234:318|178:277,1,75,0|8
155,353,83521,2,0,B|126:335|126:335|110:268,1,75
105,221,83935,1,0
105,221,84038,1,0
105,221,84142,1,8
53,166,84348,6,0,B|27:137|27:137|54:66|136:66,1,150
182,62,84969,1,8
237,113,85176,1,0
215,184,85383,1,0
287,200,85590,1,0
343,151,85797,1,8
410,184,86004,1,0
469,230,86210,6,0,B|439:272|380:256,1,75
329,254,86624,1,8
289,190,86831,2,0,B|272:157|272:157|206:120|148:193,1,150
117,225,87452,1,8
135,297,87659,6,0,B|184:372|278:333,1,150
332,302,88279,1,8
332,302,88383,1,0
332,302,88486,2,0,B|310:257|254:260,2,75,0|0|8
381,358,89107,2,0,B|414:329|403:275,1,75,8|0
390,216,89521,5,0
294,62,89935,1,8
140,158,90348,1,0
235,311,90762,1,8
390,216,91176,6,0,B|420:116,1,75
351,98,91590,2,0,B|321:198,1,75,8|0
254,173,92004,2,0,B|284:73,2,75,0|8|8
209,347,92831,5,0
86,214,93245,1,8
217,92,93659,1,0
340,224,94073,1,8
209,347,94486,6,0,B|111:310,1,75
138,243,94900,2,0,B|235:279,1,75,8|0
256,211,95314,2,0,B|158:174,2,75,0|8|8
256,211,96142,1,4
433,234,96555,6,0,B|444:169|444:169|381:94,1,150
122,104,97383,2,0,B|68:169|68:169|79:234,1,150,0|4
256,205,98624,6,0,B|256:181|256:181|248:157|248:157|264:113|264:113|256:53,2,150,4|0|0
256,280,99659,1,4
