osu file format v7

[General]
AudioFilename: Kanbu de Tomatte Sugu Tokeru (Overdrive).ogg
AudioLeadIn: 1996
PreviewTime: 19595
Countdown: 0
SampleSet: Normal
StackLeniency: 0.7
Mode: 1
LetterboxInBreaks: 0

[Editor]
Bookmarks: 57995,105995
DistanceSpacing: 1
BeatDivisor: 4
GridSize: 8

[Metadata]
Title:Kanbu de Tomatte Sugu Tokeru ~ Kyouki no Udongein
Artist:IOSYS
Creator:ouranhshc
Version:Taiko Oni
Source:Touhou
Tags:RandomJibberish Pokie Natteke desu

[Difficulty]
HPDrainRate:5
CircleSize:5
OverallDifficulty:5
SliderMultiplier:1.4
SliderTickRate:1

[Events]
//Background and Video events
Video,-192,"Kanbu de Tomatte Sugu Tokeru (Overdrive).avi"
0,0,"Kanbu de Tomatte Sugu Tokeru (Overdrive)-bg.jpg"
//Break Periods
2,48595,56795
2,96595,104795
//Storyboard Layer 0 (Background)
//Storyboard Layer 1 (Fail)
//Storyboard Layer 2 (Pass)
//Storyboard Layer 3 (Foreground)
//Storyboard Sound Samples
//Background Colour Transformations
3,100,163,162,255

[TimingPoints]
9995,300,4,1,0,100,1,0

[HitObjects]
256,192,395,1,0
256,192,695,1,0
256,192,845,1,0
256,192,995,1,2
256,192,1145,1,2
256,192,1445,1,0
256,192,1745,1,0
256,192,1895,1,0
256,192,2045,1,0
256,192,2195,1,2
256,192,2345,1,2
256,192,2795,1,0
256,192,3095,1,0
256,192,3245,1,0
256,192,3395,1,2
256,192,3545,1,2
256,192,3845,1,0
256,192,4145,1,0
256,192,4295,1,0
256,192,4445,1,0
256,192,4595,1,0
256,192,4670,1,0
256,192,4745,1,0
256,192,4820,1,0
256,192,4895,1,2
256,192,5195,1,0
256,192,5495,1,0
256,192,5645,1,0
256,192,5795,1,2
256,192,5945,1,2
256,192,6245,1,0
256,192,6545,1,0
256,192,6695,1,0
256,192,6845,1,0
256,192,6995,1,2
256,192,7145,1,2
256,192,7595,1,0
256,192,7895,1,0
256,192,8045,1,0
256,192,8195,1,2
256,192,8345,1,2
256,192,8645,1,0
256,192,8945,1,0
256,192,9095,1,0
256,192,9245,1,0
256,192,9395,1,0
256,192,9470,1,2
256,192,9545,1,0
256,192,9695,1,2
256,192,9995,1,0
256,192,10145,1,2
256,192,10295,1,0
256,192,10445,1,2
256,192,10595,1,0
256,192,10745,1,2
256,192,10895,1,0
256,192,11045,1,2
256,192,11195,1,0
256,192,11345,1,2
256,192,11495,1,0
256,192,11645,1,2
256,192,11795,1,0
256,192,11945,1,2
256,192,12095,1,0
256,192,12245,1,2
256,192,12395,1,0
256,192,12545,1,2
256,192,12695,1,0
256,192,12845,1,2
256,192,12995,1,0
256,192,13145,1,2
256,192,13295,1,0
256,192,13445,1,2
256,192,13595,1,0
256,192,13745,1,2
256,192,13895,1,0
256,192,14045,1,2
256,192,14195,1,0
256,192,14345,1,0
256,192,14495,1,2
256,192,14645,1,0
256,192,14795,1,2
256,192,14870,1,0
256,192,14945,1,0
256,192,15020,1,0
256,192,15095,1,2
256,192,15170,1,0
256,192,15245,1,0
256,192,15320,1,0
256,192,15395,1,2
256,192,15470,1,0
256,192,15545,1,0
256,192,15620,1,0
256,192,15695,1,2
256,192,15770,1,0
256,192,15845,1,0
256,192,15920,1,0
256,192,15995,1,2
256,192,16070,1,0
256,192,16145,1,0
256,192,16220,1,0
256,192,16295,1,2
256,192,16370,1,0
256,192,16445,1,0
256,192,16520,1,0
256,192,16595,1,2
256,192,16745,1,0
256,192,16895,1,0
256,192,17045,1,2
256,192,17195,2,0,B|256:40|32:48,2,280
256,192,18545,1,2
256,192,18695,1,2
256,192,18845,1,2
256,192,18995,1,2
256,192,19070,1,2
256,192,19145,1,2
256,192,19295,1,2
256,192,19445,1,2
256,192,19595,1,0
256,192,19745,1,2
256,192,19895,1,0
256,192,20045,1,2
256,192,20195,1,0
256,192,20270,1,0
256,192,20345,1,2
256,192,20495,1,0
256,192,20570,1,0
256,192,20645,1,2
256,192,20795,1,0
256,192,20870,1,0
256,192,20945,1,0
256,192,21020,1,0
256,192,21095,1,2
256,192,21245,1,0
256,192,21395,1,0
256,192,21470,1,0
256,192,21545,1,0
256,192,21620,1,0
256,192,21695,1,2
256,192,21845,1,0
256,192,21995,1,0
256,192,22070,1,2
256,192,22145,1,0
256,192,22220,1,2
256,192,22295,1,0
256,192,22370,1,2
256,192,22445,1,0
256,192,22520,1,2
256,192,22595,1,0
256,192,22670,1,2
256,192,22745,1,0
256,192,22820,1,2
256,192,22895,1,0
256,192,22970,1,2
256,192,23045,1,0
256,192,23120,1,2
256,192,23195,1,0
256,192,23270,1,0
256,192,23345,1,0
256,192,23495,1,2
256,192,23645,1,2
256,192,23795,1,2
256,192,23870,1,0
256,192,23945,1,2
256,192,24095,1,2
256,192,24245,1,0
256,192,24395,1,2
256,192,24545,1,0
256,192,24695,1,2
256,192,24845,1,0
256,192,24995,1,2
256,192,25070,1,0
256,192,25145,1,0
256,192,25295,1,2
256,192,25370,1,0
256,192,25445,1,0
256,192,25595,1,2
256,192,25670,1,0
256,192,25745,1,0
256,192,25820,1,0
256,192,25895,1,2
256,192,26045,1,0
256,192,26195,1,2
256,192,26270,1,0
256,192,26345,1,0
256,192,26420,1,0
256,192,26495,1,2
256,192,26645,1,0
256,192,26795,1,0
256,192,26870,1,0
256,192,26945,1,2
256,192,27020,1,0
256,192,27095,1,0
256,192,27170,1,2
256,192,27245,1,0
256,192,27320,1,0
256,192,27395,1,2
256,192,27470,1,0
256,192,27545,1,0
256,192,27620,1,2
256,192,27695,1,0
256,192,27770,1,0
256,192,27845,1,2
256,192,27995,2,0,B|256:24,1,140
256,192,28595,2,0,B|256:344,1,140
256,192,29195,1,0
256,192,29345,1,2
256,192,29495,1,0
256,192,29645,1,2
256,192,29795,1,0
256,192,29870,1,0
256,192,29945,1,2
256,192,30095,1,0
256,192,30170,1,0
256,192,30245,1,2
256,192,30395,1,0
256,192,30470,1,2
256,192,30545,1,2
256,192,30620,1,2
256,192,30695,1,0
256,192,30845,1,2
256,192,30995,1,0
256,192,31070,1,2
256,192,31145,1,2
256,192,31220,1,2
256,192,31295,1,0
256,192,31445,1,2
256,192,31595,1,2
256,192,31670,1,0
256,192,31745,1,0
256,192,31820,1,2
256,192,31895,1,0
256,192,31970,1,0
256,192,32045,1,2
256,192,32120,1,0
256,192,32195,1,2
256,192,32270,1,2
256,192,32345,1,2
256,192,32420,1,0
256,192,32495,1,0
256,192,32570,1,2
256,192,32645,1,2
256,192,32795,2,0,B|160:296,1,140
256,192,33395,2,0,B|352:304,1,140
256,192,33995,1,2
256,192,34145,1,0
256,192,34295,1,2
256,192,34370,1,2
256,192,34445,1,2
256,192,34595,1,2
256,192,34745,1,0
256,192,34895,1,2
256,192,34970,1,2
256,192,35045,1,2
256,192,35195,1,2
256,192,35270,1,0
256,192,35345,1,2
256,192,35420,1,0
256,192,35495,1,2
256,192,35570,1,2
256,192,35645,1,2
256,192,35795,1,2
256,192,35945,1,2
256,192,36095,1,2
256,192,36170,1,2
256,192,36245,1,2
256,192,36320,1,2
256,192,36395,1,0
256,192,36470,1,0
256,192,36545,1,0
256,192,36620,1,0
256,192,36695,1,0
256,192,36770,1,0
256,192,36845,1,0
256,192,36920,1,0
256,192,36995,1,0
256,192,37070,1,0
256,192,37145,1,0
256,192,37220,1,0
256,192,37295,1,0
256,192,37370,1,0
256,192,37445,1,0
256,192,37520,1,0
256,192,37595,1,0
256,192,37670,1,2
256,192,37745,1,2
256,192,37895,1,0
256,192,37970,1,2
256,192,38045,1,2
256,192,38195,1,4
256,192,38345,1,6
256,192,38495,1,4
256,192,38645,1,6
256,192,38795,1,2
256,192,38870,1,0
256,192,38945,1,0
256,192,39095,1,2
256,192,39170,1,0
256,192,39245,1,0
256,192,39395,1,2
256,192,39470,1,0
256,192,39545,1,0
256,192,39695,1,2
256,192,39770,1,0
256,192,39845,1,0
256,192,39995,1,2
256,192,40070,1,0
256,192,40145,1,0
256,192,40220,1,0
256,192,40295,1,2
256,192,40445,1,0
256,192,40595,1,6
256,192,40820,1,6
256,192,41045,1,4
256,192,41195,1,0
256,192,41270,1,2
256,192,41345,1,2
256,192,41495,1,0
256,192,41570,1,2
256,192,41645,1,2
256,192,41795,1,0
256,192,41870,1,2
256,192,41945,1,2
256,192,42095,1,0
256,192,42170,1,2
256,192,42245,1,2
256,192,42395,1,0
256,192,42470,1,2
256,192,42545,1,2
256,192,42620,1,2
256,192,42695,1,0
256,192,42845,1,2
256,192,42995,2,0,B|392:120,1,140
256,192,43595,1,4
256,192,43895,1,0
256,192,44045,1,2
256,192,44195,1,0
256,192,44345,1,2
256,192,44495,1,2
256,192,44645,1,2
256,192,44795,1,0
256,192,44945,1,0
256,192,45095,1,2
256,192,45245,1,2
256,192,45395,1,0
256,192,45545,1,0
256,192,45695,1,2
256,192,45845,1,2
256,192,45995,1,0
256,192,46070,1,0
256,192,46145,1,0
256,192,46220,1,0
256,192,46295,1,2
256,192,46445,1,2
256,192,46595,1,0
256,192,46670,1,0
256,192,46745,1,0
256,192,46820,1,0
256,192,46895,1,2
256,192,47045,1,2
256,192,47195,1,2
256,192,47270,1,2
256,192,47345,1,2
256,192,47420,1,2
256,192,47495,1,0
256,192,47645,1,2
256,192,47795,1,2
256,192,47870,1,2
256,192,47945,1,2
256,192,48020,1,2
256,192,48095,1,0
256,192,48245,1,2
256,192,48395,1,4
256,184,57995,5,4
256,184,58295,1,4
256,184,58745,1,2
256,184,58895,1,2
256,184,59195,1,4
256,184,59495,1,4
256,184,59945,1,2
256,184,60095,1,2
256,184,60395,1,4
256,184,60695,1,4
256,184,61145,1,2
256,184,61295,1,2
256,184,61595,1,4
256,184,61895,1,4
256,184,62345,1,2
256,184,62495,1,2
256,184,62795,1,4
256,184,63095,1,6
256,184,63395,1,4
256,184,63695,1,6
256,184,63995,1,0
256,184,64145,1,2
256,184,64295,1,0
256,184,64445,1,2
256,184,64595,1,0
256,184,64745,1,2
256,184,64895,1,0
256,184,65045,1,2
256,184,65195,1,0
256,184,65270,1,0
256,184,65345,1,0
256,184,65420,1,0
256,184,65495,1,0
256,184,65570,1,0
256,184,65645,1,0
256,184,65720,1,0
256,184,65795,1,2
256,184,65870,1,2
256,184,65945,1,2
256,184,66020,1,2
256,184,66095,1,2
256,184,66170,1,2
256,184,66245,1,2
256,184,66320,1,2
256,184,66395,1,2
256,184,66845,1,0
256,184,66920,1,0
256,184,66995,1,0
256,184,67145,1,0
256,184,67295,1,0
256,184,67445,1,0
256,184,67595,1,0
256,184,67895,1,2
256,184,68195,1,0
256,184,68345,1,0
256,184,68495,1,2
256,184,68795,1,0
256,184,68945,1,0
256,184,69020,1,0
256,184,69095,1,2
256,184,69245,1,0
256,184,69395,1,0
256,184,69470,1,0
256,184,69545,1,2
256,184,69695,1,0
256,184,69845,1,2
256,184,69995,1,0
256,184,70295,1,2
256,184,70595,1,0
256,184,70745,1,2
256,184,70820,1,0
256,184,70895,1,0
256,184,71045,1,0
256,184,71195,1,0
256,184,71270,1,0
256,184,71345,1,2
256,184,71420,1,0
256,184,71495,1,0
256,184,71645,1,2
256,184,71795,1,0
256,184,71945,1,0
256,184,72095,1,2
256,184,72395,1,0
256,184,72695,1,2
256,184,72995,1,0
256,184,73145,1,0
256,184,73220,1,0
256,184,73295,1,2
256,184,73445,1,0
256,184,73595,1,0
256,184,73670,1,0
256,184,73745,1,2
256,184,73820,1,0
256,184,73895,1,0
256,184,74045,1,0
256,184,74195,1,2
256,184,74345,1,0
256,184,74495,1,0
256,184,74570,1,0
256,184,74645,1,2
256,184,74795,1,2
256,184,74870,1,0
256,184,74945,1,2
256,184,75020,1,0
256,184,75095,1,2
256,184,75245,1,0
256,184,75395,1,0
256,184,75470,1,2
256,184,75545,1,0
256,184,75620,1,2
256,184,75695,1,0
256,184,75845,1,2
256,184,75995,1,0
256,184,76145,1,0
256,184,76295,1,0
256,184,76445,1,0
256,184,76595,1,0
256,184,76670,1,0
256,184,76745,1,0
256,184,76820,1,0
256,184,76895,1,0
256,184,76970,1,0
256,184,77045,1,0
256,184,77120,1,0
256,184,77195,1,0
256,184,77345,1,2
256,184,77495,1,0
256,184,77570,1,0
256,184,77645,1,2
256,184,77795,1,0
256,184,77870,1,0
256,184,77945,1,2
256,184,78095,1,0
256,184,78170,1,0
256,184,78245,1,2
256,184,78320,1,0
256,184,78395,1,0
256,184,78545,1,2
256,184,78695,1,0
256,184,78845,1,2
256,184,78995,1,0
256,184,79145,1,6
256,184,79295,1,6
256,184,79445,1,4
256,184,79745,1,0
256,184,79820,1,0
256,184,79895,1,2
256,184,80045,1,0
256,184,80195,1,0
256,184,80270,1,0
256,184,80345,1,0
256,184,80420,1,0
256,184,80495,1,2
256,184,80645,1,0
256,184,80795,1,0
256,184,80870,1,2
256,184,80945,1,2
256,184,81020,1,2
256,184,81095,1,0
256,184,81245,1,2
256,184,81395,1,4
256,184,81545,1,4
256,184,81695,1,6
256,184,81845,1,6
256,184,81995,1,0
256,184,82145,1,2
256,184,82295,1,0
256,184,82445,1,2
256,184,82595,1,0
256,184,82670,1,2
256,184,82745,1,2
256,184,82895,1,0
256,184,82970,1,2
256,184,83045,1,2
256,184,83195,1,0
256,184,83270,1,2
256,184,83345,1,2
256,184,83420,1,0
256,184,83495,1,2
256,184,83570,1,0
256,184,83645,1,0
256,184,83720,1,2
256,184,83795,1,2
256,184,83945,1,2
256,184,84095,1,0
256,184,84245,1,2
256,184,84395,1,0
256,184,84545,1,2
256,184,84695,1,2
256,184,84845,1,2
256,184,84920,1,2
256,184,84995,1,0
256,184,85145,1,0
256,184,85220,1,0
256,184,85295,1,2
256,184,85445,1,2
256,184,85595,1,0
256,184,85670,1,0
256,184,85820,1,0
256,184,85895,1,2
256,184,86045,1,0
256,184,86195,1,0
256,184,86270,1,0
256,184,86345,1,0
256,184,86420,1,0
256,184,86495,1,0
256,184,86645,1,2
256,184,86795,1,0
256,184,86945,1,2
256,184,87095,1,0
256,184,87245,1,2
256,184,87395,1,0
256,184,87545,1,2
256,184,87695,1,0
256,184,87845,1,2
256,184,87995,1,0
256,184,88070,1,2
256,184,88145,1,2
256,184,88220,1,2
256,184,88295,1,0
256,184,88370,1,2
256,184,88445,1,2
256,184,88520,1,2
256,184,88595,1,0
256,184,88745,1,6
256,184,88895,1,6
256,184,89045,1,6
256,184,89195,1,0
256,184,89270,1,2
256,184,89345,1,0
256,184,89495,1,2
256,184,89570,1,0
256,184,89645,1,2
256,184,89795,1,0
256,184,89870,1,0
256,184,89945,1,2
256,184,90095,1,2
256,184,90170,1,2
256,184,90245,1,0
256,184,90395,1,0
256,184,90470,1,0
256,184,90545,1,0
256,184,90620,1,0
256,184,90695,1,0
256,184,90845,1,0
256,184,90995,1,2
256,184,91070,1,2
256,184,91145,1,2
256,184,91220,1,2
256,184,91295,1,2
256,184,91445,1,2
256,184,91595,1,0
256,184,91670,1,0
256,184,91820,1,0
256,184,91895,1,2
256,184,92045,1,2
256,184,92195,1,0
256,184,92270,1,0
256,184,92420,1,0
256,184,92495,1,2
256,184,92645,1,2
256,184,92795,1,0
256,184,92870,1,0
256,184,93020,1,0
256,184,93095,1,2
256,184,93245,1,2
256,184,93395,1,0
256,184,93470,1,0
256,184,93620,1,0
256,184,93695,1,2
256,184,93845,1,2
256,184,93995,1,2
256,184,94145,1,2
256,184,94295,1,2
256,184,94445,1,2
256,184,94520,1,0
256,184,94595,1,0
256,184,94745,1,2
256,184,94895,1,2
256,184,95045,1,0
256,184,95120,1,0
256,184,95195,1,0
256,184,95345,1,2
256,184,95420,1,0
256,184,95495,1,0
256,184,95570,1,0
256,184,95645,1,2
256,184,95795,1,4
256,184,96020,1,4
256,184,96245,1,4
256,184,96395,1,4
256,192,105995,5,4
256,192,106295,1,2
256,192,106445,1,2
256,192,106595,1,2
256,192,106745,1,2
256,192,107045,1,4
256,192,107345,1,2
256,192,107495,1,2
256,192,107645,1,2
256,192,107795,1,2
256,192,107945,1,2
256,192,108395,1,4
256,192,108695,1,2
256,192,108845,1,2
256,192,108995,1,2
256,192,109145,1,2
256,192,109445,1,4
256,192,109745,1,2
256,192,109895,1,2
256,192,110045,1,2
256,192,110195,1,2
256,192,110270,1,2
256,192,110345,1,2
256,192,110420,1,2
256,192,110495,1,2
256,192,110645,1,2
256,192,110795,1,4
256,192,111095,1,2
256,192,111245,1,2
256,192,111395,1,2
256,192,111545,1,2
256,192,111845,1,4
256,192,112145,1,2
256,192,112295,1,2
256,192,112445,1,2
256,192,112595,1,2
256,192,112745,1,2
256,192,113195,1,0
256,192,113345,1,2
256,192,113495,1,0
256,192,113645,1,2
256,192,113795,1,4
256,192,114020,1,4
256,192,114245,1,4
256,192,114395,1,0
256,192,114545,1,2
256,192,114695,1,0
256,192,114770,1,0
256,192,114845,1,2
256,192,114995,1,0
256,192,115070,1,2
256,192,115145,1,0
256,192,115295,1,6
256,192,115445,1,6
256,192,115595,1,0
256,192,115670,1,2
256,192,115745,1,0
256,192,115820,1,2
256,192,115895,1,0
256,192,116045,1,2
256,192,116195,1,0
256,192,116270,1,0
256,192,116345,1,0
256,192,116495,1,2
256,192,116645,1,0
256,192,116795,1,0
256,192,116870,1,0
256,192,116945,1,0
256,192,117095,1,2
256,192,117245,1,0
256,192,117395,1,0
256,192,117545,1,6
256,192,117695,1,6
256,192,117845,1,6
256,192,117995,1,0
256,192,118070,1,2
256,192,118145,1,0
256,192,118220,1,2
256,192,118295,1,0
256,192,118445,1,2
256,192,118595,1,0
256,192,118745,1,2
256,192,118895,1,0
256,192,118970,1,0
256,192,119045,1,0
256,192,119195,1,2
256,192,119345,1,0
256,192,119495,1,0
256,192,119645,1,2
256,192,119720,1,2
256,192,119795,1,0
256,192,119945,1,0
256,192,120020,1,0
256,192,120095,1,2
256,192,120245,1,2
256,192,120395,1,0
256,192,120470,1,0
256,192,120545,1,2
256,192,120620,1,0
256,192,120695,1,0
256,192,120845,1,0
256,192,120920,1,0
256,192,120995,1,2
256,192,121145,1,0
256,192,121295,1,0
256,192,121370,1,2
256,192,121445,1,2
256,192,121595,1,0
256,192,121745,1,2
256,192,121895,1,0
256,192,122045,1,0
256,192,122120,1,2
256,192,122195,1,2
256,192,122345,1,0
256,192,122495,1,2
256,192,122645,1,2
256,192,122795,1,0
256,192,122870,1,0
256,192,122945,1,0
256,192,123020,1,0
256,192,123095,1,2
256,192,123170,1,2
256,192,123245,1,2
256,192,123320,1,2
256,192,123395,1,2
256,192,123545,1,0
256,192,123695,1,2
256,192,123845,1,2
256,192,123995,1,0
256,192,124070,1,0
256,192,124145,1,0
256,192,124220,1,0
256,192,124295,1,0
256,192,124370,1,0
256,192,124445,1,0
256,192,124520,1,0
256,192,124595,1,2
256,192,124670,1,2
256,192,124745,1,2
256,192,124820,1,2
256,192,124895,1,2
256,192,125045,1,2
256,192,125195,1,4
