osu file format v7

[General]
AudioFilename: Kanbu de Tomatte Sugu Tokeru (Overdrive).ogg
AudioLeadIn: 1996
PreviewTime: 19595
Countdown: 0
SampleSet: Normal
StackLeniency: 0.7
Mode: 0
LetterboxInBreaks: 1

[Editor]
DistanceSpacing: 1
BeatDivisor: 4
GridSize: 8

[Metadata]
Title:Kanbu de Tomatte Sugu Tokeru ~ Kyouki no Udongein
Artist:IOSYS
Creator:ouranhshc
Version:Normal
Source:Touhou
Tags:RandomJibberish Pokie Natteke desu

[Difficulty]
HPDrainRate:4
CircleSize:3
OverallDifficulty:4
SliderMultiplier:1.2
SliderTickRate:2

[Events]
//Background and Video events
Video,-192,"Kanbu de Tomatte Sugu Tokeru (Overdrive).avi"
0,0,"Kanbu de Tomatte Sugu Tokeru (Overdrive)-bg.jpg"
//Break Periods
2,48595,56675
2,96594,104675
//Storyboard Layer 0 (Background)
//Storyboard Layer 1 (Fail)
//Storyboard Layer 2 (Pass)
//Storyboard Layer 3 (Foreground)
//Storyboard Sound Samples
//Background Colour Transformations
3,100,163,162,255

[TimingPoints]
9995,300,4,1,0,70,1,0
17120,-100,4,1,0,40,0,0
17345,-100,4,1,0,50,0,0
17645,-100,4,1,0,61,0,0
17945,-100,4,1,0,70,0,0
19595,-100,4,1,0,100,0,0
23570,-100,4,1,0,70,0,0
24170,-100,4,1,0,100,0,0
28370,-100,4,1,0,70,0,0
28970,-100,4,1,0,100,0,0
38720,-100,4,1,0,60,0,0
59045,-100,4,1,0,70,0,0
60245,-100,4,1,0,80,0,0
61445,-100,4,1,0,90,0,0
62645,-100,4,1,0,60,0,0
63845,-100,4,1,0,75,0,0
65120,-100,4,1,0,90,0,0
67520,-100,4,1,0,70,0,0
77195,-100,4,1,0,100,0,0
105695,-100,4,1,0,70,0,0
115445,-100,4,1,0,85,0,0
122570,-100,4,1,0,100,0,0

[HitObjects]
128,64,9995,2,0,B|72:120|128:184,1,120,4|0
224,120,10595,2,0,B|296:120,3,60
344,120,11195,2,0,B|408:144|400:248,1,120
400,336,11795,1,0
128,320,12395,6,0,B|72:264|128:200,1,120,4|0
224,264,12995,2,0,B|296:264,3,60
344,264,13595,2,0,B|408:240|400:136,1,120
400,48,14195,1,0
256,192,14795,12,2,17195
256,192,17495,5,2
128,192,17795,1,2
192,296,18095,1,2
320,296,18395,6,0,B|360:352,3,60
416,344,18995,2,0,B|448:344,6,30
416,288,19595,5,4
344,192,19895,1,8
416,96,20195,1,0
488,192,20495,1,8
416,288,20795,2,0,B|288:288,1,120,0|8
176,288,21395,2,0,B|48:288,1,120,0|8
128,192,21995,6,0,B|64:192,8,60,0|0|2|0|2|0|0|0|0
384,192,23795,1,0
256,32,24395,6,0,B|192:56|192:128,1,120,0|8
256,224,24995,2,0,B|320:200|320:128,1,120,0|8
392,40,25595,2,0,B|432:104|416:168,1,120,0|8
400,272,26195,2,0,B|360:328|272:328,1,120,0|8
176,320,26795,5,0
176,200,27095,1,2
56,200,27395,1,2
56,320,27695,1,0
176,320,27995,5,0
384,192,28595,1,0
192,48,29195,6,0,B|320:48,1,120,4|8
312,168,29795,2,0,B|312:296,1,120,0|8
192,288,30395,2,0,B|64:288,1,120,0|8
72,168,30995,2,0,B|72:40,1,120,0|8
192,48,31595,6,0,B|192:120,3,60
192,168,32195,2,0,B|320:168,1,120
432,168,32795,5,0
256,336,33395,1,0
88,168,33995,6,0,B|216:168,1,120,0|8
128,80,34595,1,0
248,80,34895,1,8
368,80,35195,2,0,B|408:32,2,60,0|0|8
368,200,35795,2,0,B|368:328,1,120,0|8
256,272,36395,6,0,B|256:208,3,60,0|0|2|0
256,152,36995,2,0,B|256:104,8,30,2|0|0|0|0|0|0|0|0
184,56,37895,5,0
64,56,38195,1,0
64,176,38495,1,0
184,176,38795,6,0,B|312:176,3,120,4|8|0|8
424,176,39995,2,0,B|296:176,1,120,0|8
304,296,40595,2,2,B|400:296,2,90
248,296,41195,6,0,B|120:296,1,120,4|8
56,200,41795,2,0,B|184:200,1,120,0|8
128,88,42395,1,0
232,24,42695,1,8
328,88,42995,1,0
232,160,43295,2,0,B|232:224,2,60,8|0|4
232,280,43895,6,0,B|360:280,2,120,8|0|8
112,280,44795,2,0,B|48:216|48:144|88:96,2,180,0|2|8
168,176,45995,1,0
168,56,46295,1,8
288,56,46595,1,0
288,176,46895,1,8
392,112,47195,2,0,B|456:160|448:240|400:296,2,180,0|2|8
288,176,48395,5,4
96,192,57995,5,0
96,192,58295,1,0
224,320,58745,2,0,B|288:320,1,60
400,320,59195,5,0
400,320,59495,1,0
400,144,59945,2,0,B|336:144,1,60
256,56,60395,5,0
256,56,60695,1,0
80,56,61145,2,0,B|80:120,1,60
176,192,61595,5,0
176,192,61895,1,0
48,320,62345,2,0,B|48:256,1,60
152,320,62795,5,0
256,264,63095,1,0
360,320,63395,1,0
256,264,63695,1,0
255,144,63995,6,0,B|301:98,7,60
256,144,65195,2,0,B|233:121,16,30
256,264,66995,5,0
256,264,67295,1,0
144,304,67595,6,0,B|72:288|56:216,1,120
72,112,68195,2,0,B|144:40|240:72|272:152,1,240
296,264,69095,2,0,B|328:320|360:336|392:328,1,120
480,176,69845,6,0,B|456:88|384:72|336:112,1,180
232,136,70595,2,0,B|160:144|112:120|80:40,2,180
256,256,71795,1,0
424,88,72395,6,0,B|472:152|448:216,1,120
408,312,72995,2,0,B|336:360|240:336|208:224,1,240
168,128,73895,2,0,B|128:88|80:80|40:104,1,120
96,272,74645,6,0,B|160:336|216:328|264:288,1,180
296,184,75395,2,0,B|304:136|280:88,2,90
344,224,75995,2,0,B|416:200|440:144|432:64|360:16,1,240
136,32,77195,6,0,B|72:144,1,120,4|8
72,256,77795,1,0
72,256,78095,1,8
192,256,78395,6,0,B|320:256,1,120,0|8
432,256,78995,1,0
432,256,79295,1,8
408,136,79595,6,2,B|368:64|272:32|200:88,1,240,2|0
264,320,80795,2,2,B|168:312|128:216|192:136,1,240,2|0
424,192,81995,5,0
304,192,82295,1,8
304,72,82595,1,0
424,72,82895,1,8
424,192,83195,2,0,B|384:312,1,120,0|8
264,304,83795,2,0,B|128:304,1,120,0|8
48,232,84395,6,0,B|72:152|144:160|224:192|256:112,1,240
144,64,85295,1,8
40,128,85595,2,0,B|63:190|143:158|215:150|239:230,1,240
448,112,86795,6,0,B|448:240,1,120,4|8
328,232,87395,2,0,B|328:104,1,120,0|8
208,112,87995,2,0,B|208:240,1,120,0|8
88,232,88595,2,0,B|88:104,1,120,0|8
144,8,89195,5,0
256,48,89495,1,8
368,8,89795,1,0
480,48,90095,1,8
368,96,90395,2,2,B|368:168|296:216|216:208|176:160,1,240,2|0
368,376,91595,5,0
256,336,91895,1,8
144,376,92195,1,0
32,336,92495,1,8
144,288,92795,2,2,B|144:216|216:168|296:176|336:224,1,240,2|0
472,112,93845,6,2,B|432:48|360:32|288:72,1,180,2|0
208,112,94595,2,0,B|160:152|160:208,2,90,0|2|8
264,96,95195,2,0,B|352:80|408:144|384:208|320:240,1,240,4|2
216,272,96095,2,0,B|144:272|120:208,1,120,0|4
104,192,105995,5,0
120,72,106295,2,0,B|176:32|240:72,1,120
256,248,107045,2,0,B|256:120,1,120
256,8,107645,1,0
256,8,107795,1,0
408,192,108395,5,0
392,72,108695,2,0,B|336:32|272:72,1,120
256,248,109445,2,0,B|256:120,1,120
256,8,110045,1,0
256,8,110195,2,0,B|208:48,2,60
144,40,110795,6,0,B|64:56|72:136,1,120
72,240,111395,2,0,B|128:288|192:288|240:224,2,180
152,152,112595,1,0
208,152,112745,1,0
360,56,113195,6,0,B|432:96|432:176,1,120
424,272,113795,2,0,B|352:312|288:264|312:192,1,180
256,88,114545,1,0
160,160,114845,2,0,B|80:160,3,60
32,256,115595,6,0,B|160:256,1,120,4|8
72,344,116195,2,0,B|200:344,1,120,0|8
320,344,116795,2,0,B|440:344,1,120,0|8
360,256,117395,2,0,B|480:256,1,120,0|8
456,136,117995,5,0
376,48,118295,1,8
256,48,118595,1,0
176,136,118895,1,8
176,256,119195,2,0,B|304:256,1,120,0|8
416,256,119795,2,0,B|288:256,1,120,0|8
304,136,120395,6,0,B|304:8,1,120,4|8
184,16,120995,1,0
184,136,121295,1,8
64,136,121595,2,0,B|64:264,1,120,0|8
184,256,122195,1,0
184,376,122495,1,8
288,312,122795,6,2,B|416:312,3,120
408,192,123995,2,2,B|408:112,3,60
408,72,124595,2,0,B|408:40,8,30,0|0|0|0|0|0|0|0|4
