osu file format v7

[General]
AudioFilename: Kanbu de Tomatte Sugu Tokeru (Overdrive).ogg
AudioLeadIn: 1996
PreviewTime: 19595
Countdown: 0
SampleSet: Normal
StackLeniency: 0.7
Mode: 0
LetterboxInBreaks: 0

[Editor]
DistanceSpacing: 1
BeatDivisor: 4
GridSize: 8

[Metadata]
Title:Kanbu de Tomatte Sugu Tokeru ~ Kyouki no Udongein
Artist:IOSYS
Creator:ouranhshc
Version:Lunatic
Source:Touhou
Tags:RandomJibberish Pokie Natteke desu

[Difficulty]
HPDrainRate:6
CircleSize:4
OverallDifficulty:8
SliderMultiplier:1.8
SliderTickRate:2

[Events]
//Background and Video events
Video,-192,"Kanbu de Tomatte Sugu Tokeru (Overdrive).avi"
0,0,"Kanbu de Tomatte Sugu Tokeru (Overdrive)-bg.jpg"
//Break Periods
2,48595,57245
2,96595,105245
//Storyboard Layer 0 (Background)
//Storyboard Layer 1 (Fail)
//Storyboard Layer 2 (Pass)
//Storyboard Layer 3 (Foreground)
//Storyboard Sound Samples
//Background Colour Transformations
3,100,163,162,255

[TimingPoints]
9995,300,4,1,0,70,1,0
17157,-100,4,1,0,40,0,0
17345,-100,4,1,0,51,0,0
17645,-100,4,1,0,61,0,0
17945,-100,4,1,0,70,0,0
19595,-100,4,1,0,100,0,0
23570,-100,4,1,0,70,0,0
24170,-100,4,1,0,100,0,0
28370,-100,4,1,0,70,0,0
28970,-100,4,1,0,100,0,0
38720,-100,4,1,0,60,0,0
59045,-100,4,1,0,70,0,0
60245,-100,4,1,0,80,0,0
61445,-100,4,1,0,90,0,0
62645,-100,4,1,0,60,0,0
63845,-100,4,1,0,75,0,0
65195,-100,4,1,0,90,0,0
67520,-100,4,1,0,70,0,0
77195,-100,4,1,0,100,0,0
105695,-100,4,1,0,70,0,0
115445,-100,4,1,0,85,0,0
122570,-100,4,1,0,100,0,0

[HitObjects]
256,64,395,1,0
80,32,695,1,0
32,104,845,1,0
72,176,995,1,0
152,176,1145,2,0,B|216:144|216:64|152:32,2,180
112,104,1895,1,0
112,288,2195,1,0
112,288,2345,1,0
256,64,2795,5,0
432,32,3095,1,0
480,104,3245,1,0
440,176,3395,1,0
360,176,3545,2,0,B|296:144|296:64|360:32,2,180
400,104,4295,1,0
400,288,4595,1,0
400,288,4670,1,0
400,288,4745,1,0
400,288,4820,1,0
400,288,4895,1,0
256,192,5195,5,0
128,64,5495,1,0
208,32,5645,1,0
304,32,5795,1,0
384,64,5945,1,0
256,192,6245,5,0
128,320,6545,1,0
208,352,6695,1,0
304,352,6845,1,0
384,320,6995,1,0
384,320,7145,1,0
144,192,7595,5,0
56,192,7745,1,0
144,192,7895,1,0
256,56,8195,1,0
168,56,8345,1,0
256,192,8645,5,0
256,368,8945,1,0
416,280,9245,2,0,B|320:280,2,90
416,280,9695,1,0
416,104,9995,6,0,B|376:80|328:104,1,90,4|0
296,184,10295,2,0,B|296:280,1,90
216,274,10595,2,0,B|216:184,1,90
182,103,10895,2,0,B|136:80|96:104,1,90
64,192,11195,5,0
104,272,11345,1,0
160,344,11495,1,0
216,272,11645,1,0
256,192,11795,1,0
296,272,11945,1,0
352,344,12095,1,0
408,272,12245,1,0
448,192,12395,6,0,B|408:104,1,90,4|0
328,144,12695,2,0,B|288:56,1,90
221,62,12995,2,0,B|184:144,1,90
101,110,13295,2,0,B|64:192,1,90
160,240,13595,5,0
304,328,13745,1,0
304,152,13895,1,0
208,328,14045,1,0
352,240,14195,1,0
208,152,14345,1,0
256,240,14495,1,0
304,152,14645,1,0
256,56,14795,6,0,B|256:104,3,45,4|0|0|0
256,56,15095,2,0,B|304:56,3,45
256,56,15395,2,0,B|256:8,3,45
256,56,15695,2,0,B|208:56,3,45
256,56,15995,5,0
256,72,16070,1,0
256,88,16145,1,0
256,104,16220,1,0
256,120,16295,1,0
256,136,16370,1,0
256,152,16445,1,0
256,168,16520,1,0
256,184,16595,1,0
256,200,16670,1,0
256,216,16745,1,0
256,232,16820,1,0
256,248,16895,1,0
256,264,16970,1,0
256,280,17045,1,0
256,296,17120,1,0
256,312,17195,5,2
96,56,17495,1,2
416,56,17795,1,2
256,312,18095,1,2
256,136,18395,6,0,B|256:80,15,45
256,56,19595,5,4
256,56,19745,1,0
176,104,19895,1,8
176,104,20045,1,0
152,192,20195,1,0
152,192,20345,1,0
184,280,20495,1,8
184,280,20645,1,0
256,328,20795,5,0
256,328,20945,1,0
336,280,21095,1,8
336,280,21245,1,0
360,192,21395,1,0
360,192,21545,1,0
328,104,21695,1,8
328,104,21845,1,0
256,32,21995,6,0,B|208:32,3,45
256,32,22295,2,0,B|231:73,3,45,2|0|0|0
256,32,22595,2,0,B|279:73,3,45,2|0|0|0
256,32,22895,2,0,B|304:32,3,45
256,32,23195,1,0
256,32,23270,1,0
256,32,23345,1,0
256,352,23795,5,0
256,352,23870,1,0
256,352,23945,1,0
64,168,24395,6,0,B|144:248,1,90
136,144,24695,2,0,B|216:224,1,90,8|0
208,120,24995,2,0,B|288:200,1,90
280,96,25295,2,0,B|360:176,1,90,8|0
448,216,25595,6,0,B|368:136,1,90
376,240,25895,2,0,B|296:160,1,90,8|0
304,264,26195,2,0,B|224:184,1,90
232,288,26495,2,0,B|152:208,1,90,8|0
144,360,26795,5,0
144,360,26870,1,0
144,360,26945,1,0
104,280,27095,1,2
104,280,27170,1,0
104,280,27245,1,0
88,192,27395,1,2
88,192,27470,1,0
88,192,27545,1,0
104,104,27695,1,0
104,104,27770,1,0
104,104,27845,1,0
144,24,27995,1,0
144,24,28070,1,0
144,24,28145,1,0
424,192,28595,5,0
424,192,28670,1,0
424,192,28745,1,0
256,352,29195,6,0,B|160:352,1,90,4|0
216,280,29495,2,0,B|120:280,1,90,8|0
256,208,29795,2,0,B|160:208,1,90
216,136,30095,2,0,B|120:136,1,90,8|0
248,64,30395,5,0
328,24,30545,1,0
408,64,30695,1,8
408,152,30845,1,0
328,184,30995,1,0
248,152,31145,1,0
328,104,31295,1,8
328,104,31445,1,0
328,264,31595,5,0
328,264,31670,1,0
184,264,31895,1,0
184,264,31970,1,0
256,40,32195,1,0
240,40,32270,1,0
224,40,32345,1,0
208,40,32420,1,0
192,40,32495,1,0
176,40,32570,1,0
160,40,32645,1,0
144,40,32720,1,0
128,40,32795,5,0
256,376,33395,5,2
336,344,33545,2,2,B|296:272|232:272|176:328,1,180,2|0
96,312,33995,6,0,B|96:216,1,90,4|0
96,128,34295,2,8,B|48:128,2,45
184,128,34595,2,0,B|280:128,1,90
368,128,34895,2,8,B|368:80,2,45
368,216,35195,1,0
368,232,35270,1,0
368,248,35345,1,0
368,264,35420,1,0
368,280,35495,1,0
368,368,35645,2,0,B|272:368,1,90
144,368,35945,2,0,B|240:368,1,90,0|8
256,280,36245,1,0
256,24,36395,5,0
256,40,36470,1,0
256,56,36545,1,0
256,72,36620,1,0
256,88,36695,1,2
256,104,36770,1,0
256,120,36845,1,0
256,136,36920,1,0
256,152,36995,2,0,B|256:192,12,22.5,2|0|0|0|0|0|0|0|0|0|0|0|0
386,240,37595,6,0,B|288:240,1,90
126,240,37895,2,0,B|224:240,1,90
256,320,38195,1,0
256,320,38345,1,0
256,320,38495,1,0
256,320,38645,1,0
432,344,38795,6,0,B|384:344,2,45
392,232,39095,2,0,B|352:272,2,45,8|8|0
296,160,39395,2,0,B|296:208,2,45
216,160,39695,2,0,B|216:208,2,45,8|0|0
120,232,39995,2,0,B|160:272,2,45
80,344,40295,2,0,B|128:344,2,45,8|0|0
48,192,40595,5,2
256,336,40820,1,2
464,192,41045,1,2
432,40,41195,6,0,B|384:40,2,45,4|0|0
392,152,41495,2,0,B|352:112,2,45,8|0|0
296,224,41795,2,0,B|296:176,2,45
216,224,42095,2,0,B|216:176,2,45,8|0|0
120,152,42395,2,0,B|160:112,2,45
80,40,42695,2,0,B|128:40,2,45,8|0|0
256,72,42995,1,0
256,168,43145,1,0
256,168,43220,1,0
256,168,43295,1,0
256,168,43370,1,0
256,168,43445,1,0
256,168,43520,1,0
256,168,43595,5,4
328,256,43745,1,0
296,344,43895,2,0,B|256:368|208:344,1,90,8|0
256,272,44195,2,0,B|208:232|136:256|104:344,1,180,0|8
64,240,44645,1,0
96,144,44795,2,0,B|176:144|224:88|216:24,1,180,0|8
128,56,45245,2,0,B|248:200,1,180
296,264,45695,1,8
352,336,45845,1,0
440,312,45995,5,0
440,312,46070,1,0
440,312,46145,1,0
384,240,46295,2,0,B|384:144,1,90,8|0
440,72,46595,1,0
440,72,46670,1,0
440,72,46745,1,0
360,32,46895,2,0,B|264:32,1,90,8|0
176,32,47195,2,0,B|152:112|192:168|264:184,1,180,4|0
264,88,47645,2,0,B|184:88|144:144|160:208,1,180,4|0
184,288,48095,1,8
256,336,48245,1,0
328,288,48395,5,4
256,48,57995,5,0
256,48,58295,1,0
256,320,58745,1,0
256,232,58895,1,0
112,192,59195,5,0
112,192,59495,1,0
384,192,59945,1,0
296,192,60095,1,0
256,336,60395,5,0
256,336,60695,1,0
256,64,61145,1,0
256,152,61295,1,0
400,192,61595,5,0
400,192,61895,1,0
128,192,62345,1,0
216,192,62495,1,0
360,296,62795,5,0
152,296,63095,1,0
360,216,63395,1,0
152,216,63695,1,0
296,152,63995,5,0
216,152,64145,1,0
296,120,64295,1,0
216,120,64445,1,0
296,80,64595,1,0
216,80,64745,1,0
296,48,64895,1,0
216,48,65045,1,0
256,16,65195,5,0
256,32,65270,1,0
256,48,65345,1,0
256,64,65420,1,0
256,80,65495,1,0
256,96,65570,1,0
256,112,65645,1,0
256,128,65720,1,0
256,144,65795,1,0
256,160,65870,1,0
256,176,65945,1,0
256,192,66020,1,0
256,208,66095,1,0
256,224,66170,1,0
256,240,66245,1,0
256,256,66320,1,0
256,272,66395,6,0,B|224:344|144:352|64:296|72:184,1,270
72,200,66920,1,0
72,184,66995,1,0
72,96,67145,1,0
136,40,67295,2,0,B|232:40,1,90
320,32,67595,6,0,B|400:24|448:80|432:160,2,180,4|0|0
320,224,68495,1,0
320,128,68645,1,0
248,176,68795,1,0
248,80,68945,1,0
176,128,69095,1,0
176,32,69245,1,0
104,80,69395,2,0,B|40:80|0:144|40:232,1,180
104,160,69845,6,0,B|104:344,1,180
176,288,70295,1,0
256,248,70445,1,0
336,288,70595,1,0
408,340,70745,1,0
408,340,70820,1,0
408,340,70895,1,0
408,340,71045,2,0,B|408:152,1,180
336,104,71495,1,0
256,64,71645,1,0
176,104,71795,2,0,B|176:168|224:224|304:216,1,180
160,344,72395,6,0,B|72:352|32:304|32:240,2,180,4|0|0
256,192,73295,2,0,B|160:192,2,90,0|0|4
256,280,73745,1,0
344,192,73895,1,0
256,104,74045,1,0
168,192,74195,2,0,B|104:144|104:80|168:32,1,180
354,40,74645,6,0,B|408:80|408:144|344:192,1,180
256,192,75095,1,0
256,192,75245,1,0
256,280,75395,2,0,B|176:272|144:208,2,135
344,280,75995,6,0,B|400:264|408:208,3,90
336,112,76595,1,0
320,112,76670,1,0
304,112,76745,1,0
288,112,76820,1,0
272,112,76895,1,0
256,112,76970,1,0
240,112,77045,1,0
224,112,77120,1,0
208,112,77195,5,0
128,72,77345,1,0
48,112,77495,1,8
48,200,77645,1,0
48,288,77795,1,0
128,328,77945,1,0
208,288,78095,1,8
208,200,78245,1,0
304,112,78395,5,0
384,72,78545,1,0
464,112,78695,1,8
464,200,78845,1,0
464,288,78995,1,0
384,328,79145,1,0
304,288,79295,1,8
304,200,79445,1,0
384,152,79595,5,0
384,248,79745,1,0
384,152,79895,1,0
304,112,80045,1,8
288,112,80120,1,8
272,112,80195,1,8
192,64,80345,1,0
192,160,80495,1,0
168,248,80645,1,8
152,248,80720,1,8
136,248,80795,1,8
40,248,80945,1,0
56,248,81020,1,0
72,248,81095,1,0
104,168,81245,1,8
104,152,81320,1,8
104,136,81395,2,0,B|128:56|192:24|272:48,1,180,8|0
408,152,81995,6,0,B|312:152,1,90,4|0
230,152,82295,2,0,B|320:152,1,90,8|0
408,216,82595,2,0,B|312:216,1,90
230,216,82895,2,0,B|320:216,1,90,8|0
408,280,83195,2,0,B|312:280,1,90
230,280,83495,2,0,B|320:280,1,90,8|0
408,344,83795,2,0,B|312:344,1,90
230,344,84095,2,0,B|320:344,1,90,8|0
496,344,84395,5,0
496,256,84545,1,0
496,240,84620,1,0
496,224,84695,1,8
496,136,84845,1,0
496,48,84995,2,0,B|448:48,4,45,0|0|0|0|8
408,48,85445,1,0
320,48,85595,1,0
304,48,85670,1,0
288,48,85745,1,0
272,48,85820,1,0
256,48,85895,1,8
168,48,86045,1,0
80,48,86195,5,2
40,128,86345,1,2
40,216,86495,1,2
40,304,86645,1,2
168,320,86795,5,0
104,264,86945,1,0
184,240,87095,1,8
120,184,87245,1,0
200,160,87395,1,0
136,104,87545,1,0
216,80,87695,1,8
152,24,87845,1,0
360,24,87995,5,0
296,80,88145,1,0
376,104,88295,1,8
312,160,88445,1,0
392,184,88595,1,0
328,240,88745,1,0
408,264,88895,1,8
344,320,89045,1,0
256,344,89195,5,0
160,344,89345,1,0
208,272,89495,2,0,B|208:224,2,45,8|0|0
120,272,89795,1,0
32,272,89945,1,0
16,272,90020,1,0
0,272,90095,1,8
32,184,90245,1,0
120,184,90395,2,0,B|216:184,1,90
272,112,90695,2,0,B|176:112,1,90,8|0
160,40,90995,5,2
256,40,91145,1,2
352,40,91295,1,2
448,40,91445,1,2
400,120,91595,6,0,B|400:176,2,45
304,120,91895,2,0,B|304:168,2,45,8|0|0
208,120,92195,2,0,B|208:168,2,45
112,120,92495,1,8
112,136,92570,1,0
112,152,92645,1,0
160,224,92795,6,0,B|224:304,1,90,2|2
352,224,93095,2,0,B|288:304,1,90,2|2
256,376,93395,1,0
256,288,93545,1,0
256,200,93695,1,0
256,112,93845,1,0
256,96,93920,1,0
256,80,93995,5,0
344,80,94145,1,0
256,8,94295,1,8
168,80,94445,1,0
256,80,94595,2,2,B|256:224,2,135
168,160,95195,5,0
168,160,95345,1,0
168,248,95495,1,8
200,328,95645,1,0
312,328,95795,5,0
312,328,95945,1,0
344,248,96095,1,8
344,160,96245,1,0
256,32,96395,5,4
256,320,105995,5,0
88,264,106295,1,0
136,192,106445,1,0
88,120,106595,1,0
40,192,106745,2,0,B|224:192,2,180
88,120,107495,1,0
184,120,107645,1,0
136,40,107795,1,0
232,40,107945,2,0,B|416:40,1,180
488,88,108395,6,0,B|440:144|384:120,1,90
488,296,108695,2,0,B|440:240|384:264,1,90
472,192,108995,1,0
384,192,109145,2,0,B|200:192,2,180
336,272,109895,1,0
248,272,110045,1,0
160,272,110195,1,0
144,272,110270,1,0
128,272,110345,1,0
112,272,110420,1,0
96,272,110495,1,0
56,96,110795,5,0
136,144,110945,1,0
56,288,111095,1,0
136,240,111245,1,0
216,192,111395,1,0
272,120,111545,2,0,B|320:160|336:224|256:280,2,180
200,64,112295,1,0
280,24,112445,1,0
352,80,112595,2,0,B|408:152,1,90
216,344,113195,6,0,B|160:328|160:256,1,90
296,344,113495,2,0,B|352:328|352:256,1,90
256,264,113795,1,0
328,208,113945,2,0,B|296:152|224:136|168:224,2,180
392,144,114695,1,0
312,96,114845,1,0
224,96,114995,2,0,B|224:48,2,45
144,136,115295,1,0
88,304,115595,5,4
56,128,115895,1,8
104,56,116045,1,0
192,24,116195,1,0
280,24,116345,2,2,B|336:16|400:48|408:128,1,180,2|0
336,288,116945,1,0
336,288,117020,1,0
336,288,117095,1,8
256,328,117245,1,0
176,288,117395,1,0
256,240,117545,2,2,B|224:192|144:176|88:240,1,180,2|0
48,152,117995,6,0,B|88:120|144:112,1,90
64,56,118295,2,0,B|120:32|168:40,1,90,8|0
224,88,118595,1,0
296,40,118745,2,2,B|368:16|424:56|440:128,2,180,2|2|2
344,120,119495,1,8
400,192,119645,1,0
344,264,119795,1,0
328,264,119870,1,0
312,264,119945,1,0
296,264,120020,1,0
280,264,120095,1,8
104,288,120395,6,0,B|168:280|176:224,1,90
104,96,120695,2,0,B|168:104|176:160,1,90,8|0
96,192,120995,1,0
184,192,121145,2,2,B|368:192,2,180
216,280,121895,1,8
256,360,122045,1,0
296,280,122195,2,0,B|392:280,1,90
256,40,122795,5,2
256,344,123095,1,2
408,192,123395,1,2
104,192,123695,1,2
256,320,123995,5,0
256,304,124070,1,0
256,288,124145,1,0
256,272,124220,1,0
256,256,124295,1,0
256,240,124370,1,0
256,224,124445,1,0
256,208,124520,1,0
256,192,124595,1,0
256,176,124670,1,0
256,160,124745,1,0
256,144,124820,1,0
256,128,124895,1,0
256,112,124970,1,0
256,96,125045,1,0
256,80,125120,1,0
256,64,125195,5,4
