osu file format v5

[General]
AudioFilename: Kanbu de Todomatte Sugu Tokeru ~ Kyouki no Udongein.mp3
AudioLeadIn: 0
PreviewTime: 468
Countdown: 0
SampleSet: Normal

[Metadata]
Title:Kanbu de Todomatte Sugu Tokeru ~ Kyouki no Udongein
Artist:IOSYS
Creator:DJPop
Version:Normal

[Difficulty]
HPDrainRate:3
CircleSize:5
OverallDifficulty:5
SliderMultiplier:1
SliderTickRate:2

[Events]
//Background and Video events
0,0,"Kanbu de Todomatte Sugu Tokeru ~ Kyouki no Udongein.png"
//Break Periods
2,48668,57318
2,96668,105318
2,144676,153326
//Storyboard Layer 0 (Background)
//Storyboard Layer 1 (Failing)
//Storyboard Layer 2 (Passing)
//Storyboard Layer 3 (Foreground)
//Storyboard Sound Samples
//Background Colour Transformations
3,100,163,162,255

[TimingPoints]
-1812,299.9400119976,4,1,0,100
173352,299.9400119976,4,1,1,100

[Colours]
Combo1 : 255,255,0
Combo2 : 0,255,0
Combo3 : 0,0,255
Combo4 : 255,0,0

[HitObjects]
64,96,10185,5,0
160,96,10485,1,0
256,96,10785,1,0
352,96,11085,1,0
448,96,11385,1,0
448,192,11685,1,0
448,288,11985,1,0
352,288,12285,1,0
352,192,12585,5,0
256,192,12885,1,0
160,192,13185,1,0
64,192,13484,1,0
64,288,13784,1,0
160,288,14084,1,0
256,288,14384,1,0
352,288,14684,1,0
256,192,14984,12,0,17084
256,192,17384,5,2
256,192,17684,1,2
256,192,17984,1,2
256,192,18283,1,2
160,192,18583,6,2,C|176:130|336:130|352:192,1,300
480,256,19783,5,4
416,288,20083,1,0
352,256,20383,1,0
288,288,20683,1,0
224,256,20983,1,0
160,288,21283,1,0
96,256,21583,1,0
32,288,21883,1,0
64,192,22183,5,0
80,192,22333,1,0
96,192,22483,1,0
112,192,22633,1,0
128,192,22783,1,0
144,192,22933,1,0
160,192,23083,1,0
176,192,23232,1,0
192,192,23382,2,0,C|304:192,1,100
352,192,23982,2,2,C|464:192,1,100
480,128,24582,5,0
416,96,24882,1,0
352,128,25182,1,0
288,96,25482,1,0
224,128,25782,1,0
160,96,26082,1,0
96,128,26382,1,0
32,96,26682,1,0
32,192,26982,6,0,C|96:192,1,50
96,192,27282,2,0,C|160:192,1,50
160,192,27582,2,0,C|224:192,1,50
224,192,27882,2,0,C|288:192,1,50
288,192,28182,2,0,C|400:192,1,100
480,192,28781,2,2,C|368:192,1,100
256,270,29381,6,0,C|256:334,15,50
256,320,31781,5,0
240,320,31931,1,0
224,320,32081,1,0
208,320,32231,1,0
192,320,32381,1,0
144,320,32681,1,0
96,320,32981,2,0,C|96:208,1,100
96,128,33580,2,2,C|96:16,1,100
224,32,34180,5,0
224,96,34480,1,0
224,112,34630,1,0
224,128,34780,1,0
224,192,35080,1,0
224,208,35230,1,0
224,224,35380,1,0
224,288,35680,1,0
224,352,35980,1,0
288,352,36280,1,0
288,336,36430,1,0
288,320,36580,5,0
288,304,36730,1,0
288,288,36880,1,0
288,272,37030,1,0
288,256,37180,2,0,C|288:224,7,25
288,231,37780,1,0
288,160,38080,1,0
288,96,38379,1,2
288,32,38679,1,2
384,32,38979,5,4
448,64,39279,1,0
384,96,39579,1,0
448,128,39879,1,0
384,160,40179,1,0
448,192,40479,1,0
384,224,40779,1,2
416,256,41004,1,2
448,288,41229,1,2
384,320,41379,5,0
336,272,41679,1,0
288,320,41979,1,0
240,272,42279,1,0
192,320,42579,1,0
144,272,42879,1,0
96,320,43179,1,0
48,272,43478,1,0
96,224,43778,5,4
32,160,44078,1,0
32,160,44228,1,0
32,160,44378,1,0
32,96,44678,1,0
96,96,44978,2,0,C|256:96,2,150
128,32,46178,5,0
192,32,46478,1,0
192,32,46628,1,0
192,32,46778,1,0
256,32,47078,1,0
256,96,47378,2,0,C|416:96,2,150
256,192,48577,1,4
416,336,58176,5,4
352,336,58475,1,0
288,336,58775,1,0
288,336,58925,1,0
224,336,59225,1,0
160,336,59525,1,0
160,336,59675,1,0
96,336,59975,1,0
96,336,60125,1,0
96,240,60575,5,0
160,240,60875,1,0
224,240,61175,1,0
224,240,61325,1,0
288,240,61625,1,0
352,240,61925,1,0
352,240,62075,1,0
416,240,62375,2,0,C|448:240,4,25
416,144,62975,5,0
352,144,63274,1,0
288,144,63574,1,0
288,144,63724,1,0
224,144,64024,1,0
160,144,64324,1,0
160,144,64474,1,0
96,144,64774,1,0
96,144,64924,1,0
96,48,65374,5,2
160,48,65674,1,2
224,48,65974,1,2
288,48,66274,1,2
352,48,66574,2,2,C|416:48|468:112|416:176|352:176,1,300
288,96,67774,5,4
224,128,68074,1,0
160,160,68373,1,0
96,192,68673,1,0
160,224,68973,1,0
224,192,69273,1,0
288,160,69573,1,0
352,128,69873,1,0
416,160,70173,5,0
416,176,70323,1,0
416,192,70473,1,0
416,208,70623,1,0
416,224,70773,1,0
416,240,70923,1,0
416,256,71073,1,0
416,272,71223,1,0
416,288,71373,2,0,C|383:326|352:288,1,100
352,224,71973,2,2,C|321:186|288:224,1,100
288,288,72573,5,0
224,256,72873,1,0
160,224,73173,1,0
96,192,73472,1,0
32,224,73772,1,0
96,256,74072,1,0
160,288,74372,1,0
224,320,74672,1,0
288,288,74972,5,0
352,256,75272,1,0
416,224,75572,1,0
416,224,75722,2,0,C|416:112,1,100
416,64,76172,2,0,C|383:26|352:64,1,100
352,128,76772,2,2,C|321:166|288:128,1,100
288,64,77372,5,4
224,96,77672,1,0
160,128,77972,1,0
96,160,78271,1,0
160,192,78571,1,0
224,160,78871,1,0
288,128,79171,1,0
352,96,79471,1,0
416,64,79771,5,0
416,80,79921,1,0
416,96,80071,1,0
416,112,80221,1,0
416,128,80371,2,0,C|368:176,1,50
416,160,80671,2,0,C|464:208,1,50
416,192,80971,2,0,C|416:304,1,100
464,336,81571,2,2,C|352:336,1,100
320,288,82171,5,0
256,320,82471,1,0
256,320,82621,1,0
256,320,82771,1,0
192,288,83071,1,0
192,288,83220,1,0
192,288,83370,1,0
256,256,83670,1,0
256,256,83820,1,0
256,256,83970,1,0
256,256,84120,1,0
256,256,84270,1,0
192,224,84570,5,0
128,256,84870,1,0
128,256,85020,1,0
128,256,85170,1,0
64,224,85470,1,0
64,224,85620,1,0
64,224,85770,1,0
128,192,86070,1,0
192,160,86370,2,2,C|192:48,1,100
128,32,86970,5,4
96,96,87270,1,0
160,128,87570,1,0
128,192,87870,1,0
192,224,88170,1,0
160,288,88469,1,0
224,320,88769,1,2
256,288,88994,1,2
288,320,89219,1,2
320,288,89369,5,0
384,256,89669,1,0
352,192,89969,1,0
416,160,90269,1,0
384,96,90569,1,0
320,64,90869,1,0
288,128,91169,1,0
224,96,91469,1,0
192,160,91769,5,4
128,160,92069,1,0
128,160,92219,1,0
128,160,92369,1,0
64,160,92669,1,0
64,224,92969,2,0,C|224:224,2,150
96,288,94168,5,0
160,288,94468,1,0
160,288,94618,1,0
160,288,94768,1,0
224,288,95068,1,0
288,288,95368,2,0,C|448:288,2,150
256,192,96568,1,4
224,160,106166,5,0
224,160,106466,1,0
224,160,106916,1,2
224,160,107066,1,2
288,160,107366,1,0
288,160,107666,1,0
288,160,108116,1,2
288,160,108265,1,2
288,224,108565,5,0
288,224,108865,1,0
288,224,109315,1,2
288,224,109465,1,2
224,224,109765,1,0
224,224,110065,1,0
224,224,110515,1,2
224,224,110665,1,2
224,160,110965,5,0
224,160,111265,1,2
288,160,111565,1,0
288,160,111865,1,2
288,224,112165,5,0
288,224,112315,1,2
288,224,112465,1,0
288,224,112615,1,2
224,224,112765,1,0
224,224,112915,1,2
224,224,113065,1,0
224,224,113214,1,2
256,192,113364,12,2,114564
64,320,115764,5,4
128,288,116064,1,0
96,224,116364,1,0
160,192,116664,1,0
176,224,116814,1,0
192,192,116964,1,0
208,224,117114,1,0
224,192,117264,1,0
240,224,117414,1,0
256,192,117564,2,2,C|368:192,1,100
400,208,118089,5,0
448,176,118313,1,0
416,160,118463,1,0
448,144,118613,1,0
416,128,118763,1,0
448,112,118913,1,0
416,96,119063,1,0
448,80,119213,1,0
400,32,119513,1,0
368,64,119663,1,0
352,32,119813,1,0
320,64,119963,2,2,C|208:64,1,100
160,64,120563,5,0
96,32,120863,1,0
64,96,121163,1,0
128,128,121463,1,0
160,144,121613,1,0
128,160,121763,1,0
160,176,121913,1,0
128,192,122063,1,0
160,208,122213,1,0
128,224,122363,2,2,C|128:336,1,100
176,352,122888,5,0
240,320,123113,1,0
256,288,123262,1,0
272,320,123412,1,0
288,288,123562,1,0
304,320,123712,1,0
320,288,123862,1,0
336,320,124012,1,0
352,288,124162,2,2,C|416:288|480:224|480:64,1,300
416,32,125362,5,4
352,64,125662,1,0
288,32,125962,1,0
224,64,126262,1,0
288,96,126562,1,0
224,128,126862,1,0
160,96,127162,1,0
96,128,127462,1,0
160,160,127762,6,0,C|224:192|160:224|96:192|32:224|76:254|32:288|96:320|160:288|224:320|160:352,1,700
96,352,130161,5,0
32,320,130461,1,0
96,288,130761,1,0
32,256,131061,1,0
96,224,131361,1,0
160,256,131661,1,0
224,224,131961,1,0
160,192,132261,1,0
224,160,132561,6,0,C|288:128|352:160|288:192|352:224|416:192|480:224|416:256|480:288|416:320|320:272,1,750
320,288,134960,5,4
256,320,135260,1,0
192,352,135560,1,0
128,320,135860,1,0
192,288,136160,1,0
256,256,136460,1,0
192,224,136760,1,0
128,256,137060,1,0
64,224,137360,6,0,C|128:192|64:160|128:128|192:160|256:128|320:160|256:192|320:224|384:192|448:224|480:208,1,750
480,192,139759,6,0,C|416:160|480:128|416:96|352:128|288:96|224:128|288:160|224:192|160:160|96:192|128:208,1,750
128,224,142159,6,0,C|192:256|128:288|192:320|256:288|320:320|384:288|320:256|384:224|320:192|256:224|224:208,1,750
256,192,144558,1,4
96,48,154156,5,4
160,48,154456,1,0
224,48,154756,1,0
224,48,154906,1,0
288,48,155206,1,0
352,48,155506,1,0
352,48,155656,1,0
416,48,155956,1,0
416,48,156106,1,0
416,144,156556,5,0
352,144,156856,1,0
288,144,157156,1,0
288,144,157306,1,0
224,144,157606,1,0
160,144,157906,1,0
160,144,158056,1,0
96,144,158355,2,0,C|64:144,4,25
96,240,158955,5,0
160,240,159255,1,0
224,240,159555,1,0
224,240,159705,1,0
288,240,160005,1,0
352,240,160305,1,0
352,240,160455,1,0
416,240,160755,1,0
416,240,160905,1,0
416,336,161355,5,0
352,336,161655,1,0
288,336,161955,1,0
288,336,162105,1,0
224,336,162405,1,0
160,336,162705,1,0
160,336,162855,1,0
96,336,163155,2,0,C|64:336,4,25
32,224,163754,6,0,C|32:112,2,100
96,224,164654,2,0,C|96:160,6,50
224,160,166004,1,0
224,96,166304,6,0,C|288:96,6,50
224,32,167504,2,0,C|288:32,3,50
416,160,168553,6,0,C|416:272,2,100
480,160,169453,2,0,C|480:224,6,50
288,224,170803,1,0
288,288,171103,6,0,C|224:288,6,50
288,352,172153,2,0,C|176:352,3,100
256,192,173352,5,6
