osu file format v5

[General]
AudioFilename: Kanbu de Todomatte Sugu Tokeru ~ Kyouki no Udongein.mp3
AudioLeadIn: 0
PreviewTime: 468
Countdown: 0
SampleSet: Normal

[Metadata]
Title:Kanbu de Todomatte Sugu Tokeru ~ Kyouki no Udongein
Artist:IOSYS
Creator:DJPop
Version:Easy

[Difficulty]
HPDrainRate:2
CircleSize:5
OverallDifficulty:2
SliderMultiplier:0.5
SliderTickRate:2

[Events]
//Background and Video events
0,0,"Kanbu de Todomatte Sugu Tokeru ~ Kyouki no Udongein.png"
//Break Periods
2,48676,56396
2,96676,104396
2,144676,152396
//Storyboard Layer 0 (Background)
//Storyboard Layer 1 (Failing)
//Storyboard Layer 2 (Passing)
//Storyboard Layer 3 (Foreground)
//Storyboard Sound Samples
//Background Colour Transformations
3,100,163,162,255

[TimingPoints]
-1812,299.9400119976,4,1,0,100
173352,299.9400119976,4,1,1,100

[Colours]
Combo1 : 255,255,0
Combo2 : 0,255,0
Combo3 : 0,0,255
Combo4 : 255,0,0

[HitObjects]
32,192,10185,5,0
96,192,10785,1,0
160,192,11385,1,0
224,192,11985,1,0
288,192,12585,1,0
352,192,13185,1,0
416,192,13784,1,0
480,192,14384,1,0
256,192,14984,12,0,17384
336,192,18583,6,2,C|176:192,1,150
192,192,19783,5,4
192,256,20383,1,0
256,288,20983,1,0
320,256,21583,1,0
352,192,22183,6,0,C|352:139|305:96|224:96,1,200
224,160,23982,1,2
288,160,24582,5,0
288,224,25182,1,0
224,256,25782,1,0
160,224,26382,1,0
128,160,26982,6,0,C|128:96|160:64|256:64,1,200
256,128,28781,1,2
320,128,29381,5,4
384,160,29981,1,0
416,224,30581,1,0
384,288,31181,1,0
320,320,31781,6,0,B|112:320,1,200
64,320,33580,1,2
64,256,34180,5,0
96,192,34780,1,0
160,160,35380,1,0
224,192,35980,1,0
256,256,36580,5,0
320,288,37180,1,0
384,256,37780,1,0
416,192,38379,1,2
384,128,38979,6,4,C|352:96|320:128|288:96|256:128|224:96|192:128|176:112,1,300
128,192,41379,2,4,C|160:224|192:192|224:224|256:192|288:224|320:192|352:224|384:192|416:224,1,400
416,288,44378,5,0
352,288,44978,1,0
288,288,45578,1,0
224,288,46178,1,0
160,288,46778,1,0
160,224,47378,1,0
192,160,47978,1,0
256,192,48577,1,4
480,160,58176,5,4
416,160,58775,1,0
352,160,59375,1,0
288,160,59975,1,0
224,160,60575,5,0
160,160,61175,1,0
96,160,61775,1,0
32,160,62375,1,0
32,224,62975,5,0
96,224,63574,1,0
160,224,64174,1,0
224,224,64774,1,0
288,224,65374,5,2
352,224,65974,1,2
416,224,66574,2,2,C|480:224,3,50
480,288,67774,5,4
416,352,68373,1,0
352,288,68973,1,0
288,352,69573,1,0
224,288,70173,6,0,C|160:363|96:288,1,200
160,256,71973,1,2
96,192,72573,5,0
160,128,73173,1,0
224,64,73772,1,0
288,128,74372,1,0
352,192,74972,6,0,C|427:256|352:320,1,200
320,256,76772,1,2
256,320,77372,5,4
192,256,77972,1,0
256,192,78571,1,0
192,128,79171,1,0
128,64,79771,6,0,C|53:129|128:192,1,200
160,128,81571,1,2
224,64,82171,5,0
288,128,82771,1,0
352,192,83370,1,0
288,256,83970,1,0
224,320,84570,5,0
160,256,85170,1,0
224,192,85770,1,0
288,128,86370,1,2
224,64,86970,6,4,C|192:64|192:96|160:96|160:128|128:128|128:160|96:160|96:192|64:192|64:208,1,300
128,288,89369,2,4,C|128:256|160:256|160:224|192:224|192:192|224:192|224:160|256:160|256:128|288:128|288:96|320:96|320:80,1,400
384,160,92369,5,0
448,224,92969,1,0
384,288,93568,1,0
288,320,94168,1,0
192,288,94768,1,0
96,256,95368,1,0
160,160,95968,1,0
256,192,96568,1,4
320,256,106166,5,0
320,128,107366,1,0
192,128,108565,1,0
192,256,109765,1,0
288,224,110965,5,0
288,160,111565,1,0
224,160,112165,1,0
224,224,112765,1,0
256,192,113364,12,2,114564
352,288,115764,5,4
288,256,116364,1,0
352,224,116964,1,0
288,192,117564,1,0
352,160,118164,5,0
288,128,118763,1,0
352,96,119363,1,0
288,64,119963,1,0
224,96,120563,5,0
160,128,121163,1,0
224,160,121763,1,0
160,192,122363,1,0
224,224,122963,5,0
160,256,123562,1,0
224,288,124162,1,0
160,320,124762,1,0
96,288,125362,6,4,C|32:256|87:225|38:192|89:160|32:128|96:96,1,400
176,160,128361,5,2
256,96,128961,1,2
336,160,129561,1,2
416,96,130161,6,4,C|480:128|425:159|474:192|423:224|480:256|416:288,1,400
336,224,133161,5,2
256,288,133760,1,2
176,224,134360,1,2
272,128,134960,6,4,C|288:128|317:160|317:226|288:252|224:252|195:222|195:160|224:128|240:128,1,400
256,192,137960,5,2
256,192,138559,1,2
256,192,139159,1,2
272,256,139759,6,4,C|288:256|317:224|317:158|288:132|224:132|195:162|195:224|224:256|240:256,1,400
256,192,142759,5,2
256,192,143358,1,2
256,192,143958,1,2
256,192,144558,1,4
256,160,154156,5,4
192,192,154756,1,0
160,256,155356,1,0
192,320,155956,1,0
256,352,156556,1,0
320,320,157156,1,0
352,256,157756,1,0
320,192,158355,1,0
256,224,158955,5,0
192,192,159555,1,0
160,128,160155,1,0
192,64,160755,1,0
256,32,161355,1,0
320,64,161955,1,0
352,128,162555,1,0
320,192,163155,1,0
160,96,163754,6,4,B|96:96|32:128|-18:193|32:256|96:288|160:288,1,350
160,224,166154,2,4,B|160:288|192:352|257:402|320:352|352:288|352:224,1,350
352,288,168553,6,4,B|416:288|480:256|530:191|480:128|416:96|352:96,1,350
352,160,170953,2,4,B|352:96|320:32|255:-18|192:32|160:96|160:160,1,350
256,192,173352,5,6
