osu file format v9

[General]
AudioFilename: 02.minami - Jeux Interdits.mp3
AudioLeadIn: 0
PreviewTime: -1
Countdown: 0
SampleSet: Normal
StackLeniency: 0.7
Mode: 0
LetterboxInBreaks: 1

[Editor]
DistanceSpacing: 0.8
BeatDivisor: 4
GridSize: 8

[Metadata]
Title:Jeux Interdits
Artist:IOSYS
Creator:eikkaleyd
Version:QED Extra
Source:touhou
Tags:IOSYS minami flandre guitar

[Difficulty]
HPDrainRate:6
CircleSize:4
OverallDifficulty:7
ApproachRate:9
SliderMultiplier:1.50000000596046
SliderTickRate:1

[Events]
//Background and Video events
0,0,"Image0000001.jpg"
//Break Periods
2,46439,56763
2,110147,120133
//Storyboard Layer 0 (Background)
//Storyboard Layer 1 (Fail)
//Storyboard Layer 2 (Pass)
//Storyboard Layer 3 (Foreground)
//Storyboard Sound Samples
//Background Colour Transformations
3,100,163,162,255

[TimingPoints]
734,337.078651685393,4,1,1,80,1,0
11061,-133.333333333333,4,1,1,80,0,0
11314,-100,4,1,1,80,0,0
24633,-100,4,1,1,75,0,0
32889,-200,4,2,1,80,0,0
34238,-100,4,1,1,75,0,0
41150,-100,4,1,1,80,0,0
56993,-100,4,1,1,85,0,1
66763,-100,4,2,1,55,0,1
66937,-100,4,2,1,70,0,1
67105,-100,4,2,1,85,0,1
67274,-100,4,2,1,100,0,1
68116,-100,4,1,1,85,0,1
77557,-100,4,1,1,75,0,0
82193,-200,4,1,1,75,0,0
82951,-100,4,1,1,75,0,0
96267,-200,4,1,1,75,0,0
97616,-100,4,1,1,75,0,0
120624,-100,4,1,1,75,0,1
135532,-100,4,2,1,55,0,1
135701,-100,4,2,1,70,0,1
135869,-100,4,2,1,85,0,1
136038,-100,4,2,1,100,0,1
136880,-100,4,1,1,75,0,1
142284,-100,4,2,1,50,0,0
152903,-133.333333333333,4,1,1,60,0,0
165195,-100,4,1,1,80,0,1
169927,-200,4,1,1,70,0,1
170517,-100,4,1,1,70,0,1
186783,-100,4,1,1,100,0,0

[Colours]
Combo1 : 255,0,0
Combo2 : 255,255,0
Combo3 : 179,53,103
Combo4 : 255,255,255

[HitObjects]
331,39,6127,1,0
357,54,6211,1,0
383,68,6295,1,0
403,88,6380,1,0
423,110,6464,2,8,B|455:128|427:153,3,37.5000001490115
450,167,6801,1,0
451,196,6885,1,0
451,225,6969,1,0
447,254,7054,1,0
432,280,7138,2,8,B|403:312,3,37.5000001490115
381,324,7475,5,0
353,335,7559,1,0
322,336,7644,1,0
237,327,7812,1,0
208,316,7896,1,0
180,305,7981,1,8
155,287,8065,1,8
129,271,8149,2,8,B|83:251|77:209,1,75.000000298023
72,189,8402,2,8,B|56:144|101:104,1,75.000000298023
105,95,8655,1,8
187,43,8823,5,0
170,61,8908,1,0
153,85,8992,1,0
136,109,9076,1,0
127,137,9160,1,8
119,166,9245,1,8
122,195,9329,2,0,B|122:226|151:240,3,37.5000001490115
150,255,9666,1,0
171,276,9750,1,0
194,294,9835,1,0
221,305,9919,1,0
247,319,10003,2,8,B|292:332,1,37.5000001490115
304,112,10340,5,0
322,135,10425,1,0
337,160,10509,1,0
342,189,10593,1,0
338,219,10677,1,8
325,246,10762,1,8
305,269,10846,1,0
280,286,10930,1,0
251,295,11014,1,8
220,299,11099,2,8,B|166:310,1,37.5000001490115
35,226,11520,5,0
54,249,11604,1,0
75,270,11689,1,0
100,286,11773,1,0
127,296,11857,1,8
156,303,11941,1,8
185,307,12026,1,8
214,312,12110,2,0,B|251:316,3,37.5000001490115
281,314,12447,1,0
310,307,12531,1,0
341,293,12616,2,8,B|389:267,1,37.5000001490115
463,204,13037,5,0
438,187,13121,1,0
409,177,13205,1,0
379,171,13290,1,0
344,168,13374,2,2,B|294:172,1,37.5000001490115
216,176,13542,1,8
128,216,13795,1,8
64,280,14048,1,8
271,343,14217,5,0
296,327,14301,1,0
321,311,14385,1,0
347,296,14469,1,0
373,280,14554,1,8
394,259,14638,1,8
414,237,14722,2,0,B|440:192,3,37.5000001490115
442,171,15059,1,0
445,140,15144,1,0
444,110,15228,1,8
388,19,15396,1,8
364,97,15565,5,0
350,123,15649,1,0
332,147,15733,1,0
306,162,15818,1,0
281,178,15902,1,8
253,190,15986,2,8,B|235:209|199:182,1,37.5000001490115
151,184,16239,1,2
54,125,16492,1,2
35,19,16745,1,2
124,36,16913,5,0
100,62,16998,1,0
80,89,17082,1,0
70,117,17166,1,0
66,147,17250,1,8
64,176,17335,1,8
72,208,17419,1,0
88,232,17503,2,0,B|85:259|129:263,3,37.5000001490115
136,280,17840,1,0
160,296,17925,1,0
192,304,18009,1,0
224,312,18093,1,0
256,312,18177,1,8
285,311,18262,2,8,B|340:308|358:278,1,75.000000298023
375,264,18514,1,0
392,239,18599,1,0
406,212,18683,1,8
411,182,18767,1,8
411,151,18851,2,8,B|412:112,5,37.5000001490115
104,92,19610,5,0
104,122,19694,1,0
104,151,19778,1,0
104,180,19863,1,0
104,209,19947,2,8,B|105:300|105:300|198:301,1,150.000000596046
193,301,20368,1,0
222,301,20453,1,0
251,301,20537,1,0
281,300,20621,1,0
310,301,20705,2,0,B|406:301|406:301|407:259,1,112.500000447034
408,256,21042,1,0
408,224,21127,1,0
408,192,21211,1,0
408,160,21295,1,0
408,128,21380,1,8
408,96,21464,1,8
408,64,21548,2,8,B|409:10,5,37.5000001490115
256,192,22222,12,4,23655
144,104,23992,6,2,B|191:105,2,37.5000001490115,0|0|0
349,273,24666,6,2,B|392:272,2,37.5000001490115
409,44,25003,6,8,B|410:121,1,75.000000298023
476,88,25340,2,8,B|476:172,1,75.000000298023
474,232,25677,2,0,B|478:279|427:303,1,75.000000298023
411,296,25930,1,0
380,293,26014,2,0,B|342:265|341:210,1,75.000000298023
352,88,26351,6,0,B|303:40|263:88,1,75.000000298023
265,100,26604,1,0
258,141,26689,2,0,B|292:187|341:158,1,75.000000298023
384,131,27026,1,8
402,154,27110,1,0
416,180,27194,1,0
408,208,27278,1,0
392,232,27363,1,8
64,64,27700,6,8,B|64:144,1,75.000000298023
128,112,28037,2,8,B|128:208,1,75.000000298023
80,248,28374,2,0,B|120:280|160:240,1,75.000000298023
152,288,28627,1,0
152,328,28711,2,0,B|112:304|64:344,1,75.000000298023
256,248,29048,6,0,B|216:296|272:328,1,75.000000298023
296,320,29301,1,0
336,312,29385,2,0,B|368:280|336:240,1,75.000000298023
128,248,29722,1,8
104,232,29807,1,0
88,208,29891,1,0
88,176,29975,1,0
104,152,30059,1,8
24,16,30396,6,8,B|23:105,2,75.000000298023
488,344,31071,2,8,B|487:259,2,75.000000298023
264,344,31745,1,0
24,176,31913,1,0
256,16,32082,1,8
256,16,32419,1,0
488,176,32587,1,0
264,344,32756,1,8
24,344,33093,6,2,B|24:256,1,75.000000298023
488,32,33767,2,2,B|488:112,1,75.000000298023
488,192,34441,1,0
264,344,34610,1,8
24,192,34778,1,0
256,16,34947,1,8
256,120,35116,2,8,B|256:168,4,37.5000001490115
120,80,35790,6,2,B|80:128|112:176,1,75.000000298023
112,176,36042,1,0
160,240,36127,1,0
232,280,36295,1,8
384,136,36464,6,2,B|432:168|384:224,1,75.000000298023
384,224,36717,1,0
328,288,36801,1,0
256,320,36969,1,8
392,296,37138,5,0
344,320,37222,1,0
288,328,37307,1,0
232,328,37391,1,0
176,320,37475,1,8
176,320,37644,1,8
112,96,37812,5,0
160,80,37896,1,0
208,72,37981,1,0
256,72,38065,1,0
304,80,38149,1,8
304,80,38318,1,8
392,72,38655,5,0
392,72,38739,2,8,B|440:128|384:176,1,112.500000447034
389,171,39076,1,8
456,136,39329,1,0
456,136,39413,2,8,B|496:192|456:248,1,112.500000447034
460,241,39750,1,8
384,240,40003,6,8,B|232:240,1,150.000000596046
208,240,40425,1,8
128,240,40677,1,0
88,240,40762,1,0
48,240,40846,1,8
16,176,41014,1,8
48,72,41183,5,8
136,24,41351,1,0
176,16,41436,1,0
216,16,41520,1,0
320,24,41689,1,8
472,200,41857,5,8
400,248,42026,1,0
368,272,42110,1,0
328,272,42194,1,0
224,256,42363,1,8
96,200,42531,6,0,B|96:152,4,37.5000001490115
96,256,43037,1,8
168,272,43205,6,0,B|168:224,4,37.5000001490115
168,320,43711,1,8
216,320,43880,6,0,B|328:320,1,112.500000447034
360,320,44217,1,0
392,320,44301,1,0
432,320,44385,1,8
432,200,44554,6,0,B|320:200,1,112.500000447034
288,200,44891,1,0
248,200,44975,1,0
216,200,45059,1,8
48,72,45228,5,0
104,248,45396,1,8
264,120,45565,1,0
344,304,45733,1,8
488,176,45902,2,0,B|520:224,4,37.5000001490115
78,102,57363,5,8
159,61,57531,1,0
200,48,57616,1,0
320,56,57700,2,8,B|360:40|392:88,1,75.000000298023
343,153,58037,1,0
303,136,58121,1,0
265,128,58205,1,0
232,136,58290,1,0
200,152,58374,1,8
81,253,58711,6,8,B|117:227|165:251,1,75.000000298023
191,277,58964,1,0
426,256,59048,2,8,B|378:232|340:256,1,75.000000298023
253,232,59385,1,0
253,184,59469,1,0
253,136,59554,1,0
253,88,59638,1,0
253,40,59722,1,8
385,332,60059,5,0
337,332,60144,1,0
289,332,60228,1,8
155,264,60396,1,0
203,264,60481,1,0
251,264,60565,1,8
458,172,60733,6,0,B|474:140|442:92|410:108,1,75.000000298023
386,84,60986,1,0
362,132,61071,2,0,B|394:148|394:172|394:204,1,75.000000298023
280,80,61408,5,0
256,104,61492,1,0
240,128,61576,1,8
211,204,61745,1,2
280,280,61913,1,2
408,288,62082,2,8,B|433:260,3,37.5000001490115
452,231,62419,1,8
83,282,62756,5,8
163,321,62925,1,0
206,331,63009,1,0
297,332,63093,2,8,B|336:344|368:304,1,75.000000298023
320,240,63430,1,0
280,256,63514,1,0
240,264,63599,1,0
200,256,63683,1,0
168,232,63767,1,8
80,101,64104,6,8,B|120:125|168:93,1,75.000000298023
192,93,64357,1,0
414,101,64441,2,8,B|366:125|323:90,1,75.000000298023
245,140,64778,1,0
245,188,64863,1,0
245,236,64947,1,0
245,284,65031,1,0
245,332,65116,1,8
265,46,65453,5,0
217,46,65537,1,0
169,46,65621,1,8
216,124,65790,1,0
264,124,65874,1,0
312,124,65958,1,8
232,251,66127,6,0,B|224:299|288:323,1,75.000000298023
312,315,66380,1,0
344,283,66464,2,0,B|304:267|312:219,1,75.000000298023
448,232,66801,5,8
448,128,66969,1,8
376,48,67138,1,8
264,24,67307,1,8
144,96,67475,1,2
120,128,67559,1,2
104,168,67644,1,2
112,200,67728,1,2
133,235,67812,2,8,B|165:267,2,37.5000001490115
202,330,68149,6,0,B|255:270|196:227,1,112.500000447034
186,197,68486,1,0
280,194,68655,2,0,B|281:148,2,37.5000001490115
280,335,68992,1,0
468,337,69160,1,8
464,192,69329,1,8
464,48,69498,5,0
432,80,69582,1,0
400,112,69666,1,0
368,144,69750,1,0
336,160,69835,2,8,B|312:184|312:184|280:160,1,75.000000298023
208,160,70172,2,0,B|152:160,1,37.5000001490115
128,160,70340,2,0,B|88:160,1,37.5000001490115
48,160,70509,1,8
96,296,70677,6,0,B|64:288|88:256,2,37.5000001490115
176,280,71014,2,0,B|152:264|168:240,2,37.5000001490115
256,264,71351,1,0
280,336,71520,2,0,B|376:296,1,75.000000298023
448,224,71857,1,0
472,184,71941,1,0
448,144,72026,1,8
368,48,72194,6,8,B|312:63,2,37.5000001490115
304,88,72531,2,8,B|275:132,2,37.5000001490115
272,168,72868,2,8,B|264:224|312:248,1,75.000000298023
328,272,73205,1,8
432,64,73542,22,0,B|480:112|440:176,1,112.500000447034
424,192,73880,1,8
312,192,74048,2,0,B|312:256,2,37.5000001490115
312,40,74385,1,0
96,40,74554,1,8
96,192,74722,1,8
96,320,74891,21,0
144,320,74975,1,0
192,320,75059,1,0
240,320,75144,1,0
280,320,75228,2,8,B|320:320|320:320|320:264,1,75.000000298023
408,240,75565,2,0,B|432:216|384:200,1,37.5000001490115
360,184,75733,2,0,B|384:168|336:136,1,37.5000001490115
312,128,75902,1,0
192,104,76071,6,0,B|144:104|200:64,2,37.5000001490115
128,152,76408,2,0,B|96:160|120:104,2,37.5000001490115
64,200,76745,1,0
64,288,76913,2,0,B|152:320,1,75.000000298023
280,320,77250,1,0
328,320,77335,1,0
376,320,77419,1,8
256,192,77587,12,0,79273
387,72,79441,6,0,B|352:112,1,37.5000001490115
336,144,79610,2,0,B|320:204,1,37.5000001490115
336,232,79778,2,8,B|352:272,4,37.5000001490115
456,248,80284,6,0,B|496:280,2,37.5000001490115
456,168,80621,2,0,B|496:200,2,37.5000001490115
456,88,80958,1,0
456,88,81042,1,8
360,88,81211,1,0
360,88,81295,1,8
264,88,81464,1,0
264,88,81548,1,8
152,88,81632,2,0,B|120:56|80:96,3,75.000000298023
88,176,82307,2,2,B|144:224|32:224|104:272,1,112.500000447034
296,339,82981,5,0
325,334,83065,1,0
354,326,83149,1,0
382,314,83233,1,0
407,298,83318,1,8
432,281,83402,1,8
455,262,83486,2,8,B|493:261|454:209,3,37.5000001490115
479,209,83823,1,0
479,179,83908,1,0
472,149,83992,1,0
458,122,84076,1,0
435,101,84160,2,8,B|441:71|401:69,1,37.5000001490115
345,109,84498,5,0
317,97,84582,1,0
287,91,84666,1,0
256,88,84750,2,8,B|189:89,1,37.5000001490115
128,88,85003,1,2
40,176,85256,1,2
16,296,85509,1,2
97,312,85677,5,0
112,286,85762,1,0
131,263,85846,1,0
153,243,85930,1,0
176,223,86014,2,8,B|196:183|248:192,1,75.000000298023
288,192,86351,1,0
317,199,86436,1,0
344,209,86520,1,0
368,224,86604,1,0
392,240,86689,1,8
432,288,86857,1,8
400,88,87026,5,0
391,116,87110,1,0
380,144,87194,1,0
365,170,87278,2,0,B|361:202|322:202,3,37.5000001490115
322,220,87616,1,0
294,232,87700,1,0
264,237,87784,1,0
233,239,87868,1,0
200,232,87953,2,0,B|149:215,1,37.5000001490115,8|0
40,312,88374,22,8,B|40:224,1,75.000000298023
112,272,88711,2,8,B|112:184,1,75.000000298023
64,128,89048,2,0,B|24:96|72:48,1,75.000000298023
112,48,89301,1,0
160,64,89385,2,0,B|192:96|144:144,1,75.000000298023
256,288,89722,6,0,B|296:312|328:272,1,75.000000298023
352,240,89975,1,0
320,200,90059,2,0,B|280:168|232:200,1,75.000000298023
424,48,90396,1,8
448,72,90481,1,0
464,96,90565,1,0
464,128,90649,1,0
456,160,90733,1,8
456,320,91071,6,8,B|456:240,1,75.000000298023
384,280,91408,2,8,B|384:192,1,75.000000298023
288,56,91745,2,0,B|240:32|201:51,1,75.000000298023
191,93,91998,1,0
217,138,92082,2,0,B|267:150|318:106,1,75.000000298023
152,208,92419,6,0,B|112:240|56:232,1,75.000000298023
64,280,92672,1,0
96,312,92756,2,0,B|136:280|192:296,1,75.000000298023
169,72,93093,1,8
192,91,93177,1,0
219,104,93262,1,0
248,107,93346,1,0
277,100,93430,1,8
40,136,93767,6,8,B|40:216,2,75.000000298023
480,208,94441,2,8,B|480:120,2,75.000000298023
40,128,95116,1,0
240,304,95284,1,0
304,48,95453,1,8
456,272,95790,2,8,B|400:296,4,37.5000001490115
208,24,96464,6,2,B|288:24,1,75.000000298023
280,352,97138,2,2,B|200:352,1,75.000000298023
480,104,97812,1,0
368,224,97981,1,8
152,104,98149,1,0
56,224,98318,1,8
104,288,98486,2,8,B|144:248,4,37.5000001490115
448,304,99160,22,0,B|472:272|448:232,1,75.000000298023
416,216,99413,1,0
352,160,99498,1,8
280,120,99666,1,8
88,232,99835,6,0,B|64:184|112:144,1,75.000000298023
128,144,100087,1,0
184,88,100172,1,8
264,56,100340,1,8
144,304,100509,5,0
192,280,100593,1,0
240,264,100677,1,0
296,272,100762,1,0
344,288,100846,1,8
344,288,101014,1,8
368,64,101183,5,0
328,96,101267,1,0
280,112,101351,1,0
224,112,101436,1,0
168,96,101520,1,8
168,96,101689,1,8
96,176,101857,6,0,B|184:176,1,75.000000298023
208,176,102110,1,8
160,280,102194,1,0
320,280,102363,1,8
384,80,102531,5,0
248,80,102700,1,8
320,184,102868,1,0
184,184,103037,1,8
72,104,103205,5,0
72,152,103290,1,0
72,192,103374,1,8
160,288,103542,1,0
160,240,103627,1,0
160,192,103711,1,8
320,248,103880,6,8,B|368:248|368:248|408:200,1,75.000000298023
344,136,104217,1,2
344,40,104385,1,2
112,200,104554,5,8
176,264,104722,1,0
216,280,104807,1,0
256,280,104891,1,0
360,248,105059,1,8
424,112,105228,5,8
344,56,105396,1,0
304,40,105481,1,0
264,40,105565,1,0
152,64,105733,1,8
104,176,105902,6,0,B|104:224,4,37.5000001490115
104,128,106408,1,8
176,112,106576,6,0,B|176:160,4,37.5000001490115
176,64,107082,1,8
240,64,107250,6,0,B|352:64,1,112.500000447034
392,64,107587,1,0
432,64,107672,1,0
472,64,107756,1,8
392,272,107925,6,0,B|280:272,1,112.500000447034
240,272,108262,1,0
200,272,108346,1,0
160,272,108430,1,8
80,144,108599,6,2,B|160:144,1,75.000000298023
184,192,108936,2,2,B|264:192,1,75.000000298023
256,192,109189,12,4,109947
64,312,120733,6,8,B|144:312,1,75.000000298023
184,312,120986,1,0
136,240,121071,2,8,B|176:240,1,37.5000001490115
224,240,121239,1,8
184,160,121408,1,0
224,160,121492,1,0
272,160,121576,2,8,B|320:160,2,37.5000001490115
80,160,122082,6,8,B|104:176|88:208,4,37.5000001490115
168,104,122587,2,8,B|192:120|184:152,2,37.5000001490115
256,48,122925,1,0
400,112,123093,1,8
448,248,123262,1,8
248,208,123430,6,8,B|336:208,1,75.000000298023
392,272,123767,2,0,B|304:272,1,75.000000298023,8|0
248,328,124104,2,0,B|304:328,1,37.5000001490115
344,328,124273,1,8
440,328,124441,1,8
496,192,124610,5,8
352,104,124778,1,0
256,240,124947,1,8
112,160,125116,1,0
32,296,125284,1,8
120,272,125453,2,0,B|160:256,4,37.5000001490115
416,24,126127,6,0,B|440:80|408:104,1,75.000000298023
416,120,126380,1,0
400,208,126464,1,8
336,288,126632,1,8
288,96,126801,6,0,B|264:160|288:176,1,75.000000298023
288,192,127054,1,0
344,280,127138,1,8
448,336,127307,1,8
208,336,127475,6,0,B|160:368,2,37.5000001490115
320,272,127812,1,8
392,224,127981,1,8
336,192,128149,2,0,B|384:160,2,37.5000001490115
224,264,128486,1,8
360,96,128823,5,0
392,128,128908,1,0
408,168,128992,1,0
408,248,129160,2,0,B|424:264|392:288,2,37.5000001490115
253,54,129498,5,0
276,87,129582,1,0
296,128,129666,1,0
309,198,129835,2,0,B|317:222|285:238,2,37.5000001490115
256,192,130172,12,0,131351
408,256,131520,21,8
328,304,131689,1,0
288,320,131773,1,0
184,312,131857,2,0,B|136:320|112:272,1,75.000000298023
174,208,132194,1,8
215,228,132278,1,0
256,234,132363,1,0
297,230,132447,1,0
336,212,132531,1,8
424,112,132868,6,8,B|392:136|336:112,1,75.000000298023
320,80,133121,1,0
96,112,133205,2,8,B|128:144|192:104,1,75.000000298023,0|0
256,128,133542,1,0
256,176,133627,1,0
256,224,133711,1,0
256,272,133795,1,0
256,320,133880,1,8
128,80,134217,5,0
176,80,134301,1,0
224,80,134385,1,8
344,152,134554,1,0
296,152,134638,1,0
248,152,134722,1,8
88,232,134891,6,0,B|88:304|128:304,1,75.000000298023
160,312,135144,1,0
200,272,135228,2,0,B|160:224|176:192,1,75.000000298023
280,240,135565,5,8
232,144,135733,1,8
296,56,135902,1,8
384,8,136071,1,8
464,96,136239,1,0
480,128,136323,1,0
496,168,136408,1,0
504,208,136492,1,0
504,248,136576,1,8
80,56,136913,5,8
80,128,137082,1,0
80,168,137166,1,0
80,256,137250,2,0,B|80:344,1,75.000000298023
168,272,137587,1,0
168,232,137672,1,0
168,192,137756,1,0
168,152,137840,1,0
168,112,137925,1,8
392,80,138262,6,8,B|448:136,1,75.000000298023
448,168,138514,1,0
392,288,138599,2,8,B|448:232,1,75.000000298023
384,200,138936,5,0
280,200,139104,2,8,B|216:200,2,37.5000001490115
368,72,139610,5,0
408,96,139694,1,0
432,136,139778,1,8
368,304,139947,1,0
408,280,140031,1,0
432,240,140116,1,8
224,192,140284,5,8
136,192,140453,1,0
136,192,140537,1,8
136,192,140621,1,0
48,192,140790,1,8
256,192,140958,12,4,142138
480,0,142307,5,0
480,64,142475,1,0
480,120,142644,1,8
408,48,142812,1,0
408,104,142981,1,0
408,160,143149,1,8
336,88,143318,5,0
336,144,143486,1,0
336,200,143655,1,8
264,128,143823,1,0
264,184,143992,1,0
264,240,144160,1,8
264,288,144329,2,8,B|264:368,3,75.000000298023
48,384,145003,5,2
48,328,145172,1,2
48,272,145340,1,8
120,344,145509,1,2
120,288,145677,1,2
120,232,145846,1,8
192,304,146014,5,2
192,248,146183,1,2
192,192,146351,1,8
264,256,146520,1,2
264,200,146689,1,2
264,144,146857,1,8
264,96,147026,2,8,B|264:16,3,75.000000298023
104,48,147700,5,0
176,120,147868,1,0
256,192,148037,1,8
400,48,148205,1,0
328,120,148374,1,0
256,192,148542,1,8
400,312,148711,5,0
328,256,148880,1,0
256,192,149048,1,8
112,312,149217,1,0
176,256,149385,1,0
256,192,149554,1,8
256,192,149722,2,8,B|255:116,3,75.000000298023
312,80,150396,6,2,B|357:98|346:151,2,75.000000298023
312,184,150902,2,2,B|352:216|344:264,2,75.000000298023
312,288,151408,2,2,B|352:312|344:368,3,75.000000298023
216,352,152082,1,8
152,352,152250,1,8
88,352,152419,2,8,B|24:352|64:272,2,75.000000298023
72,80,153093,6,8,B|144:72|144:160,1,112.499997094273
160,200,153599,1,0
168,256,153767,2,8,B|176:296|216:296,1,56.2499985471367
256,296,154104,1,0
312,296,154273,1,8
400,296,154441,6,8,B|400:224,1,56.2499985471367
400,184,154778,2,8,B|400:128,1,56.2499985471367
400,72,155116,1,8
296,72,155621,5,0
272,96,155705,1,0
248,120,155790,2,8,B|208:160,3,56.2499985471367
248,208,156464,2,8,B|296:256,3,56.2499985471367
248,296,157138,2,8,B|208:336,4,56.2499985471367
64,176,158486,6,8,B|96:120|160:144,1,112.499997094273
128,224,158992,2,8,B|200:248|240:168,1,112.499997094273
272,144,159498,1,0
344,144,159666,2,8,B|400:144,1,56.2499985471367
384,216,160003,2,8,B|440:216,1,56.2499985471367
424,288,160340,2,8,B|480:288,1,56.2499985471367
272,288,161014,5,0
248,264,161099,1,0
224,240,161183,2,8,B|184:272,7,28.1249992735683
224,240,161857,2,8,B|264:208,7,28.1249992735683
224,240,162531,2,8,B|192:200,6,28.1249992735683
56,192,163205,5,2
256,32,163458,1,2
448,192,163711,1,2
256,192,163964,12,0,165059
440,152,165228,6,0,B|440:120|440:120|352:104,1,112.499997094273,0|0
320,104,165565,1,0
280,104,165649,1,0
240,104,165733,1,0
200,104,165818,1,0
160,104,165902,2,8,B|120:104,3,37.5000001490115
120,136,166239,2,8,B|80:168,3,37.5000001490115
88,184,166576,2,0,B|48:224|104:272,1,75.000000298023
112,272,166829,2,0,B|112:320|192:312,1,75.000000298023
192,312,167082,1,8
264,320,167250,2,2,B|280:304|280:304|296:328|296:328|312:304|312:304|328:328|328:328|344:304|344:304|360:328|360:328|376:304|376:304|400:328,1,225.000000894069
424,208,167925,5,0
424,176,168009,1,0
424,144,168093,1,8
352,40,168262,1,0
352,88,168346,1,0
352,136,168430,1,8
288,152,168599,6,8,B|288:104,2,37.5000001490115
224,80,168936,2,8,B|225:127,2,37.5000001490115
152,216,169273,6,0,B|144:256|192:248,1,37.5000001490115
192,280,169441,2,2,B|208:312|256:288,1,37.5000001490115
272,304,169610,2,0,B|304:312|328:288,1,37.5000001490115
352,280,169778,2,2,B|384:272|384:232,1,37.5000001490115
408,208,169947,2,0,B|344:200|432:120|408:184|408:72,1,150.000000596046,0|0
304,194,170621,6,8,B|278:224,3,37.5000001490115
319,162,170958,1,0
318,127,171042,1,0
307,100,171127,1,0
287,76,171211,1,0
259,54,171295,2,8,B|222:32,3,37.5000001490115
193,32,171632,1,0
156,39,171717,1,0
130,60,171801,1,0
105,89,171885,1,0
93,122,171969,6,8,B|59:161|98:192,1,75.000000298023
136,200,172222,2,8,B|100:235|141:276,1,75.000000298023
175,284,172475,1,8
300,285,172644,2,2,B|275:240|228:287|284:332|448:279,1,225.000000894069
448,176,173318,6,8,B|400:176,1,37.5000001490115
376,176,173486,1,8
392,96,173655,2,8,B|344:96,1,37.5000001490115
320,96,173823,1,8
336,24,173992,2,0,B|296:24,6,37.5000001490115
256,192,174666,12,4,175677
416,96,176014,5,0
416,144,176099,1,0
416,192,176183,1,0
416,240,176267,1,0
416,288,176351,2,8,B|392:328,3,37.5000001490115
336,256,176689,5,0
336,208,176773,1,0
336,160,176857,1,0
336,112,176941,1,0
336,64,177026,2,8,B|296:24,3,37.5000001490115
256,96,177363,5,0
256,144,177447,1,0
256,192,177531,1,0
256,240,177616,1,0
240,280,177700,2,8,B|216:312|168:304,1,75.000000298023
120,288,178037,5,0
96,264,178121,1,0
74,242,178205,1,0
62,214,178290,1,0
62,184,178374,1,8
80,156,178458,1,8
99,132,178542,1,8
119,112,178627,1,8
216,64,178711,6,0,B|176:48,7,37.5000001490115
304,96,179385,6,0,B|344:112,7,37.5000001490115
240,144,180059,5,8
229,172,180144,1,0
218,199,180228,1,0
206,227,180312,1,0
193,254,180396,1,8
180,281,180481,1,0
167,308,180565,1,0
153,335,180649,1,0
264,336,180733,2,0,B|280:248|304:416|312:312|392:336,1,150.000000596046
432,136,181408,6,0,B|448:184,3,37.5000001490115
368,136,181745,2,0,B|352:88,3,37.5000001490115
304,136,182082,2,0,B|320:184,3,37.5000001490115
240,136,182419,2,0,B|224:96,3,37.5000001490115
176,136,182756,2,8,B|96:136,2,75.000000298023
224,200,183262,1,8
280,264,183430,2,0,B|288:288|288:288|316:279|316:279|312:304|312:304|344:296|344:296|336:320|336:320|368:312|368:312|360:336|360:336|392:336,1,225.000000894069
464,288,184104,5,0
464,248,184189,1,0
464,208,184273,1,0
464,168,184357,1,0
416,192,184441,2,8,B|408:240|408:240|376:256,1,75.000000298023
336,256,184694,1,8
296,256,184778,1,0
256,256,184863,1,0
216,248,184947,1,0
184,224,185031,1,0
168,184,185116,2,8,B|168:136,3,37.5000001490115
256,192,185453,12,4,186464
