osu file format v7

[General]
AudioFilename: 03 - Homicide Moon.mp3
AudioLeadIn: 993
PreviewTime: 55248
Countdown: 0
SampleSet: Normal
StackLeniency: 0.6
Mode: 0
LetterboxInBreaks: 1

[Editor]
Bookmarks: 44581,55248,76581,89914,100581,111248,121914,132581,145914
DistanceSpacing: 1.10000002384186
BeatDivisor: 4
GridSize: 8

[Metadata]
Title:Homicide Moon
Artist:IOSYS
Creator:Natteke
Version:Normal
Source:Touhou
Tags:minami sakuya izayoi

[Difficulty]
HPDrainRate:0
CircleSize:3
OverallDifficulty:3
SliderMultiplier:0.8
SliderTickRate:1

[Events]
//Background and Video events
0,0,"bgggg.jpg"
//Break Periods
2,66114,77808
//Storyboard Layer 0 (Background)
//Storyboard Layer 1 (Fail)
//Storyboard Layer 2 (Pass)
//Storyboard Layer 3 (Foreground)
//Storyboard Sound Samples
//Background Colour Transformations
3,100,163,162,255

[TimingPoints]
1915,333.333333333333,4,1,1,60,1,0

[Colours]
Combo1 : 255,106,106
Combo2 : 183,183,255
Combo3 : 255,185,220
Combo4 : 0,176,176

[HitObjects]
88,136,1914,2,0,B|112:96|168:88,1,80,4|8
200,88,2415,2,0,B|288:88,2,80
200,136,3248,2,0,B|200:224,1,80,0|8
256,280,3915,2,0,B|352:280,1,80,0|8
408,232,4581,6,0,B|424:184|400:144,1,80,0|8
360,144,5081,2,0,B|344:96|368:56,2,80
408,144,5914,2,0,B|496:144,1,80,0|8
480,232,6581,2,0,B|480:328,1,80,0|8
392,312,7248,6,0,B|312:352|224:288,1,160,4|0
224,208,8248,1,8
224,208,8581,2,0,B|160:152|72:184,1,160
32,264,9581,1,8
32,176,9914,6,0,B|40:88,1,80,0|8
128,104,10581,2,0,B|120:192,1,80,0|8
256,192,11248,12,4,12581
328,120,13248,6,0,B|376:112|408:152|400:216|360:232,2,160
280,192,14914,1,0
192,192,15248,2,0,B|152:160|88:208|32:184,2,160
280,192,16914,2,0,B|360:248,1,80,8|0
424,272,17581,1,8
424,272,17914,6,0,B|472:192|424:104,1,160,4|0
360,64,18914,1,8
272,64,19248,2,0,B|200:128,1,80,0|8
144,168,19914,2,0,B|208:240,1,80,0|8
256,296,20581,6,0,B|320:304|336:376|408:360,2,160,0|0|12
192,176,22414,1,12
320,176,22914,1,12
320,176,23248,6,0,B|336:128|320:80,1,80,4|8
240,128,23914,2,8,B|224:176|240:224,1,80
304,264,24581,2,8,B|328:296|320:352,3,80
232,320,25914,6,8,B|200:288|144:296,1,80,12|0
72,304,26581,2,0,B|32:312|8:352,2,80,8|8|8
112,224,27581,1,8
40,176,27914,2,0,B|106:102|194:172,1,160,4|4
256,208,28914,6,0,B|288:240|288:296,2,80,8|8|8
248,120,29914,2,8,B|216:88|216:32,2,80
328,152,30914,1,8
256,192,31248,12,4,33914
184,168,34581,5,0
256,112,34914,1,8
328,168,35248,1,0
304,256,35581,1,8
208,256,35914,1,0
208,32,36581,5,4
304,32,36914,1,8
256,112,37248,1,0
184,168,37581,1,8
208,256,37915,1,0
304,256,38248,1,8
328,168,38581,1,0
256,328,39248,5,4
168,328,39581,1,8
80,328,39914,1,0
104,240,40248,1,8
128,152,40581,2,0,B|144:64,2,80,0|8|0
120,192,41414,2,0,B|88:328,1,120,12|4
184,312,42248,5,8
256,152,42914,1,8
328,312,43581,1,8
256,152,44248,1,8
256,192,44581,12,4,45914
256,192,46581,5,4
256,192,47248,12,4,48581
256,192,49248,5,4
115,86,49914,2,4,B|149:38|256:0|368:41|415:98,1,320
256,184,51914,1,8
96,120,52581,6,4,B|48:192|104:288,2,160
184,96,54248,1,8
256,152,54581,1,8
328,96,54914,1,8
400,152,55248,6,0,B|448:224|392:320,1,160,4|0
312,304,56248,1,8
320,216,56581,2,0,B|328:120|240:80,1,160,0|0
168,120,57581,1,8
96,168,57914,6,0,B|48:184|8:160,2,80,0|8|0
184,184,58914,2,0,B|232:168|272:192,2,80,8|0|8
120,248,59914,2,0,B|104:296|120:336,2,80,0|8|4
128,160,60914,5,8
176,88,61248,1,0
256,56,61581,1,8
336,96,61914,2,0,B|400:152|352:256,1,160
296,304,62914,1,8
216,264,63248,6,0,B|176:240|128:240,2,80,0|8|0
296,304,64248,1,8
376,344,64581,2,0,B|448:256|384:144,1,200,0|4
256,144,65914,5,4
360,264,79248,5,4
320,184,79581,1,8
360,104,79914,1,0
448,96,80248,1,8
496,168,80581,2,0,B|504:264|416:304,2,160
408,176,82248,6,0,B|408:120|440:96,2,80,8|0|8
424,264,83248,1,0
336,280,83581,1,8
312,192,83914,2,0,B|296:104,1,80,0|8
216,136,84581,6,0,B|248:216|200:304,1,160,4|0
120,288,85581,1,8
32,304,85914,2,0,B|8:216|32:144,2,160
120,288,87581,2,0,B|176:280|216:280,2,80,8|0|8
256,192,88581,12,4,89914
216,176,90581,6,8,B|208:128|216:88,2,80
296,208,91581,2,8,B|304:256|296:296,2,80
288,120,92581,5,4
376,112,92914,1,8
392,200,93248,1,8
304,208,93581,1,8
288,120,93914,2,8,B|280:72|280:24,2,80
200,128,94914,1,8
208,216,95248,6,0,B|192:112|192:48,1,160,4|8
280,80,96248,1,8
280,80,96581,2,0,B|296:160|296:256,1,160,0|8
240,312,97581,1,8
152,304,97914,6,0,B|80:280|48:192|80:112|112:88,1,240,4|0
256,192,99248,12,4,100581
256,192,101248,5,8
104,104,101914,2,0,B|88:144|104:192,1,80,0|8
184,152,102581,2,0,B|192:192|176:248,1,80
120,296,103248,5,4
256,192,103914,1,8
400,296,104581,2,0,B|416:248|400:208,1,80,0|8
320,248,105248,2,0,B|304:200|328:160,1,80,0|8
392,120,105914,5,4
256,240,106581,1,8
80,240,107248,2,0,B|168:240,1,80,0|8
216,168,107914,2,0,B|256:88,1,80,0|8
336,104,108581,6,4,B|384:176|328:272,3,160
168,192,111248,6,0,B|80:192,2,80,4|8|0
256,176,112248,2,0,B|256:88,2,80,8|0|8
344,192,113248,2,0,B|432:192,1,80,0|8
440,104,113914,6,0,B|376:48,2,80,4|8|0
424,192,114914,2,0,B|344:192,2,80,8|0|8
440,280,115914,2,0,B|376:336,1,80,0|8
288,336,116581,6,0,B|200:336,2,80,4|8|0
360,280,117581,2,0,B|448:280,2,80,8|0|8
288,224,118581,2,0,B|288:136,1,80,0|8
284,55,119248,6,4,B|202:34|106:65|60:176|123:256,2,320
344,120,122248,5,8
400,192,122581,1,0
344,264,122914,1,8
288,192,123248,2,0,B|200:192,3,80,0|8|0|8
152,120,124581,5,4
96,192,124914,1,8
152,264,125248,1,0
208,192,125581,2,0,B|296:192,2,80,8|0|8
152,120,126581,2,0,B|152:32,1,80,0|8
240,40,127248,6,0,B|344:40|336:160,1,160,4|0
256,184,128248,1,8
168,184,128581,2,0,B|64:184|72:304,1,160
152,328,129581,1,8
240,328,129914,6,0,B|336:328,1,80,0|8
400,288,130581,2,4,B|488:272|520:104|400:56,1,280,0|4
256,192,132581,6,0,B|160:184|112:264,2,160,0|8|0
336,224,134248,1,8
336,312,134581,1,0
248,336,134914,1,8
192,264,135248,6,0,B|248:192|224:96,2,160,0|8|0
112,232,136914,1,8
80,152,137248,1,0
144,88,137581,1,8
232,112,137914,6,0,B|288:128|288:128|304:168|304:168|368:192,2,160,0|8|0
144,88,139581,1,8
96,160,139914,1,0
160,224,140248,1,8
240,192,140581,2,0,B|320:160|320:160|376:176|376:176|472:128,1,240,0|8
464,48,141914,6,0,B|408:48,1,40,8|4
368,112,142414,2,0,B|320:112,1,40,8|4
272,176,142914,2,0,B|224:176,1,40,8|4
168,240,143414,2,0,B|112:240,1,40,8|4
72,304,143914,2,0,B|24:304,1,40,8|4
256,192,144414,12,4,145914
