osu file format v6

[General]
AudioFilename: Heartful Necromancer.mp3
AudioLeadIn: 0
PreviewTime: 59744
Countdown: 0
SampleSet: Soft
StackLeniency: 0.4
Mode: 0
LetterboxInBreaks: 1

[Editor]
Bookmarks: 6747,22653,37771,52889,60448,73676,86905,94385
DistanceSpacing: 0.800000011920929
BeatDivisor: 6
GridSize: 32

[Metadata]
Title:Heartful Necromancer
Artist:IOSYS
Creator:DJPop
Version:Normal
Source:Touhou Houmatsu Tengoku
Tags:touhou golden disc niji michael jackson thriller

[Difficulty]
HPDrainRate:3
CircleSize:4
OverallDifficulty:4
SliderMultiplier:1.6
SliderTickRate:2

[Events]
//Background and Video events
0,0,"Heartful Necromancer.png"
Video,0,"Heartful Necromancer.avi"
//Break Periods
//Storyboard Layer 0 (Background)
//Storyboard Layer 1 (Fail)
//Storyboard Layer 2 (Pass)
//Storyboard Layer 3 (Foreground)
//Storyboard Sound Samples
//Background Colour Transformations
3,100,0,0,0

[TimingPoints]
7535,472.44094488189,4,2,1,80,1,0
60448,-100,4,2,1,80,0,1
90763,-100,4,2,1,80,0,0
94385,-100,4,2,1,80,0,1
94700,-100,4,2,1,80,0,0

[Colours]
Combo1 : 241,240,237
Combo2 : 255,119,85
Combo3 : 252,220,227
Combo4 : 4,208,121

[HitObjects]
256,48,6747,6,0,C|256:80,1,26.6666666666667,8|8
256,144,7062,1,8
128,144,7535,6,0,C|128:224,1,80,6|0
64,256,8007,2,0,C|64:336,1,80,2|0
128,368,8479,1,2
256,368,8952,1,8
384,368,9424,6,0,C|384:288,1,80,2|0
448,256,9896,2,0,C|448:176,1,80,2|0
384,144,10368,1,2
304,48,10842,1,8
176,48,11314,6,0,C|96:48,1,80,2|0
64,112,11786,2,0,C|144:112,1,80,2|0
208,112,12258,1,2
288,208,12731,1,8
368,304,13204,6,0,C|448:304,1,80,2|0
480,368,13676,2,0,C|400:368,1,80,2|0
336,368,14148,1,2
304,304,14385,1,8
272,368,14621,1,8
144,368,15094,5,6
80,336,15330,1,0
48,272,15566,1,2
80,208,15802,1,0
144,176,16038,1,2
256,208,16511,1,8
368,240,16983,5,2
432,208,17220,1,0
464,144,17456,1,2
432,80,17692,1,0
368,48,17928,1,2
240,48,18401,1,8
112,48,18873,5,2
48,80,19109,1,0
80,144,19346,1,2
48,208,19582,1,0
112,240,19818,1,2
256,208,20290,1,8
400,176,20763,5,2
464,208,20999,1,0
432,272,21235,1,2
464,336,21472,1,0
400,368,21708,1,2
362,308,21944,1,8
362,236,22180,1,8
256,304,22653,6,0,C|256:144,2,160,6|2|2
144,368,24070,1,0
32,304,24542,6,0,C|32:144,2,160,2|2|2
64,368,25723,1,0
96,304,25960,1,8
96,176,26432,6,0,B|120:120|168:104|192:48,2,160,2|2|2
96,240,27613,2,0,C|176:240,1,80,0|0
288,304,28322,6,0,B|344:304|376:368|433:368,2,160,2|2|2
224,272,29503,1,0
288,240,29739,1,8
416,240,30212,6,0,C|480:288,4,80,6|0|2|0|2
384,176,31393,1,2
416,112,31629,2,0,C|456:72,1,53.3333333333333,2|2
368,48,32101,5,2
304,48,32338,2,0,C|250:48,1,53.3333333333333,2|2
160,48,32810,1,0
96,80,33046,1,2
64,144,33283,1,0
96,208,33519,1,8
96,336,33991,6,0,C|40:272,4,80,2|0|2|0|2
160,368,35172,1,0
224,336,35409,2,0,C|331:336,3,106.666666666667,2|0|0|2
392,336,36590,2,0,B|472:339|480:256,1,133.333333333333,2|2
480,176,37298,1,8
480,48,37771,6,0,B|320:48|256:256|192:48|29:48,1,480,6|0
32,176,39660,6,0,C|32:336,1,160,2|0
160,352,40605,2,0,C|160:192,1,160,2|8
288,208,41550,6,0,C|288:368,2,160,2|2|2
352,176,42731,1,2
416,144,42968,2,0,C|470:144,1,53.3333333333333,2|2
480,240,43440,6,0,B|483:316|448:368,1,133.333333333333,2|2
352,368,44149,2,2,B|304:381|288:336,1,80,2|0
256,272,44621,1,0
224,208,44857,1,8
224,80,45330,6,0,C|384:80,2,160,6|2|2
160,80,46511,1,0
96,80,46747,1,0
64,176,47141,6,0,C|251:176,1,186.666666666667,2|2
384,176,48164,2,0,B|488:183|480:80,2,160,2|8|0
320,144,49346,5,2
368,96,49582,1,2
192,144,50054,5,2
144,96,50290,1,2
192,272,50763,5,2
144,320,50999,1,2
320,272,51472,5,2
368,320,51708,2,0,B|425:365|480:336|480:272,1,160,2|0
480,208,52416,1,8
448,80,52889,5,6
448,80,53361,1,2
448,80,53834,1,2
64,336,54779,5,2
64,336,55251,1,2
64,336,55723,1,2
448,336,56668,5,2
448,336,57141,1,2
448,336,57613,1,2
64,80,58558,5,2
64,80,59031,1,2
64,80,59503,1,2
64,80,59739,5,8
64,80,59975,1,8
112,208,60448,6,0,C|32:208,4,80,6|0|2|0|2
240,208,61865,1,8
368,176,62338,6,0,C|480:128,2,120,2|0|0
368,240,63283,2,0,C|480:288,2,120,2|0|0
304,208,64227,6,0,C|144:208,2,160,2|2|2
304,80,65645,1,8
176,80,66117,6,0,B|144:112|105:120|64:112|32:80,2,160,2|2|2
240,112,67298,1,8
304,144,67535,1,8
432,128,68007,6,0,C|432:48,4,80,6|0|2|0|2
432,256,69424,1,8
352,352,69897,6,0,C|472:352,2,120,2|0|0
288,352,70842,2,0,C|128:352,2,160,2|8|0
320,288,72023,5,8
320,224,72259,1,8
192,128,72731,5,8
192,192,72968,1,8
32,48,73676,6,0,C|32:128,1,80,6|0
32,192,74149,2,0,C|32:272,1,80,2|0
32,336,74621,2,0,B|40:360|56:376|96:385|136:376|152:360|160:336,1,160,2|8
256,240,75566,6,0,C|256:360,2,120,2|0|0
256,176,76511,2,0,B|235:72|320:48,1,160,2|8
384,48,77220,1,0
448,48,77456,5,2
480,144,77810,1,2
384,176,78164,1,2
384,240,78401,1,2
480,272,78755,1,2
448,368,79109,1,2
384,368,79346,6,0,C|224:368,2,160,2|2|2
336,304,80527,1,8
272,304,80763,1,8
288,176,81235,6,0,C|288:96,1,80,6|0
224,96,81708,2,0,C|224:176,1,80,2|0
160,136,82180,1,2
32,136,82653,1,8
128,224,83125,5,2
176,304,83479,1,0
256,352,83834,1,0
320,368,84070,2,0,C|480:368,2,160,2|8|0
320,304,85251,5,8
320,240,85487,1,8
192,112,85960,5,8
192,176,86196,1,8
320,48,86668,5,0
320,48,86905,2,0,C|480:48,1,160,4|2
480,112,87613,2,0,C|320:112,1,160
320,112,88322,1,2
336,176,88558,1,0
400,176,88794,5,4
464,176,89031,1,4
480,240,89267,2,0,B|448:336|368:381|288:336|256:240,1,320,4|12
256,112,90684,5,4
144,48,91157,1,2
32,112,91629,1,0
32,240,92101,1,10
96,352,92574,5,4
160,352,92810,1,0
224,352,93046,1,0
288,352,93283,1,0
352,352,93519,6,0,C|352:312,5,40,2|2|2|2|2|2
416,352,94385,1,6
