osu file format v5

[General]
AudioFilename: Hakurei Jinja.mp3
AudioLeadIn: 0
PreviewTime: -1
Countdown: 0
SampleSet: Normal
StackLeniency: 0.7
Mode: 0
LetterboxInBreaks: 1
EditorDistanceSpacing: 0.699999988079071

[Metadata]
Title:Hakurei Jinja
Artist:IOSYS
Creator:tieff
Version:Normal
Source:
Tags:

[Difficulty]
HPDrainRate:5
CircleSize:4
OverallDifficulty:5
SliderMultiplier:1.4
SliderTickRate:2

[Events]
//Background and Video events
0,0,"TouhouReimu.jpg"
Video,0,"Touhou.avi"
//Break Periods
2,63286,74194
2,101748,103809
//Storyboard Layer 0 (Background)
//Storyboard Layer 1 (Fail)
//Storyboard Layer 2 (Pass)
//Storyboard Layer 3 (Foreground)
//Storyboard Sound Samples
//Background Colour Transformations
3,100,163,162,255

[TimingPoints]
7702,384.615384615385,4,1,0,60,1,0
19925,-100,4,1,0,40,0,0
26175,-100,4,2,0,60,0,0
31464,-100,4,1,0,51,0,0
32233,-100,4,2,0,60,0,0
37425,-100,4,1,0,60,0,0
38483,-100,4,1,0,60,0,1
50694,-100,4,2,0,60,0,0
63002,-100,4,1,0,60,0,0
109925,-100,4,2,0,60,0,0
110310,-100,4,1,0,60,0,0

[Colours]
Combo1 : 255,255,89
Combo2 : 153,51,255
Combo3 : 83,169,255
Combo4 : 255,83,83

[HitObjects]
112,64,7701,2,2,B|184:80|224:144|256:136,1,140
328,144,8471,1,0
328,144,8663,1,2
360,240,9048,6,2,B|136:240,1,210
48,240,10009,1,2
48,240,10201,1,2
48,144,10586,6,0,B|56:88|120:64|160:128,1,140,0|2
150,115,11163,1,0
248,120,11548,2,2,B|328:112|328:72,1,70
408,96,12125,6,2,B|456:144|392:232,1,140
398,223,12701,1,0
312,272,13086,2,2,B|232:304,1,70
200,296,13471,2,2,B|128:240,1,70
104,216,13855,6,0,B|104:56,1,140,0|2
168,152,14625,2,0,B|264:152,1,70,2|2
336,152,15201,6,0,B|408:152,3,70,2|2|0|2
408,248,16163,2,0,B|320:248,1,70,0|2
240,248,16740,6,2,B|120:208|216:152|216:128|216:128,1,140
176,104,17317,1,0
200,64,17509,2,0,B|272:88|272:120,2,70,2|2|0
104,40,18278,6,0,B|56:120,1,70,0|2
72,152,18663,2,0,B|144:208,1,70,2|0
144,240,19048,2,0,B|80:320,1,70,0|2
136,328,19432,2,0,B|232:328,2,70,2|0|2
88,328,20009,5,0
56,232,20394,1,8
88,136,20778,2,0,B|152:192,2,70,0|0|8
184,136,21548,6,0,B|248:104|312:128|336:144,1,140,0|8
319,134,22125,1,0
408,176,22509,2,0,B|416:272,1,70,0|8
336,304,23086,6,0,B|264:304|240:248|192:232,1,140,0|8
160,160,23855,2,0,B|232:112|256:48,1,140,0|8
352,56,24625,6,0,B|408:80|408:120,1,70
416,144,25009,2,0,B|392:224,1,70,8|0
384,256,25394,2,0,B|328:304|296:296,2,70,0|8|8
288,256,26163,5,0
224,184,26548,1,2
128,184,26932,1,0
80,96,27317,1,8
168,64,27702,6,0,B|240:48|320:72,1,140,0|2
400,96,28471,2,8,B|440:168|376:216|384:264,1,140,0|8
320,296,29240,5,0
224,288,29625,2,0,B|152:216|208:152,1,140,2|0
256,80,30394,1,8
352,80,30778,5,0
416,152,31163,1,2
360,232,31548,2,0,B|360:312,4,70
272,280,32702,5,2
224,272,32894,1,0
128,232,33278,2,0,B|96:160,1,70,0|2
144,80,33855,5,0
240,80,34240,2,0,B|320:80,1,70,2|0
376,152,34817,1,0
376,152,35009,1,2
376,248,35394,6,0,B|304:312,1,70,0|0
280,312,35778,1,2
184,272,36163,2,0,B|120:216,1,70,0|0
104,184,36548,1,2
104,88,36932,6,4,B|216:88,1,105,4|0
280,88,37509,2,0,B|368:88,1,70
424,88,37990,2,0,B|424:208,1,105
416,240,38471,5,0
344,304,38855,1,0
264,248,39240,1,2
264,248,39432,1,2
184,304,39817,5,0
104,248,40202,2,0,B|64:160,1,70,2|0
56,136,40586,2,2,B|96:72,2,70
152,136,41355,6,2,B|272:136|280:72,1,140,0|2
275,88,41932,1,0
368,112,42317,1,2
368,112,42509,1,2
256,192,42894,12,4,44625
128,88,45009,5,0
224,88,45394,2,2,B|328:88,1,70
392,88,45971,6,0,B|432:136|368:208|248:224|200:296|192:336|264:352,1,350,0|0
296,352,47125,1,2
352,272,47509,6,0,B|416:128,1,140,0|2
384,104,48086,1,0
288,72,48471,1,2
288,72,48663,1,0
256,192,49048,12,0,50778
120,72,51163,6,0,B|280:72,1,140,2|0
360,72,51932,1,8
360,168,52317,6,0,B|360:248|256:248,1,140,0|2
265,247,52894,1,0
168,248,53278,2,0,B|120:248|120:200,1,70,0|2
128,112,53855,6,2,B|160:72|232:72|256:120,1,140,0|2
344,120,54625,2,0,B|400:152|328:216|360:264,1,140,0|8
264,296,55394,6,0,B|128:240,1,140,0|2
88,152,56163,2,0,B|152:112,4,70,0|8|8|0|0
176,184,57317,5,8
224,96,57701,1,0
320,96,58086,1,8
360,184,58471,6,0,B|360:280|256:280,1,140,0|8
176,280,59240,2,0,B|56:280,2,105,0|2|0
176,232,60009,6,0,B|176:112|256:112,1,140,0|2
280,104,60586,1,0
424,104,61163,1,2
424,200,61548,6,0,B|384:248|336:280,2,105,4|0|0
376,184,62317,1,4
312,144,62605,1,0
240,120,62894,1,4
192,112,63086,5,4
256,192,75394,12,4,76548
96,80,76932,5,0
144,80,77125,1,8
240,80,77509,1,0
336,80,77894,2,2,B|336:160,3,70
256,328,79240,6,0,B|152:224,2,140,0|8|0
352,328,80394,1,8
352,232,80778,1,0
400,232,80971,6,2,B|400:152,2,70
256,192,81932,1,0
144,88,82509,1,8
96,88,82701,1,8
96,184,83086,6,0,B|96:272|112:280|112:280,1,70
192,296,83663,2,0,B|272:296,1,70,2|0
312,296,84048,2,0,B|384:296|392:248,3,70,0|2|2|0
328,136,85201,5,0
184,88,85778,1,0
136,88,85971,2,0,B|64:88,1,70,8|0
136,216,86740,6,2,B|224:232|264:192|296:192,1,140
320,192,87317,1,0
368,192,87509,1,0
256,192,87701,12,0,88855
80,72,89240,5,0
136,72,89432,1,8
232,72,89817,2,0,B|304:72,1,70
352,72,90201,2,2,B|352:176,3,70
352,288,91355,2,0,B|264:288,1,70
184,288,91932,1,8
184,192,92317,6,0,B|184:128|344:160|288:40,1,210,0|8
192,48,93278,2,2,B|112:64,1,70
256,192,93663,12,4,95009
408,88,95394,6,0,B|360:152,1,70
288,208,95971,2,0,B|224:248,1,70,2|0
176,248,96355,6,0,B|104:208,1,70
104,168,96740,1,2
104,120,96932,2,2,B|128:64|200:112|224:144|280:96|296:48|312:48|312:48,1,210
440,80,98086,5,0
432,128,98278,2,0,B|400:200,1,70
256,192,99048,12,4,101548
256,192,105009,5,0
256,192,105394,1,0
256,192,105778,1,0
256,288,106163,6,0,B|176:288,1,70
136,288,106548,2,0,B|120:216,1,70
112,168,106932,2,0,B|112:120|112:80,1,70,4|4
256,192,107509,12,2,109240
256,144,109625,5,0
256,144,109817,1,2
256,288,110394,1,4
