osu file format v5

[General]
AudioFilename: Hakurei Jinja.mp3
AudioLeadIn: 0
PreviewTime: -1
Countdown: 0
SampleSet: Normal
StackLeniency: 0.7
Mode: 0
LetterboxInBreaks: 1
EditorDistanceSpacing: 1.20000004768372

[Metadata]
Title:Hakurei Jinja
Artist:IOSYS
Creator:tieff
Version:Hard
Source:
Tags:

[Difficulty]
HPDrainRate:7
CircleSize:4
OverallDifficulty:8
SliderMultiplier:1.9
SliderTickRate:2

[Events]
//Background and Video events
0,0,"TouhouReimu.jpg"
Video,0,"Touhou.avi"
//Break Periods
2,101759,104271
//Storyboard Layer 0 (Background)
//Storyboard Layer 1 (Fail)
//Storyboard Layer 2 (Pass)
//Storyboard Layer 3 (Foreground)
//Storyboard Sound Samples
//Background Colour Transformations
3,100,163,162,255

[TimingPoints]
7702,384.615384615385,4,1,0,60,1,0
19925,-100,4,1,0,40,0,0
26175,-100,4,2,0,60,0,0
31464,-100,4,1,0,51,0,0
32233,-100,4,2,0,60,0,0
37425,-100,4,1,0,60,0,0
38483,-100,4,1,0,60,0,1
50694,-100,4,2,0,60,0,0
63002,-100,4,1,0,60,0,0
109925,-100,4,2,0,49,0,0
110310,-100,4,1,0,60,0,0

[Colours]
Combo1 : 255,255,89
Combo2 : 153,51,255
Combo3 : 83,169,255
Combo4 : 255,83,83

[HitObjects]
88,64,7702,1,0
88,128,7894,2,2,B|184:128,1,95,2|0
248,128,8278,2,0,B|248:240,2,95,0|2|2
384,128,9048,2,0,B|480:128|480:296,1,190,2|2
480,336,9625,2,0,B|368:336,1,95,0|2
352,336,9913,1,0
320,336,10009,2,0,B|208:336,1,95,2|2
224,64,10586,6,2,B|344:64|344:128|344:208|344:208,1,190
344,240,11163,1,2
408,240,11355,2,0,B|504:240,2,95,0|2|2
408,104,12125,2,2,B|408:56|344:32,1,95,2|0
288,32,12509,2,2,B|232:40|208:112,1,95,2|2
256,136,12894,2,2,B|216:208|144:184,1,95
120,208,13278,1,2
120,208,13375,1,2
120,208,13471,1,2
120,208,13663,1,2
120,272,13855,6,0,B|24:272,2,95,0|2|0
152,328,14432,1,0
184,272,14625,1,2
216,328,14817,1,2
336,272,15201,2,2,B|400:272|312:192|384:104,1,190
382,106,15778,1,2
312,104,15971,1,0
280,104,16067,1,0
248,104,16163,2,2,B|152:104,1,95
320,312,16740,5,2
408,208,17125,1,2
440,152,17317,1,0
440,88,17509,1,2
400,32,17702,2,0,B|360:72|304:24,1,95,2|2
184,32,18278,2,2,B|152:88|240:128|280:232,1,190
262,194,18855,1,0
304,248,19048,2,0,B|312:296|224:312,1,95,2|2
176,304,19432,1,0
152,280,19528,1,0
136,248,19625,2,2,B|128:176|72:176,1,95
80,112,20009,5,0
144,112,20202,2,0,B|144:40,2,47.5,0|0|8
208,112,20586,1,0
272,112,20778,1,0
336,112,20971,1,0
336,112,21067,1,0
336,112,21163,1,8
336,248,21548,5,0
272,248,21740,2,0,B|272:304,2,47.5,0|0|8
208,248,22125,1,0
208,248,22221,1,0
208,248,22317,1,0
144,248,22509,1,8
80,248,22702,1,0
80,112,23086,5,0
144,112,23278,1,0
144,112,23375,1,0
144,112,23471,1,8
432,248,23855,5,8
368,248,24048,1,0
368,248,24144,1,0
368,248,24240,1,8
232,248,24625,5,8
168,248,24817,1,0
136,248,24913,1,0
104,248,25009,1,8
104,184,25202,1,0
104,120,25394,1,8
104,56,25586,2,8,B|200:56,1,95
264,56,25971,1,0
264,56,26067,1,0
264,56,26163,6,0,B|400:56|400:208,1,190,4|8
328,176,26740,1,2
264,184,26932,1,0
200,192,27125,2,0,B|96:208,1,95,2|8
104,272,27509,2,0,B|208:256,1,95,2|0
264,248,27894,1,2
328,240,28086,1,8
392,224,28278,5,2
392,224,28375,1,8
392,160,28567,1,8
392,160,28663,1,2
392,96,28855,1,8
392,96,29048,1,0
392,96,29240,6,0,B|344:104|312:48,1,95,0|2
248,40,29625,2,0,B|200:80|240:152,1,95,8|2
264,184,30009,2,0,B|248:264|176:240,1,95,0|2
168,192,30394,1,8
112,152,30586,1,2
112,216,30778,6,0,B|120:272|176:304,1,95,0|2
224,288,31163,1,0
288,296,31355,1,2
352,288,31548,6,0,B|400:232|368:184,1,95
312,208,31932,2,0,B|296:160|336:112,1,95,0|0
360,56,32317,6,0,B|240:56|240:192,1,190,0|8
240,174,32894,2,8,B|232:256|192:336|120:312|112:264,1,190,0|2
112,232,33471,1,8
144,104,33855,5,0
264,56,34240,1,8
328,56,34432,2,8,B|440:56,1,95,8|0
424,120,34817,2,0,B|296:120,1,95,0|8
360,264,35394,5,0
304,304,35586,1,2
272,248,35778,2,0,B|200:176,1,95,8|2
168,232,36163,2,0,B|72:232,1,95,0|2
96,168,36548,2,8,B|160:96,1,95,8|2
208,48,36932,2,0,B|352:48,1,142.5,4|0
280,120,37509,5,0
280,152,37605,1,0
280,184,37702,1,0
352,264,37990,2,0,B|208:264,1,142.5
144,264,38471,5,4
144,200,38663,2,0,B|144:96,1,95,2|0
144,40,39048,2,0,B|216:48|232:136,2,95,0|2|2
272,48,39817,1,2
408,48,40202,1,2
408,112,40394,1,2
408,176,40586,1,2
408,208,40682,1,0
408,240,40778,1,0
408,304,40971,1,2
272,312,41355,6,0,B|224:264|264:208,1,95,0|2
280,168,41740,2,0,B|304:136|256:56,1,95,0|2
216,120,42125,2,2,B|192:192|104:152,2,95,0|2|2
88,96,42894,2,2,B|136:48|216:16|304:72,1,190
262,51,43471,1,2
320,88,43663,2,2,B|360:128,2,47.5
272,136,44048,1,0
248,160,44144,1,0
224,184,44240,1,2
224,184,44432,1,0
168,224,44625,5,0
200,280,44817,1,2
168,336,45009,1,0
200,280,45201,2,0,B|240:248|312:288,2,95,2|2|0
80,224,45971,5,2
80,88,46355,2,0,B|128:48|216:80,1,95,0|2
232,72,46740,1,2
264,72,46836,1,0
296,72,46932,1,0
360,72,47125,1,2
360,200,47509,6,2,B|360:280|224:328,1,190
232,324,48086,1,0
232,324,48278,2,2,B|168:344|112:328,2,95
216,192,49048,5,2
184,64,49432,1,0
216,64,49528,1,0
248,64,49625,2,0,B|352:64,1,95,2|2
408,64,50009,1,0
408,128,50201,1,0
408,160,50298,1,0
408,192,50394,2,2,B|408:296,1,95
344,288,50778,6,0,B|272:216,1,95,4|2
224,184,51163,2,0,B|152:272,1,95,8|2
96,248,51548,2,0,B|56:128,1,95,0|2
56,88,51932,2,0,B|160:40,1,95,8|2
208,48,52317,5,0
208,48,52509,1,2
272,48,52701,1,8
336,48,52894,5,0
336,48,52990,1,8
400,48,53182,1,8
400,48,53278,1,0
400,48,53471,2,0,B|400:160,1,95,8|2
400,208,53855,6,0,B|336:296,1,95,0|2
344,284,54240,1,8
344,284,54432,1,2
280,288,54625,2,0,B|224:208,1,95,0|2
225,210,55009,1,8
225,210,55105,1,0
225,210,55201,1,0
160,208,55394,5,4
128,208,55490,1,0
96,208,55586,1,0
96,144,55778,1,4
96,112,55875,1,0
96,80,55971,1,0
160,80,56163,1,4
192,80,56259,1,0
224,80,56355,1,4
288,80,56548,1,4
320,80,56644,1,0
352,80,56740,1,4
384,80,56836,1,0
416,80,56932,6,0,B|472:160,1,95,4|2
456,224,57317,1,8
400,184,57509,1,2
400,248,57701,2,0,B|304:280,1,95,0|2
264,224,58086,1,8
232,280,58278,1,2
192,224,58471,6,0,B|104:176,1,95,4|2
152,128,58855,2,0,B|240:80,1,95,8|2
272,136,59240,2,4,B|416:136,2,142.5,4|0|0
272,200,60009,5,4
328,232,60201,1,2
288,288,60394,1,8
232,256,60586,1,2
192,312,60778,1,0
248,344,60971,1,2
288,288,61163,2,0,B|360:336|400:320,1,95,8|2
408,264,61548,5,4
416,232,61644,1,0
416,200,61740,1,2
408,168,61836,1,0
400,136,61932,1,8
352,88,62125,1,2
288,88,62317,2,0,B|240:88,4,47.5,4|0|0|0|8
288,88,62894,1,0
288,152,63086,6,0,B|288:208|224:232,1,95
224,160,63471,1,8
176,112,63663,1,0
168,48,63855,2,0,B|96:72|88:144,1,95
88,176,64240,1,8
136,224,64432,2,2,B|208:272|320:224,1,190
317,224,65009,1,2
317,224,65201,1,0
368,184,65394,6,2,B|416:144|416:96,1,95
352,80,65778,1,0
304,128,65971,6,2,B|256:184|160:192|160:256,1,190
160,245,66548,1,8
208,288,66740,1,0
272,296,66932,2,0,B|328:272|360:232,1,95,2|0
392,192,67317,1,8
424,136,67509,2,2,B|416:80|264:40,1,190,2|0
268,41,68086,1,8
200,40,68278,1,0
136,40,68471,5,0
136,40,68567,1,8
136,104,68759,1,0
136,104,68855,2,0,B|136:216,1,95,8|0
136,264,69240,5,0
200,248,69432,1,2
224,184,69625,1,8
288,160,69817,1,2
288,160,70009,1,2
352,144,70201,1,0
376,80,70394,1,8
440,56,70586,2,2,B|472:136|448:224|424:264,1,190
435,241,71163,1,8
392,288,71355,1,0
328,320,71548,5,8
328,320,71644,1,0
264,296,71836,1,0
264,296,71932,1,8
200,272,72125,6,0,B|128:192|200:96,1,190,2|0
256,64,72701,1,8
320,64,72894,2,2,B|376:104|360:176,1,95
363,144,73278,1,0
344,208,73471,1,8
344,272,73663,2,2,B|440:280|448:128,1,190
447,140,74240,1,8
400,88,74432,1,0
336,64,74625,5,0
336,64,74721,1,8
272,64,74913,1,0
272,64,75009,2,0,B|160:64,1,95,8|0
256,192,75394,12,4,76548
80,72,76932,5,2
144,72,77125,2,0,B|336:72,1,190,0|2
400,72,77701,2,0,B|496:72,1,95,8|2
488,136,78086,2,0,B|464:200|384:200,1,95,0|2
419,196,78471,1,0
384,248,78663,5,2
328,280,78855,1,0
272,248,79048,1,2
272,248,79144,1,0
240,192,79336,1,0
240,192,79432,1,2
216,128,79625,1,2
160,88,79817,1,2
96,128,80009,6,0,B|64:184|112:248,1,95
94,218,80394,2,2,B|168:280|248:304|272:280,1,190
328,280,80971,2,0,B|432:280,2,95,2|2|0
328,216,81548,5,0
328,152,81740,1,2
264,152,81932,1,0
264,216,82125,1,0
264,248,82221,1,2
264,312,82413,1,2
296,312,82509,1,0
360,296,82701,2,2,B|424:296|448:248,1,95
442,257,83086,6,0,B|464:200|440:136,1,95
408,112,83471,1,8
344,88,83663,2,2,B|288:64|216:104,1,95
192,120,84048,1,0
192,120,84240,2,0,B|216:184|144:232,2,95,8|0|2
256,120,84817,5,0
288,248,85009,1,2
424,248,85201,1,0
424,248,85298,1,2
392,120,85490,1,2
392,120,85586,1,0
256,120,85778,2,2,B|240:56|184:80,1,95
187,78,86163,5,0
120,192,86548,1,8
136,256,86740,2,2,B|240:272|304:304|328:240|328:240|328:240,1,190
318,254,87317,1,0
360,200,87509,1,0
360,136,87701,5,0
328,136,87798,1,0
296,136,87894,1,0
264,136,87990,1,0
232,136,88086,1,0
200,136,88182,1,0
168,136,88278,1,0
136,136,88375,1,0
104,136,88471,2,0,B|56:136,8,47.5,0|0|0|0|0|0|0|0|4
104,200,89432,5,0
72,256,89625,1,8
136,256,89817,1,0
168,200,90009,1,0
200,256,90201,1,0
232,200,90394,1,8
264,256,90586,1,0
296,200,90778,5,0
360,200,90971,2,2,B|360:96,1,95
360,40,91355,1,0
328,40,91451,1,2
264,40,91644,1,0
232,40,91740,1,0
200,40,91836,1,2
168,40,91932,1,2
104,40,92125,1,0
104,104,92317,6,2,B|104:168|200:152|264:184|216:248,1,190,2|8
229,222,92894,1,0
360,224,93278,2,2,B|360:112,2,95,2|8|2
360,288,93855,5,0
328,288,93951,1,0
328,320,94048,1,0
360,320,94144,1,0
360,352,94240,1,2
424,352,94432,2,0,B|424:304,1,47.5,2|0
424,240,94721,2,0,B|424:192,1,47.5,0|2
456,136,95009,2,2,B|352:136,1,95,2|0
296,136,95394,6,0,B|248:104|208:104|192:152,1,95
240,184,95778,1,8
192,232,95971,1,2
136,264,96163,2,0,B|80:224|96:168,1,95
80,120,96548,2,0,B|64:64|40:32,2,95,8|0|8
144,120,97125,5,2
168,96,97221,1,0
200,80,97317,1,0
232,80,97413,1,0
264,80,97509,1,0
296,72,97605,1,2
360,72,97798,1,2
392,72,97894,1,0
456,96,98086,2,0,B|448:200,1,95
432,256,98471,6,0,B|328:328,1,95,0|2
344,240,98855,1,8
280,216,99048,2,2,B|192:184|136:160|64:136,1,190
144,96,99625,2,0,B|240:72,1,95,0|2
304,72,100009,6,2,B|272:24,3,47.5,2|0|0|0
240,32,100394,6,0,B|168:24,3,47.5
160,24,100778,6,0,B|96:40,8,47.5,0|0|0|0|0|0|0|0|4
256,320,105009,5,0
32,80,105394,1,0
480,80,105778,1,0
96,64,106163,5,4
208,64,106355,1,0
208,176,106548,1,4
320,176,106740,2,0,B|400:176|400:240,1,95,0|4
392,104,107125,1,4
256,192,107509,12,4,109240
112,64,109432,5,0
224,64,109625,2,0,B|224:192,1,95
224,272,110009,6,2,B|224:312,4,23.75
336,272,110394,5,4
