osu file format v5

[General]
AudioFilename: Hakurei Jinja.mp3
AudioLeadIn: 0
PreviewTime: 76938
Countdown: 1
SampleSet: Normal
StackLeniency: 0.7
Mode: 0
LetterboxInBreaks: 1
EditorBookmarks: 7729,26190,44652,50805,76959,95421,101575

[Metadata]
Title:Hakurei Jinja
Artist:IOSYS
Creator:-SiN-
Version:Lunatic
Source:Touhou Project
Tags:IOSYS, Hakurei, Jinja, Touhou

[Difficulty]
HPDrainRate:8
CircleSize:6
OverallDifficulty:8
SliderMultiplier:1.5
SliderTickRate:1

[Events]
//Background and Video events
0,0,"All-th10.jpg"
//Break Periods
2,38682,40424
2,91752,94198
//Storyboard Layer 0 (Background)
4,0,0,"info.png",0,280 F,0,0,12000,0,1 F,0,20000,30000,1,0
//Storyboard Layer 1 (Failing)
//Storyboard Layer 2 (Passing)
//Storyboard Layer 3 (Foreground)
//Storyboard Sound Samples
//Background Colour Transformations
3,100,0,0,0

[TimingPoints]
7714,384.615384615385,4,1,0,80,1

[HitObjects]
440,64,7714,1,0
400,128,7906,1,0
400,200,8098,1,0
352,256,8290,1,0
272,256,8483,2,0,B|184:256,1,75,0|0
128,120,9060,6,0,B|196:72|280:80,1,150,0|0
304,144,9637,1,0
352,88,9829,1,0
400,144,10021,1,0
352,200,10214,1,0
200,200,10598,6,0,B|104:80,1,150
184,88,11175,1,0
248,128,11367,1,0
312,88,11560,1,0
248,48,11752,1,0
400,48,12137,2,0,B|429:129|312:152,1,150
248,168,12714,1,0
176,200,12906,1,0
104,168,13098,1,0
176,144,13290,1,0
176,64,13483,1,4
328,64,13867,5,0
296,128,14060,1,0
328,192,14252,2,0,B|376:120,1,75,0|0
328,192,14637,1,0
296,128,14829,1,0
328,272,15214,2,0,B|421:272|480:232,1,150
456,312,15790,2,0,B|416:376|384:376,3,75,0|0|0|0
264,312,16752,5,0
112,312,17137,1,0
88,240,17329,1,0
136,184,17521,1,0
112,112,17714,2,0,B|140:199,1,75
288,184,18290,1,0
440,184,18675,2,0,B|376:232,1,75
320,272,19060,2,0,B|376:360,1,75
424,296,19444,2,0,B|496:240,1,75,0|0
483,174,19829,1,0
408,176,20021,5,0
360,240,20214,1,0
320,248,20310,1,0
296,216,20406,1,8
328,152,20598,2,0,B|360:72,1,75
288,40,20983,1,0
216,40,21175,1,8
64,48,21560,5,0
112,96,21752,1,0
144,88,21848,1,0
168,112,21944,1,8
112,160,22137,1,0
64,216,22329,1,0
112,264,22521,2,0,B|184:312,1,75,0|8
256,176,23098,5,0
304,224,23290,1,0
344,224,23387,1,0
368,200,23483,1,8
448,72,23867,5,0
472,144,24060,1,0
456,176,24156,1,0
448,208,24252,1,8
360,328,24637,5,0
288,312,24829,1,0
272,280,24925,1,0
240,296,25021,1,8
160,296,25214,1,0
88,296,25406,1,0
120,232,25598,1,0
128,192,25694,1,8
160,176,25790,1,8
232,176,25983,1,8
272,176,26079,1,0
232,176,26175,6,0,B|200:80|360:24|320:192|320:192|472:160,1,375
464,240,27329,1,0
408,288,27521,1,0
328,288,27714,2,0,B|216:256|176:232|168:176|216:120,2,225
176,288,29252,6,0,B|31:289|112:112,1,225
328,128,30406,1,0
392,160,30598,1,0
456,192,30790,1,0
176,312,31560,5,0
144,248,31752,1,0
168,176,31944,1,0
120,112,32137,1,0
192,112,32329,2,0,B|344:112,1,150
416,120,32906,2,0,B|376:200|296:184|200:184,1,225
256,40,33867,1,0
88,288,34637,6,0,B|72:168,1,112.5
72,64,35214,1,0
144,64,35406,2,0,B|144:304,1,225
424,40,36944,6,0,B|320:40|320:88,1,112.5
320,184,37521,1,0
392,184,37714,2,0,B|320:280,1,112.5
216,240,38290,1,0
168,296,38483,1,0
256,192,41175,12,0,42521
256,192,42714,12,4,44060
64,296,44637,5,0
64,224,44829,1,0
128,264,45021,1,0
128,336,45214,1,0
192,296,45406,2,0,B|256:216,1,75
240,88,45983,2,0,B|301:92|376:192,1,150,0|0
360,248,46560,2,0,B|403:212|456:216,3,75
424,64,47521,6,0,B|264:104,1,150
288,176,48098,1,0
352,216,48290,1,0
424,216,48483,2,0,B|424:296,1,75
272,288,49060,2,0,B|295:180|248:112,1,150,0|0
184,144,49637,1,0
128,96,49829,1,0
72,152,50021,1,0
80,224,50214,2,0,B|160:208,1,75
184,144,50598,1,0
184,72,50790,6,0,B|75:159|168:260|168:260|314:132|324:308|400:272,1,450
448,272,52137,2,0,B|400:192,1,75
256,48,52906,1,0
120,232,53483,5,0
136,80,53867,1,0
344,160,54444,1,0
136,80,55021,1,0
168,144,55214,1,0
112,192,55406,1,4
392,304,56175,5,0
336,248,56367,1,0
288,304,56560,1,0
336,248,56752,1,0
288,304,56944,2,0,B|188:312|132:264|248:216|280:168,2,225
392,192,58483,1,0
112,304,59252,5,0
96,192,59540,1,0
152,96,59829,1,0
224,64,60021,1,0
296,64,60214,1,0
152,96,60598,1,0
440,344,61560,6,0,B|496:316|496:240,1,112.5
384,256,62137,1,0
384,184,62329,2,0,B|304:184|304:104,2,112.5
304,184,63098,1,0
232,184,63290,1,0
264,248,63483,2,0,B|264:319|144:319,2,150
264,176,64444,2,0,B|335:176|335:296,2,150
184,176,65406,5,8
120,128,65598,1,8
184,88,65790,1,8
248,48,65983,6,0,B|360:160,1,150
304,208,66560,1,0
368,240,66752,1,0
440,240,66944,2,0,B|456:283|440:320,1,75
368,312,67329,1,0
296,280,67521,1,0
144,280,67906,2,0,B|224:280,1,75
352,216,68483,5,8
400,160,68675,1,8
328,152,68867,1,8
176,176,69252,6,0,B|168:88,1,75
224,48,69637,1,0
296,48,69829,1,0
344,104,70021,2,0,B|336:192,1,75
264,200,70406,1,0
264,128,70598,1,0
264,280,70983,2,0,B|184:280,1,75,0|0
336,280,71560,5,8
336,352,71752,1,8
336,280,71944,1,8
408,280,72137,6,0,B|464:233|408:136,1,150
336,144,72714,2,0,B|304:197|328:248,1,75
249,244,73098,2,0,B|329:212,1,75
280,280,73483,2,0,B|232:352,1,75
256,192,74060,5,0
256,192,74252,2,0,B|152:190|184:60|276:39|408:84|438:160|419:292|321:365|190:348|137:304|76:204|78:119|136:69|248:40,1,825,0|4
144,248,76944,6,0,B|115:297|175:329,1,75
232,312,77329,1,8
376,312,77714,2,0,B|408:280|360:248,1,75
288,248,78098,1,8
152,312,78483,2,0,B|219:369|245:229,3,150,0|8|0|8
320,240,79829,1,0
392,240,80021,2,0,B|443:179|368:88,2,150,0|8|0
352,176,80983,1,0
280,176,81175,1,8
128,176,81560,1,0
89,111,81752,1,0
163,111,81944,1,8
312,112,82329,1,0
384,112,82521,1,8
344,48,82714,1,8
192,40,83098,6,0,B|152:73|208:120,1,75
264,104,83483,1,8
400,48,83867,2,0,B|440:74|400:112,1,75
328,104,84252,1,8
328,256,84637,2,0,B|217:262|288:160,3,150,0|8|0|8
360,168,85983,1,0
432,168,86175,1,0
400,312,86560,1,8
248,312,86944,1,0
248,160,87329,1,8
104,192,87714,5,0
176,192,87906,1,0
136,128,88098,1,8
208,128,88290,1,0
248,192,88483,1,0
288,128,88675,1,8
328,192,88867,1,8
256,192,89252,12,4,91560
440,152,95406,5,0
376,120,95598,1,0
304,120,95790,2,0,B|188:104|304:208,1,150,8|0
368,200,96367,1,0
424,256,96560,1,0
360,288,96752,1,0
304,240,96944,2,0,B|264:200|152:216,1,150,0|8
160,288,97521,1,0
304,240,97906,5,0
360,192,98098,1,0
384,120,98290,1,0
304,120,98483,2,0,B|240:64|88:100|120:288,1,300
256,192,99540,12,0,100790
184,72,101560,6,0,B|112:144,1,75
128,280,102137,2,2,B|200:352,1,75
328,328,102714,2,0,B|400:256,1,75
376,128,103290,2,2,B|304:56,1,75
232,192,103867,2,6,B|164:192|164:192|189:112|189:112|257:173|324:113|324:113|344:190|344:190|272:192,1,450
256,40,105406,5,0
256,192,105790,1,0
256,344,106175,1,0
256,272,106367,1,0
256,192,106560,1,0
192,144,106752,1,0
256,104,106944,1,0
320,144,107137,1,0
256,192,107329,12,0,108483
256,88,109156,5,0
256,88,109252,1,0
216,152,109444,1,0
296,152,109637,1,0
256,88,109829,2,4,B|256:320,1,225
