osu file format v5

[General]
AudioFilename: IOSYS-F.O.E..mp3
AudioLeadIn: 0
PreviewTime: -1
Countdown: 1
SampleSet: Normal
StackLeniency: 0.2
Mode: 0
LetterboxInBreaks: 1

[Editor]
Bookmarks: 37503,38503,39170,47169,48335
DistanceSpacing: 0.800000011920929
BeatDivisor: 4
GridSize: 8

[Metadata]
Title:F.O.E.
Artist:IOSYS
Creator:HenkieBP
Version:Insane
Source:
Tags:

[Difficulty]
HPDrainRate:8
CircleSize:6
OverallDifficulty:8
SliderMultiplier:2
SliderTickRate:1

[Events]
//Background and Video events
0,0,"etrianII_800_wallpaper09A.jpg"
Video,-2800,"IOSYS - FOE English Subbed.avi"
//Break Periods
2,57368,59751
//Storyboard Layer 0 (Background)
//Storyboard Layer 1 (Fail)
//Storyboard Layer 2 (Pass)
//Storyboard Layer 3 (Foreground)
//Storyboard Sound Samples
//Background Colour Transformations
3,100,39,84,167

[TimingPoints]
1841,333.296300411065,4,1,0,100,1,0
28921,-100,4,1,0,50,0,0
29254,-100,4,1,0,100,0,0
29921,-100,4,1,0,50,0,0
30254,-100,4,1,0,100,0,0
31587,-100,4,1,0,50,0,0
31920,-100,4,1,0,100,0,0
32587,-100,4,1,0,50,0,0
32920,-100,4,1,0,100,0,0
34254,-100,4,1,0,50,0,0
34587,-100,4,1,0,100,0,0
35253,-100,4,1,0,50,0,0
35587,-100,4,1,0,100,0,0
36920,-100,4,1,0,50,0,0
37253,-100,4,1,0,100,0,0
37753,-100,4,1,0,50,0,0
38420,-100,4,1,0,100,0,0
38586,-100,4,1,0,50,0,0
38836,-100,4,1,0,100,0,0
38920,-100,4,1,0,50,0,0
39170,-100,4,1,0,100,0,0
52752,-100,4,1,1,100,0,0
52918,-100,4,1,0,100,0,0
81248,-100,4,1,0,50,0,0
81498,-100,4,1,0,60,0,0
81582,-100,4,1,0,70,0,0
81665,-100,4,1,0,80,0,0
81748,-100,4,1,0,90,0,0
81832,-100,4,1,0,100,0,0
82248,-100,4,1,0,50,0,0
82582,-100,4,1,0,100,0,0
83248,-100,4,1,0,50,0,0
83581,-100,4,1,0,100,0,0
84915,-100,4,1,0,50,0,0
85248,-100,4,1,0,100,0,0
85914,-100,4,1,0,50,0,0
86248,-100,4,1,0,100,0,0
87581,-100,4,1,0,50,0,0
87914,-100,4,1,0,100,0,0
88581,-100,4,1,0,50,0,0
88914,-100,4,1,0,100,0,0
90247,-100,4,1,0,50,0,0
90581,-100,4,1,0,100,0,0
91081,-100,4,1,0,50,0,0
91747,-100,4,1,0,100,0,0
91914,-100,4,1,0,50,0,0
92164,-100,4,1,0,100,0,0
92247,-100,4,1,0,50,0,0
92497,-100,4,1,0,100,0,0

[Colours]
Combo1 : 138,30,30
Combo2 : 206,103,0
Combo3 : 3,3,148
Combo4 : 0,128,64

[HitObjects]
256,192,507,12,4,1840
256,192,2174,5,4
256,32,2507,1,4
176,48,2674,1,8
104,88,2840,1,0
64,160,3007,1,0
104,232,3174,1,12
256,192,3507,5,4
256,32,3840,1,4
336,48,4007,1,8
408,88,4173,1,0
448,160,4340,1,0
408,232,4507,1,12
256,192,4840,5,4
256,352,5173,1,4
216,280,5340,1,8
296,280,5507,1,0
336,208,5673,1,0
256,192,5840,1,12
256,32,6173,5,4
256,192,6507,1,4
176,208,6673,1,8
216,280,6840,1,0
296,280,7007,1,0
256,352,7173,1,12
96,352,7507,5,4
56,192,7840,1,4
120,144,8006,1,8
104,64,8173,1,0
176,40,8340,1,0
256,32,8506,1,12
416,32,8840,5,4
456,192,9173,1,4
392,240,9339,1,8
408,320,9506,1,0
336,344,9673,1,0
256,352,9839,1,12
256,192,10173,5,4
256,32,10506,1,4
232,112,10673,1,8
256,192,10840,1,0
280,272,11006,1,0
256,352,11172,1,12
256,192,11506,5,4
256,352,11839,1,4
232,272,12006,1,8
256,192,12172,1,0
280,112,12339,1,0
256,32,12506,5,6
120,112,12839,1,0
120,272,13173,1,2
256,352,13506,1,0
392,272,13839,1,6
392,112,14172,1,4
256,192,14506,1,6
120,272,14839,1,0
256,192,15172,5,2
176,192,15339,1,8
176,112,15505,1,0
256,88,15672,1,0
336,112,15839,1,10
360,192,16006,1,0
336,272,16172,1,0
256,296,16339,1,8
176,272,16506,5,6
336,272,16839,1,4
336,112,17172,1,6
176,112,17505,1,0
32,192,17839,5,2
176,272,18172,1,0
32,192,18505,5,2
48,112,18672,1,8
104,56,18839,1,0
184,40,19006,1,0
256,72,19172,5,14
256,72,19505,1,4
256,72,19839,1,6
256,360,20505,5,2
336,344,20672,1,8
328,264,20839,1,0
408,272,21006,1,0
424,192,21172,1,10
408,112,21338,1,0
328,120,21505,1,0
336,40,21672,1,8
256,24,21838,5,6
256,24,22172,1,4
256,24,22505,1,6
256,192,22838,1,0
256,192,23171,5,2
176,168,23338,1,8
232,112,23504,1,0
256,192,23671,1,0
280,272,23838,5,10
336,216,24004,1,0
256,192,24171,1,0
200,248,24338,1,8
144,304,24505,5,6
144,304,24838,1,4
144,304,25171,1,6
440,192,25838,5,2
488,128,26004,1,8
440,64,26171,1,0
288,128,26504,1,10
144,192,26838,1,0
96,128,27004,1,8
144,64,27171,1,6
288,128,27504,5,4
288,128,27838,1,6
256,192,27921,12,6,28504
256,192,28671,5,4
216,32,29004,1,4
296,32,29171,1,4
400,152,29504,1,4
400,232,29671,1,4
296,352,30004,1,4
216,352,30171,1,4
256,192,30504,5,4
96,192,30837,1,4
256,192,31171,1,4
256,192,31337,5,4
216,352,31671,1,4
296,352,31837,1,4
400,232,32170,1,4
400,152,32337,1,4
296,32,32670,1,4
216,32,32837,1,4
256,192,33170,5,4
96,192,33504,1,4
96,32,33837,5,4
72,112,34004,1,4
72,272,34337,1,4
96,352,34504,1,4
96,192,34837,5,4
176,192,35003,1,4
336,192,35337,1,4
416,192,35503,1,4
416,32,35837,5,4
416,192,36170,1,4
424,352,36503,5,4
448,272,36670,1,4
448,112,37003,1,4
416,32,37170,1,4
416,192,37503,5,4
336,192,37670,1,4
256,192,37837,1,4
216,176,38003,1,4
176,192,38170,1,4
136,208,38336,1,4
96,192,38503,5,4
80,184,38586,1,4
72,168,38669,1,4
80,152,38752,1,4
96,144,38836,5,4
112,136,38919,1,4
120,120,39002,1,4
112,104,39086,1,4
96,96,39170,6,0,B|34:73|34:65|140:35,1,100,6|0
176,64,39503,1,8
256,48,39670,1,0
336,32,39836,1,2
416,48,40003,1,0
464,112,40170,2,0,B|441:174|433:174|403:68,1,100,8|0
336,96,40503,5,6
336,256,40836,1,12
464,352,41169,1,6
464,192,41503,1,12
464,352,41836,5,2
384,328,42003,1,0
304,352,42169,1,8
224,328,42336,2,0,B|201:266|193:266|163:372,1,100,4|2
176,328,42669,1,0
104,288,42836,2,0,B|81:350|73:350|43:244,1,100,12|0
56,208,43169,5,6
160,80,43503,1,12
256,208,43836,1,6
352,80,44169,5,12
424,48,44336,1,0
472,112,44502,1,2
472,272,44836,1,8
424,336,45002,1,2
256,352,45336,5,0
280,272,45502,1,10
256,192,45669,1,0
256,112,45836,5,6
104,48,46169,1,12
40,192,46502,1,6
104,336,46836,1,12
168,192,47169,6,0,B|288:200,1,100,2|0
344,200,47502,2,0,B|456:208,1,100,8|0
488,280,47835,2,0,B|384:288,1,100,2|0
304,288,48169,2,0,B|192:296,1,100,8|0
256,352,48502,5,6
256,192,48835,1,12
256,32,49169,1,6
256,352,49835,5,6
96,336,50168,1,12
24,192,50502,1,6
96,48,50835,2,0,B|136:152,1,100,8|0
208,136,51168,5,6
256,72,51335,1,4
304,136,51502,1,12
256,288,51835,1,6
400,352,52168,5,8
456,288,52335,1,0
400,232,52502,6,4,B|504:64|504:64|296:64,1,400,6|6
301,64,53501,1,12
304,224,53835,5,6
232,168,54001,2,0,B|120:88,1,100,4|12
24,216,54501,1,6
176,248,54835,5,8
176,248,55001,1,0
176,328,55168,5,2
176,328,55501,1,8
176,328,55835,1,2
256,192,56168,5,8
288,120,56334,1,0
336,56,56501,5,6
408,24,56668,1,4
480,56,56834,1,12
408,192,57168,1,6
256,192,60501,5,4
256,192,60584,12,4,61834
256,192,61917,12,4,63167
256,192,63250,12,4,64500
256,192,64584,12,4,65500
256,352,65833,5,6
336,328,66000,1,8
392,272,66166,1,0
416,192,66333,1,0
392,112,66500,5,10
256,32,66833,1,0
176,48,67000,1,0
120,112,67166,5,6
120,272,67499,1,4
256,192,67833,1,6
392,112,68166,1,0
256,192,68499,5,2
336,192,68666,1,8
336,272,68832,1,0
256,296,68999,1,0
176,272,69166,1,10
152,192,69333,1,0
176,112,69499,1,0
256,88,69666,1,8
336,112,69833,5,6
176,112,70166,1,4
176,272,70499,1,6
336,272,70832,1,0
336,40,71333,5,2
408,64,71499,1,8
464,120,71666,1,0
480,192,71832,1,2
464,272,71999,1,8
408,328,72166,1,0
328,344,72333,1,0
256,312,72499,5,14
256,312,72832,1,4
256,312,73166,1,6
256,24,73832,5,2
176,40,73999,1,8
184,120,74166,1,0
104,112,74333,1,0
88,192,74499,1,10
104,272,74665,1,0
184,264,74832,1,0
176,344,74999,1,8
256,360,75165,5,6
256,360,75499,1,4
256,360,75832,1,6
256,192,76165,1,0
256,192,76498,5,2
336,216,76665,1,8
280,272,76831,1,0
256,192,76998,1,0
232,112,77165,5,10
176,168,77331,1,0
256,192,77498,1,0
312,136,77665,1,8
368,80,77832,5,6
368,80,78165,1,4
368,80,78498,1,6
64,192,79165,5,6
160,112,79332,5,12
256,192,79499,5,6
352,272,79666,5,12
448,192,79833,5,6
320,192,79999,5,12
192,192,80165,5,6
448,192,80498,5,6
408,80,80665,5,12
288,56,80832,5,6
168,80,80998,5,12
128,192,81165,5,14
120,208,81248,1,4
112,224,81332,1,4
104,240,81415,1,4
96,256,81498,5,4
104,272,81582,1,4
112,288,81665,1,4
120,304,81748,1,4
128,320,81832,1,6
56,352,81998,1,4
216,352,82332,5,4
296,352,82499,1,4
400,232,82832,1,4
400,152,82999,1,4
296,32,83332,1,4
216,32,83499,1,4
256,192,83832,5,4
96,192,84165,1,4
256,192,84499,1,4
256,192,84665,5,4
296,32,84999,1,4
216,32,85165,1,4
112,152,85498,1,4
112,232,85665,1,4
216,352,85998,1,4
296,352,86165,1,4
256,192,86498,5,4
416,192,86832,1,4
416,352,87165,5,4
440,272,87332,1,4
440,112,87665,1,4
416,32,87832,1,4
416,192,88165,5,4
336,192,88331,1,4
176,192,88665,1,4
96,192,88831,1,4
96,352,89165,5,4
96,192,89498,1,4
88,32,89831,5,4
64,112,89998,1,4
64,272,90331,1,4
96,352,90498,1,4
96,192,90831,5,4
176,192,90998,1,4
256,192,91165,1,4
264,152,91331,1,4
248,112,91498,1,4
256,72,91664,1,4
264,32,91831,5,4
280,32,91914,1,4
296,40,91997,1,4
312,40,92080,1,4
328,48,92164,5,4
344,48,92247,1,4
360,56,92330,1,4
376,56,92414,1,4
392,64,92497,6,4,B|480:128,1,100,6|4
472,200,92830,1,0
472,280,92997,1,0
472,360,93164,6,4,B|384:296,1,100,6|4
392,224,93497,1,0
392,144,93664,1,0
320,184,93830,5,6
160,200,94164,1,4
264,328,94497,1,6
56,88,95163,6,4,B|56:320,1,200,6|4
16,136,95830,6,4,B|16:368,1,200,6|4
176,328,96497,5,6
256,192,96830,1,4
336,56,97163,1,6
456,296,97830,6,4,B|456:64,1,200,6|4
496,248,98497,6,4,B|496:16,1,200,6|4
336,56,99164,5,6
256,192,99497,1,4
176,328,99830,1,6
56,32,100496,5,6
112,184,100830,1,4
256,248,101163,1,6
400,184,101496,1,4
456,32,101829,5,6
312,96,102162,1,4
168,32,102495,1,6
256,352,103163,5,2
256,192,103496,5,4
256,352,103829,1,6
336,336,103996,1,8
408,296,104162,1,0
448,224,104329,1,0
408,152,104496,1,14
256,192,104829,5,4
256,32,105162,1,6
296,104,105329,1,8
216,104,105496,1,0
176,176,105662,1,0
256,192,105829,1,14
256,352,106162,5,4
256,192,106496,1,6
336,176,106662,1,8
296,104,106829,1,0
216,104,106996,1,0
256,32,107162,1,14
416,32,107495,5,4
456,192,107828,1,6
392,240,107994,1,8
408,320,108161,1,0
336,344,108328,1,0
256,352,108494,1,14
256,192,108829,5,4
256,352,109162,1,6
280,272,109329,1,8
256,192,109496,1,0
232,112,109662,1,0
256,32,109828,1,14
256,192,109912,12,4,110828
280,192,110995,5,4
320,192,111162,5,4
256,192,111245,12,4,112162
232,192,112328,5,4
192,192,112495,1,4
256,192,112578,12,4,113495
256,192,113661,5,4
256,192,113828,1,4
