osu file format v5

[General]
AudioFilename: IOSYS-F.O.E..mp3
AudioLeadIn: 0
PreviewTime: -1
Countdown: 1
SampleSet: Normal
StackLeniency: 0.2
Mode: 0
LetterboxInBreaks: 1

[Editor]
Bookmarks: 37503,38503,39170,47169,48335
DistanceSpacing: 0.800000011920929
BeatDivisor: 4
GridSize: 8

[Metadata]
Title:F.O.E.
Artist:IOSYS
Creator:HenkieBP
Version:Hard
Source:
Tags:

[Difficulty]
HPDrainRate:6
CircleSize:5
OverallDifficulty:6
SliderMultiplier:1.8
SliderTickRate:1

[Events]
//Background and Video events
0,0,"etrianII_800_wallpaper09A.jpg"
Video,-2800,"IOSYS - FOE English Subbed.avi"
//Break Periods
2,57368,59751
//Storyboard Layer 0 (Background)
//Storyboard Layer 1 (Fail)
//Storyboard Layer 2 (Pass)
//Storyboard Layer 3 (Foreground)
//Storyboard Sound Samples
//Background Colour Transformations
3,100,39,84,167

[TimingPoints]
1841,333.296300411065,4,1,0,100,1,0
28921,-100,4,1,0,50,0,0
29254,-100,4,1,0,100,0,0
29921,-100,4,1,0,50,0,0
30254,-100,4,1,0,100,0,0
31587,-100,4,1,0,50,0,0
31920,-100,4,1,0,100,0,0
32587,-100,4,1,0,50,0,0
32920,-100,4,1,0,100,0,0
34254,-100,4,1,0,50,0,0
34587,-100,4,1,0,100,0,0
35253,-100,4,1,0,50,0,0
35587,-100,4,1,0,100,0,0
36920,-100,4,1,0,50,0,0
37253,-100,4,1,0,100,0,0
37753,-100,4,1,0,50,0,0
38420,-100,4,1,0,100,0,0
38586,-100,4,1,0,50,0,0
38836,-100,4,1,0,100,0,0
38920,-100,4,1,0,50,0,0
39170,-100,4,1,0,100,0,0
52752,-100,4,1,1,100,0,0
52918,-100,4,1,0,100,0,0
81248,-100,4,1,0,50,0,0
81498,-100,4,1,0,60,0,0
81582,-100,4,1,0,70,0,0
81665,-100,4,1,0,80,0,0
81748,-100,4,1,0,90,0,0
81832,-100,4,1,0,100,0,0
82248,-100,4,1,0,50,0,0
82582,-100,4,1,0,100,0,0
83248,-100,4,1,0,50,0,0
83581,-100,4,1,0,100,0,0
84915,-100,4,1,0,50,0,0
85248,-100,4,1,0,100,0,0
85914,-100,4,1,0,50,0,0
86248,-100,4,1,0,100,0,0
87581,-100,4,1,0,50,0,0
87914,-100,4,1,0,100,0,0
88581,-100,4,1,0,50,0,0
88914,-100,4,1,0,100,0,0
90247,-100,4,1,0,50,0,0
90581,-100,4,1,0,100,0,0
91081,-100,4,1,0,50,0,0
91747,-100,4,1,0,100,0,0
91914,-100,4,1,0,50,0,0
92164,-100,4,1,0,100,0,0
92247,-100,4,1,0,50,0,0
92497,-100,4,1,0,100,0,0

[Colours]
Combo1 : 138,30,30
Combo2 : 206,103,0
Combo3 : 3,3,148
Combo4 : 0,128,64

[HitObjects]
256,192,507,12,4,1841
256,192,2174,5,4
400,192,2507,1,4
112,192,3174,5,4
256,192,3507,1,4
256,336,3840,1,4
112,336,4174,5,0
168,288,4340,1,8
184,216,4507,1,4
184,72,4840,1,4
256,192,5173,1,4
480,48,5840,5,4
480,192,6173,1,4
480,336,6507,1,4
424,288,6673,1,8
368,336,6840,1,0
312,288,7007,1,8
256,336,7173,5,4
256,336,7507,1,4
256,336,7840,1,4
256,48,8506,5,4
256,48,8840,1,4
256,48,9173,1,4
256,336,9840,5,4
400,336,10173,1,4
368,192,10506,1,4
400,48,10840,1,0
256,48,11173,5,4
256,192,11506,1,4
112,192,11839,5,4
56,144,12006,1,8
112,96,12173,1,0
168,144,12339,1,8
112,192,12506,5,6
184,312,12839,1,8
320,352,13173,1,2
456,312,13506,1,8
320,264,13839,5,6
320,120,14172,1,12
320,264,14506,1,6
56,144,15172,5,2
192,192,15506,1,8
328,144,15839,1,2
256,136,16006,1,0
192,96,16172,1,8
256,64,16339,1,0
328,56,16506,5,6
464,104,16839,1,12
464,104,17172,1,6
256,304,17839,1,2
256,160,18172,5,8
240,232,18339,1,0
256,304,18505,1,2
312,352,18672,1,0
368,304,18839,1,8
368,160,19172,5,6
368,160,19505,1,12
368,160,19839,1,6
112,32,20505,5,2
256,56,20838,1,8
400,32,21172,1,2
400,176,21505,1,8
256,200,21838,5,6
112,176,22172,1,12
256,200,22505,1,6
256,200,23171,5,2
256,344,23505,1,8
112,312,23838,1,2
184,288,24005,1,0
256,272,24171,1,8
328,288,24338,1,0
400,312,24505,5,6
400,312,24838,1,12
400,312,25171,1,6
256,48,25838,5,2
256,336,26504,1,2
256,192,26838,1,8
256,192,27004,1,0
256,192,27171,5,6
400,192,27504,1,12
328,64,27838,1,6
72,192,28504,5,4
144,192,28671,1,4
256,280,29004,1,4
256,280,29171,1,4
368,192,29504,5,4
440,192,29671,1,4
440,48,30004,1,4
440,48,30171,1,4
296,64,30504,5,4
152,88,30837,1,4
256,192,31171,1,4
256,264,31337,1,4
112,264,31671,1,4
112,264,31837,1,4
112,120,32170,5,4
112,48,32337,1,4
256,48,32670,1,4
256,48,32837,1,4
256,192,33170,5,4
256,336,33504,1,4
376,264,33837,1,4
352,192,34004,1,4
376,48,34337,1,4
376,48,34504,1,4
232,48,34837,5,4
176,96,35003,1,4
64,192,35337,1,4
64,192,35503,1,4
176,280,35837,5,4
288,192,36170,1,4
176,280,36503,1,4
176,352,36670,1,4
320,352,37003,1,4
320,352,37170,1,4
448,280,37503,5,4
432,248,37670,1,4
448,216,37837,5,4
464,184,38003,1,4
448,152,38170,1,4
432,120,38336,1,4
448,88,38503,2,4,B|448:40,7,45
448,43,39170,6,0,B|352:40,1,90,4|0
288,56,39503,2,0,B|176:56,1,90
128,80,39836,2,0,B|128:184,3,90
128,170,40503,5,4
56,296,40836,1,4
200,296,41169,1,4
472,192,41836,6,0,B|392:160|384:160|288:192,1,180
298,188,42336,1,0
298,188,42503,2,0,B|296:88,1,90
152,96,43003,1,0
80,96,43169,5,4
80,96,43503,1,4
80,96,43836,1,4
144,208,44502,1,0
