osu file format v10

[General]
AudioFilename: Touhou - Iosys Tewis Mapaku To Endless Wi PV .mp3
AudioLeadIn: 0
PreviewTime: 38016
Countdown: 0
SampleSet: Normal
StackLeniency: 0.7
Mode: 0
LetterboxInBreaks: 0

[Editor]
DistanceSpacing: 0.8
BeatDivisor: 2
GridSize: 4

[Metadata]
Title:Endless Tewi-ma Park
TitleUnicode:
Artist:IOSYS
ArtistUnicode:
Creator:eLtigreXXx
Version:Normal
Source:Touhou
Tags:sewerty5 pokedigi Gabe Tewi Inaba usatei Tei ARM Toromi Reitaisai
BeatmapID:183539
BeatmapSetID:40495

[Difficulty]
HPDrainRate:4
CircleSize:3
OverallDifficulty:4
ApproachRate:5
SliderMultiplier:1.3
SliderTickRate:2

[Events]
//Background and Video events
0,0,"BG.png"
Video,-140,"[IOSYS] Endless Tewi-Ma Park.flv"
//Break Periods
2,68216,79266
//Storyboard Layer 0 (Background)
//Storyboard Layer 1 (Fail)
//Storyboard Layer 2 (Pass)
//Storyboard Layer 3 (Foreground)
//Storyboard Sound Samples
//Background Colour Transformations
3,100,163,162,255

[TimingPoints]
4266,468.75,4,1,1,45,1,0
38016,-100,4,1,1,45,0,1
68016,-133.333333333333,4,2,1,35,0,0
83016,-133.333333333333,4,2,1,15,0,0
84891,-100,4,1,1,40,0,0
99891,-100,4,1,1,45,0,1
114891,-100,4,1,1,45,0,0

[Colours]
Combo1 : 187,119,119
Combo2 : 255,185,255
Combo3 : 136,236,247
Combo4 : 254,172,112
SliderBorder : 255,255,255

[HitObjects]
244,112,4266,21,0,0:0:0
140,116,4734,1,8,0:0:0
140,220,5203,2,0,B|160:284|116:284|140:348,2,130,0|8|0,0:0|0:0|0:0,0:0:0
244,220,6609,1,8,0:0:0
348,220,7078,1,0,0:0:0
452,220,7547,2,0,B|468:156|424:156|452:92,1,130,8|4,0:0|0:0,0:0:0
348,92,8484,37,8,0:0:0
244,92,8953,1,0,0:0:0
156,148,9422,2,0,B|112:84|160:28,2,130,8|0|8,0:0|0:0|0:0,0:0:0
260,152,10828,1,0,0:0:0
364,156,11297,1,8,0:0:0
372,260,11766,6,0,B|324:332|264:304|200:332|148:256,1,260,4|0,0:0|0:0,0:0:0
88,180,13172,1,2,0:0:0
148,96,13641,2,0,B|200:20|264:48|324:20|372:92,1,260,4|0,0:0|0:0,0:0:0
300,164,15047,1,2,0:0:0
264,264,15516,6,0,B|184:248|192:172,2,130,4|8|0,0:0|0:0|0:0,0:0:0
300,164,16922,1,8,0:0:0
396,204,17391,1,0,0:0:0
464,128,17859,1,8,0:0:0
400,44,18328,1,0,0:0:0
296,64,18797,1,8,0:0:0
192,68,19266,6,0,B|112:112|136:176|112:244|192:284,1,260,0|0,0:0|0:0,0:0:0
292,296,20672,1,2,0:0:0
396,284,21141,6,0,B|473:245|449:177|473:113|393:69,1,260,4|0,0:0|0:0,0:0:0
304,120,22547,1,2,0:0:0
304,224,23016,5,4,0:0:0
220,288,23484,1,8,0:0:0
140,224,23953,1,0,0:0:0
136,120,24422,2,0,B|132:40|60:32,2,130,8|0|8,0:0|0:0|0:0,0:0:0
52,180,25828,1,0,0:0:0
76,224,26062,1,0,0:0:0
124,236,26297,1,8,0:0:0
228,232,26766,6,0,B|352:148|476:236,1,260,4|0,0:0|0:0,0:0:0
488,128,28172,1,2,0:0:0
472,24,28641,2,0,B|353:108|229:24,1,260,4|0,0:0|0:0,0:0:0
168,108,30047,1,2,0:0:0
92,36,30516,6,0,B|16:48|24:128,2,130,4|8|0,0:0|0:0|0:0,0:0:0
168,108,31922,1,8,0:0:0
248,44,32391,1,0,0:0:0
300,136,32859,1,8,0:0:0
340,40,33328,1,0,0:0:0
420,108,33797,1,8,0:0:0
400,212,34266,6,0,B|352:284|292:256|228:284|176:208,1,260,4|0,0:0|0:0,0:0:0
92,152,35672,1,2,0:0:0
176,88,36141,2,4,B|228:12|292:40|352:12|400:84,1,260,4|0,0:0|0:0,0:0:0
332,164,37547,1,2,0:0:0
332,268,38016,5,4,0:0:0
436,268,38484,1,8,0:0:0
436,164,38953,2,0,B|480:104|436:44,1,130,0|8,0:0|0:0,0:0:0
348,104,39891,1,0,0:0:0
244,104,40359,1,8,0:0:0
160,44,40828,2,0,B|112:100|160:168,1,130,0|8,0:0|0:0,0:0:0
80,232,41766,6,0,B|200:312|328:232,1,260,4|2,0:0|0:0,0:0:0
388,152,43172,1,2,0:0:0
320,72,43641,2,0,B|200:0|72:72,1,260,4|2,0:0|0:0,0:0:0
32,168,45047,1,2,0:0:0
136,172,45516,6,0,B|208:196|196:276,1,130,4|8,0:0|0:0,0:0:0
300,280,46453,2,0,B|312:352|388:360,1,130,0|8,0:0|0:0,0:0:0
460,284,47391,2,0,B|448:212|372:204,1,130,0|8,0:0|0:0,0:0:0
272,180,48328,2,0,B|272:48,1,130,0|8,0:0|0:0,0:0:0
168,48,49266,6,0,B|104:16|44:48,2,130,0|8|0,0:0|0:0|0:0,0:0:0
188,96,50437,1,2,0:0:0
184,148,50672,1,2,0:0:0
268,208,51141,2,0,B|328:168|392:208,2,130,4|8|0,0:0|0:0|0:0,0:0:0
256,260,52312,1,2,0:0:0
264,312,52547,1,2,0:0:0
360,348,53016,6,0,B|440:352|460:284,1,130,4|8,0:0|0:0,0:0:0
420,188,53953,1,0,0:0:0
368,100,54422,1,8,0:0:0
264,92,54891,2,0,B|184:88|176:168,1,130,0|8,0:0|0:0,0:0:0
280,184,55828,1,0,0:0:0
200,248,56297,1,8,0:0:0
108,300,56766,6,0,B|160:376|224:348|284:376|332:304,1,260,4|2,0:0|0:0,0:0:0
388,216,58172,1,2,0:0:0
332,128,58641,2,0,B|284:56|224:84|160:56|108:132,1,260,4|2,0:0|0:0,0:0:0
60,224,60047,1,2,0:0:0
60,328,60516,5,4,0:0:0
164,312,60984,1,8,0:0:0
228,228,61453,1,0,0:0:0
288,312,61922,1,8,0:0:0
348,228,62391,2,0,B|480:228,1,130,0|8,0:0|0:0,0:0:0
412,148,63328,2,0,B|280:148,1,130,0|8,0:0|0:0,0:0:0
192,196,64266,5,0,0:0:0
192,300,64734,1,8,0:0:0
100,248,65203,2,0,B|32:248,2,65,0|2|10,0:0|0:0|0:0,0:0:0
192,196,66141,2,0,B|192:140|208:132|176:132|192:116|192:64,2,130,4|8|0,0:0|0:0|0:0,0:0:0
192,248,67312,1,2,0:0:0
192,300,67547,1,2,0:0:0
296,300,68016,5,4,0:0:0
256,192,81141,12,0,83016,0:0:0
412,216,84891,5,4,0:0:0
376,124,85359,1,8,0:0:0
280,96,85828,1,0,0:0:0
180,96,86297,2,0,B|100:100|104:180,1,130,8|0,0:0|0:0,0:0:0
208,188,87234,1,8,0:0:0
312,184,87703,2,0,B|376:184,2,65,0|8|8,0:0|0:0|0:0,0:0:0
308,288,88641,6,0,B|304:368|220:360,1,130,0|8,0:0|0:0,0:0:0
148,284,89578,1,0,0:0:0
88,196,90047,1,8,0:0:0
152,112,90516,2,0,B|204:36|268:64|328:36|376:108,1,260,4|0,0:0|0:0,0:0:0
376,212,91922,1,8,0:0:0
372,316,92391,6,0,B|240:316,2,130,0|8|0,0:0|0:0|0:0,0:0:0
464,268,93797,1,8,0:0:0
464,164,94266,1,0,0:0:0
404,80,94734,1,8,0:0:0
312,44,95203,1,0,0:0:0
260,40,95437,1,0,0:0:0
208,44,95672,1,8,0:0:0
112,88,96141,5,0,0:0:0
56,176,96609,1,8,0:0:0
112,264,97078,2,0,B|76:316,2,65,0|0|8,0:0|0:0|0:0,0:0:0
212,292,98016,5,0,0:0:0
316,292,98484,1,8,0:0:0
416,268,98953,2,0,B|468:304,2,65,0|0|8,0:0|0:0|0:0,0:0:0
432,164,99891,5,4,0:0:0
372,80,100359,1,8,0:0:0
312,164,100828,1,0,0:0:0
264,180,101062,1,0,0:0:0
216,160,101297,1,8,0:0:0
164,72,101766,6,0,B|100:36|40:72,1,130,0|8,0:0|0:0,0:0:0
40,176,102703,1,0,0:0:0
44,228,102937,1,0,0:0:0
48,280,103172,1,8,0:0:0
148,260,103641,6,0,B|272:344|392:264,1,260,4|0,0:0|0:0,0:0:0
448,180,105047,1,8,0:0:0
388,96,105516,2,0,B|264:28|140:96,1,260,4|0,0:0|0:0,0:0:0
60,160,106922,1,8,0:0:0
148,216,107391,6,0,B|148:356,2,130,4|8|0,0:0|0:0|0:0,0:0:0
60,160,108797,1,8,0:0:0
128,84,109266,1,0,0:0:0
232,96,109734,1,8,0:0:0
320,40,110203,1,0,0:0:0
372,40,110437,1,0,0:0:0
424,40,110672,1,8,0:0:0
376,132,111141,6,0,B|496:248|376:356,1,260,4|0,0:0|0:0,0:0:0
324,352,112312,1,0,0:0:0
272,356,112547,1,8,0:0:0
180,308,113016,1,4,0:0:0
180,204,113484,1,8,0:0:0
276,164,113953,1,0,0:0:0
324,164,114187,1,0,0:0:0
372,160,114422,1,8,0:0:0
372,56,114891,5,4,0:0:0
268,52,115359,2,0,B|208:16|144:52,1,130,8|0,0:0|0:0,0:0:0
88,140,116297,1,8,0:0:0
88,244,116766,1,0,0:0:0
172,304,117234,1,8,0:0:0
276,304,117703,2,0,B|276:236,2,65,0|0|8,0:0|0:0|0:0,0:0:0
380,304,118641,5,0,0:0:0
448,224,119109,1,8,0:0:0
448,120,119578,2,0,B|448:56,2,65,0|0|8,0:0|0:0|0:0,0:0:0
448,224,120516,1,0,0:0:0
380,304,120984,1,8,0:0:0
276,304,121453,2,0,B|276:240,2,65,0|0|8,0:0|0:0|0:0,0:0:0
172,312,122391,6,0,B|120:248|172:196,1,130,4|8,0:0|0:0,0:0:0
204,96,123328,2,0,B|264:52|324:96,1,130,0|8,0:0|0:0,0:0:0
380,184,124266,2,0,B|432:236|380:300,1,130,0|8,0:0|0:0,0:0:0
276,300,125203,2,0,B|224:236|276:184,1,130,0|8,0:0|0:0,0:0:0
336,100,126141,6,0,B|472:100,2,130,0|8|0,0:0|0:0|0:0,0:0:0
232,104,127547,1,8,0:0:0
228,208,128016,2,0,B|164:208,2,65,8|0|8,0:0|0:0|0:0,0:0:0
280,208,128719,1,8,0:0:0
328,208,128953,2,0,B|392:208,2,65,8|0|8,0:0|0:0|0:0,0:0:0
328,312,129891,5,4,0:0:0
