osu file format v10

[General]
AudioFilename: Touhou - Iosys Tewis Mapaku To Endless Wi PV .mp3
AudioLeadIn: 0
PreviewTime: 38016
Countdown: 0
SampleSet: Normal
StackLeniency: 0.7
Mode: 0
LetterboxInBreaks: 0

[Editor]
DistanceSpacing: 1
BeatDivisor: 4
GridSize: 4

[Metadata]
Title:Endless Tewi-ma Park
TitleUnicode:
Artist:IOSYS
ArtistUnicode:
Creator:eLtigreXXx
Version:Hard
Source:Touhou
Tags:sewerty5 pokedigi Gabe Tewi Inaba usatei Tei ARM Toromi Reitaisai
BeatmapID:180971
BeatmapSetID:40495

[Difficulty]
HPDrainRate:5
CircleSize:4
OverallDifficulty:6
ApproachRate:7
SliderMultiplier:1.8
SliderTickRate:2

[Events]
//Background and Video events
0,0,"BG2.png"
Video,-140,"[IOSYS] Endless Tewi-Ma Park.flv"
//Break Periods
2,68216,79266
//Storyboard Layer 0 (Background)
//Storyboard Layer 1 (Fail)
//Storyboard Layer 2 (Pass)
//Storyboard Layer 3 (Foreground)
//Storyboard Sound Samples
//Background Colour Transformations
3,100,163,162,255

[TimingPoints]
4266,468.75,4,1,1,45,1,0
38016,-100,4,1,1,45,0,1
68016,-133.333333333333,4,2,1,35,0,0
83016,-133.333333333333,4,2,1,15,0,0
84891,-100,4,1,1,40,0,0
99891,-100,4,1,1,45,0,1
114891,-100,4,1,1,45,0,0

[Colours]
Combo1 : 187,119,119
Combo2 : 255,185,255
Combo3 : 136,236,247
Combo4 : 254,172,112
SliderBorder : 255,255,255

[HitObjects]
316,220,4266,2,0,B|360:220,2,45
236,220,4734,1,8,0:0:0
156,220,4969,2,0,B|156:172,2,45
84,260,5437,2,0,B|68:304|96:304|84:352,2,90,0|8|0,0:0|0:0|0:0,0:0:0
156,220,6141,5,0,0:0:0
176,180,6258,1,0,0:0:0
212,156,6375,1,0,0:0:0
292,172,6609,1,8,0:0:0
276,92,6844,1,0,0:0:0
300,60,6961,1,0,0:0:0
336,36,7078,1,0,0:0:0
416,56,7312,1,0,0:0:0
444,132,7547,2,0,B|416:216|492:216|444:304,1,180,10|4,0:0|0:0,0:0:0
364,296,8250,5,0,0:0:0
364,252,8367,1,0,0:0:0
364,212,8484,1,8,0:0:0
308,148,8719,1,0,0:0:0
256,224,8953,1,0,0:0:0
204,292,9187,1,0,0:0:0
160,276,9305,1,0,0:0:0
132,244,9422,1,8,0:0:0
92,168,9656,1,0,0:0:0
140,96,9891,5,0,0:0:0
224,76,10125,2,0,B|224:24,2,45,0|0|8,0:0|0:0|0:0,0:0:0
224,160,10594,2,0,B|224:220|280:220,1,90,0|0,0:0|0:0,0:0:0
364,220,11062,2,0,B|416:220,2,45,0|0|8,0:0|0:0|0:0,0:0:0
360,140,11531,1,0,0:0:0
328,64,11766,5,0,0:0:0
248,48,12000,1,0,0:0:0
208,48,12117,1,0,0:0:0
168,48,12234,2,0,B|76:48,1,90,8|0,0:0|0:0,0:0:0
28,112,12703,1,0,0:0:0
40,192,12937,1,2,0:0:0
92,252,13172,1,2,0:0:0
252,344,13641,6,0,B|304:324|288:272,1,90,0|0,0:0|0:0,0:0:0
268,236,13992,1,0,0:0:0
244,196,14109,1,8,0:0:0
216,120,14344,2,0,B|180:76|216:40,1,90,0|0,0:0|0:0,0:0:0
296,36,14812,1,2,0:0:0
376,36,15047,1,2,0:0:0
432,212,15516,6,0,B|468:252|436:296,2,90,4|0|8,0:0|0:0|0:0,0:0:0
352,208,16219,1,0,0:0:0
272,208,16453,2,0,B|236:168|272:128,2,90,0|0|8,0:0|0:0|0:0,0:0:0
352,208,17156,1,0,0:0:0
356,288,17391,6,0,B|404:288,2,45
276,288,17859,2,0,B|228:288,2,45,8|0|0,0:0|0:0|0:0,0:0:0
244,212,18328,1,0,0:0:0
276,140,18562,1,8,0:0:0
356,140,18797,1,8,0:0:0
388,212,19031,1,0,0:0:0
356,288,19266,6,0,B|404:328|496:268|472:208,1,180,0|8,0:0|0:0,0:0:0
472,128,19969,1,0,0:0:0
424,64,20203,1,0,0:0:0
344,52,20437,2,0,B|252:52,1,90,2|2,0:0|0:0,0:0:0
100,100,21141,6,0,B|40:132|56:176|40:216|96:248,1,180,4|8,0:0|0:0,0:0:0
156,192,21844,1,0,0:0:0
236,172,22078,1,0,0:0:0
316,172,22312,2,0,B|408:172,1,90,2|2,0:0|0:0,0:0:0
360,352,23016,5,4,0:0:0
280,352,23250,1,0,0:0:0
240,356,23367,1,0,0:0:0
196,352,23484,2,0,B|140:352|140:296,1,90,8|0,0:0|0:0,0:0:0
80,240,23953,1,0,0:0:0
124,172,24187,1,0,0:0:0
124,132,24305,1,0,0:0:0
124,92,24422,2,0,B|124:36|180:36,1,90,8|0,0:0|0:0,0:0:0
260,36,24891,5,0,0:0:0
336,60,25125,2,0,B|400:60,2,45,0|0|8,0:0|0:0|0:0,0:0:0
336,140,25594,1,0,0:0:0
296,208,25828,1,0,0:0:0
220,232,26062,2,0,B|220:284,2,45,0|0|8,0:0|0:0|0:0,0:0:0
140,212,26531,1,0,0:0:0
96,144,26766,5,0,0:0:0
124,68,27000,1,0,0:0:0
152,40,27117,1,0,0:0:0
192,36,27234,1,8,0:0:0
272,32,27469,2,0,B|320:12|320:44|360:28,1,90
428,76,27937,1,2,0:0:0
432,156,28172,1,2,0:0:0
284,256,28641,5,4,0:0:0
204,256,28875,1,0,0:0:0
164,244,28992,1,0,0:0:0
132,220,29109,1,8,0:0:0
92,148,29344,2,0,B|60:108|92:64,1,90,0|0,0:0|0:0,0:0:0
164,28,29812,1,2,0:0:0
244,28,30047,1,2,0:0:0
352,148,30516,6,0,B|384:192|352:236,2,90,4|0|8,0:0|0:0|0:0,0:0:0
280,188,31219,1,0,0:0:0
244,116,31453,1,0,0:0:0
164,116,31687,1,0,0:0:0
124,188,31922,1,8,0:0:0
164,260,32156,1,0,0:0:0
244,260,32391,6,0,B|292:260,2,45,0|0|0,0:0|0:0|0:0,0:0:0
164,260,32859,2,0,B|116:260,2,45,8|0|0,0:0|0:0|0:0,0:0:0
244,260,33328,1,0,0:0:0
280,188,33562,1,0,0:0:0
272,108,33797,1,8,0:0:0
204,64,34031,1,0,0:0:0
124,60,34266,6,0,B|76:44|76:72|32:60,2,90,0|0|8,0:0|0:0|0:0,0:0:0
204,64,34969,1,0,0:0:0
284,64,35203,1,0,0:0:0
364,60,35437,2,0,B|404:71|404:43|452:59,1,90,2|2,0:0|0:0,0:0:0
484,224,36141,6,0,B|460:276|412:268|368:280|336:228,1,180,0|8,0:0|0:0,0:0:0
256,232,36844,1,0,0:0:0
292,160,37078,2,0,B|260:104|216:116|172:104|144:156,1,180,0|2,0:0|0:0,0:0:0
44,28,38016,6,0,B|44:88|96:88,1,90,4|0,0:0|0:0,0:0:0
176,100,38484,2,0,B|232:100|232:156,1,90,8|0,0:0|0:0,0:0:0
260,232,38953,2,0,B|276:276|244:276|264:320,1,90
344,320,39422,2,0,B|388:336|388:308|432:324,1,90,8|0,0:0|0:0,0:0:0
400,248,39891,5,0,0:0:0
352,172,40125,1,0,0:0:0
380,140,40242,1,0,0:0:0
412,104,40359,1,8,0:0:0
336,64,40594,1,0,0:0:0
252,64,40828,5,0,0:0:0
200,132,41062,1,0,0:0:0
164,104,41180,1,0,0:0:0
132,80,41297,1,8,0:0:0
76,152,41531,1,0,0:0:0
52,228,41766,6,0,B|24:256|36:268|24:284|48:308,2,90,0|0|8,0:0|0:0|0:0,0:0:0
120,272,42469,1,0,0:0:0
200,272,42703,1,0,0:0:0
200,272,42937,2,0,B|288:272,1,90,2|2,0:0|0:0,0:0:0
416,168,43641,6,0,B|480:168|480:120,1,90,4|0,0:0|0:0,0:0:0
480,80,43992,1,0,0:0:0
480,40,44109,1,8,0:0:0
400,36,44344,1,0,0:0:0
320,36,44578,1,0,0:0:0
240,36,44812,2,0,B|196:12|152:36,1,90,2|2,0:0|0:0,0:0:0
72,176,45516,6,0,B|52:224|72:264,1,90,4|0,0:0|0:0,0:0:0
136,308,45984,1,8,0:0:0
216,328,46219,1,0,0:0:0
292,304,46453,2,0,B|336:288|380:304,1,90
460,320,46922,1,8,0:0:0
476,240,47156,1,0,0:0:0
468,160,47391,6,0,B|416:144|376:160,1,90
340,172,47742,1,0,0:0:0
304,156,47859,1,8,0:0:0
300,236,48094,1,0,0:0:0
236,284,48328,1,0,0:0:0
176,228,48562,1,0,0:0:0
164,188,48680,1,0,0:0:0
172,148,48797,1,8,0:0:0
176,68,49031,1,0,0:0:0
104,32,49266,5,0,0:0:0
32,72,49500,2,0,B|32:164,1,90,0|8,0:0|0:0,0:0:0
32,244,49969,1,0,0:0:0
88,304,50203,2,0,B|132:324|176:304,2,90,0|2|2,0:0|0:0|0:0,0:0:0
364,324,51141,5,4,0:0:0
436,276,51375,1,0,0:0:0
436,276,51492,1,0,0:0:0
436,276,51609,1,8,0:0:0
424,192,51844,1,0,0:0:0
356,140,52078,2,0,B|312:116|268:140,2,90,0|2|2,0:0|0:0|0:0,0:0:0
164,308,53016,5,4,0:0:0
240,348,53250,2,0,B|264:308|236:264,2,90,0|8|0,0:0|0:0|0:0,0:0:0
164,308,53953,1,0,0:0:0
88,268,54187,1,0,0:0:0
88,268,54305,1,0,0:0:0
88,268,54422,1,8,0:0:0
76,184,54656,1,0,0:0:0
120,108,54891,5,0,0:0:0
200,76,55125,1,0,0:0:0
244,68,55242,1,0,0:0:0
288,76,55359,1,8,0:0:0
292,156,55594,2,0,B|288:212|344:216,1,90
424,216,56062,2,0,B|476:216,2,45,0|0|8,0:0|0:0|0:0,0:0:0
424,296,56531,1,0,0:0:0
344,296,56766,5,0,0:0:0
344,216,57000,2,0,B|344:172,2,45,0|0|8,0:0|0:0|0:0,0:0:0
264,220,57469,2,0,B|220:236|220:204|176:224,1,90
96,208,57937,1,2,0:0:0
40,152,58172,1,2,0:0:0
172,60,58641,5,0,0:0:0
252,44,58875,1,0,0:0:0
292,36,58992,1,0,0:0:0
332,44,59109,1,8,0:0:0
372,112,59344,2,0,B|408:156|376:196,1,90
304,156,59812,1,2,0:0:0
304,156,60047,1,2,0:0:0
104,136,60516,6,0,B|68:96|104:56,2,90,0|0|8,0:0|0:0|0:0,0:0:0
164,188,61219,1,0,0:0:0
108,248,61453,2,0,B|72:288|108:328,2,90,0|0|8,0:0|0:0|0:0,0:0:0
164,188,62156,1,0,0:0:0
232,232,62391,2,0,B|232:284,2,45
232,152,62859,2,0,B|232:108,2,45,8|0|0,0:0|0:0|0:0,0:0:0
300,188,63328,2,0,B|340:156|384:188,2,90,0|0|8,0:0|0:0|0:0,0:0:0
408,340,64266,5,0,0:0:0
448,264,64500,1,0,0:0:0
364,248,64734,1,8,0:0:0
324,324,64969,2,0,B|284:352|240:324,1,90
212,244,65437,1,2,0:0:0
128,260,65672,1,2,0:0:0
32,116,66141,5,4,0:0:0
76,48,66375,1,0,0:0:0
124,116,66609,1,8,0:0:0
204,116,66844,2,0,B|292:116,1,90
340,196,67312,1,2,0:0:0
428,196,67547,1,2,0:0:0
428,336,68016,5,4,0:0:0
256,192,81141,12,0,83016,0:0:0
256,184,84891,21,4,0:0:0
256,92,85125,2,0,B|256:48,2,45,0|0|8,0:0|0:0|0:0,0:0:0
176,124,85594,1,0,0:0:0
108,176,85828,1,0,0:0:0
108,260,86062,1,0,0:0:0
108,176,86297,1,8,0:0:0
184,204,86531,6,0,B|224:232|268:204,2,90
108,176,87234,2,0,B|60:176,2,45,8|0|0,0:0|0:0|0:0,0:0:0
112,96,87703,1,0,0:0:0
184,64,87937,2,0,B|228:40|272:64,1,90,2|8,0:0|0:0,0:0:0
388,208,88641,6,0,B|432:192|432:224|476:208,2,90,0|0|8,0:0|0:0|0:0,0:0:0
316,248,89344,2,0,B|316:296,2,45
316,168,89812,1,0,0:0:0
244,204,90047,2,0,B|200:220|200:188|156:204,1,90,8|0,0:0|0:0,0:0:0
124,280,90516,5,4,0:0:0
180,340,90750,1,0,0:0:0
232,280,90984,1,8,0:0:0
232,280,91219,1,0,0:0:0
312,280,91453,2,0,B|360:296|360:264|404:284,2,90,2|0|2,0:0|0:0|0:0,0:0:0
144,280,92391,6,0,B|92:272|84:224,1,90,4|0,0:0|0:0,0:0:0
84,140,92859,1,8,0:0:0
116,68,93094,1,0,0:0:0
192,40,93328,1,0,0:0:0
268,72,93562,1,0,0:0:0
308,140,93797,1,8,0:0:0
308,140,94031,6,0,B|352:120|352:152|396:140,2,90,0|0|0,0:0|0:0|0:0,0:0:0
224,136,94734,2,0,B|224:180,2,45,8|0|2,0:0|0:0|0:0,0:0:0
148,108,95203,1,0,0:0:0
80,148,95437,1,0,0:0:0
80,228,95672,1,8,0:0:0
152,268,95906,1,0,0:0:0
216,216,96141,6,0,B|260:200|260:232|304:216,2,90,0|0|8,0:0|0:0|0:0,0:0:0
224,136,96844,2,0,B|224:92,2,45
148,108,97312,1,0,0:0:0
68,124,97547,2,0,B|68:212,1,90,8|0,0:0|0:0,0:0:0
84,292,98016,5,0,0:0:0
152,332,98250,1,0,0:0:0
232,352,98484,1,8,0:0:0
312,332,98719,1,0,0:0:0
376,280,98953,2,0,B|400:236|376:192,2,90,6|0|10,0:0|0:0|0:0,0:0:0
212,280,99891,6,0,B|184:236|212:196,1,90,4|0,0:0|0:0,0:0:0
300,240,100359,1,8,0:0:0
380,180,100594,2,0,B|436:176|432:120,1,90
340,88,101062,1,0,0:0:0
340,88,101297,1,8,0:0:0
244,40,101531,6,0,B|268:84|244:128,1,90,0|0,0:0|0:0,0:0:0
152,72,102000,1,0,0:0:0
58,122,102234,2,0,B|36:80|60:36,2,90,8|0|0,0:0|0:0|0:0,0:0:0
68,228,102937,2,0,B|68:288|120:288,1,90,2|8,0:0|0:0,0:0:0
220,292,103406,6,0,B|276:292|280:236,1,90,0|0,0:0|0:0,0:0:0
280,144,103875,1,0,0:0:0
372,140,104109,1,8,0:0:0
368,240,104344,1,0,0:0:0
280,240,104578,2,0,B|192:240,1,90,0|0,0:0|0:0,0:0:0
104,240,105047,2,0,B|44:240|44:188,1,90,8|0,0:0|0:0,0:0:0
76,104,105516,5,0,0:0:0
148,56,105750,1,0,0:0:0
232,52,105984,1,8,0:0:0
300,96,106219,1,0,0:0:0
348,160,106453,2,0,B|388:140|436:160,2,90,2|0|2,0:0|0:0|0:0,0:0:0
228,272,107391,6,0,B|200:228|228:180,1,90,4|0,0:0|0:0,0:0:0
296,228,107859,1,8,0:0:0
368,192,108094,2,0,B|392:240|360:292,2,90
344,116,108797,1,8,0:0:0
232,52,109031,6,0,B|260:96|236:140,1,90
140,100,109500,1,0,0:0:0
48,132,109734,2,0,B|26:91|54:47,2,90
68,224,110437,1,2,0:0:0
152,268,110672,1,8,0:0:0
212,340,110906,6,0,B|264:324|244:268,1,90,0|0,0:0|0:0,0:0:0
272,184,111375,1,0,0:0:0
208,120,111609,1,8,0:0:0
144,184,111844,1,0,0:0:0
56,160,112078,2,0,B|20:120|56:80,1,90,0|0,0:0|0:0,0:0:0
144,56,112547,1,8,0:0:0
208,120,112781,2,0,B|252:144|296:120,1,90,0|0,0:0|0:0,0:0:0
364,64,113250,5,0,0:0:0
404,80,113367,1,0,0:0:0
432,112,113484,1,8,0:0:0
472,192,113719,1,0,0:0:0
428,272,113953,1,2,0:0:0
404,312,114070,1,0,0:0:0
364,328,114187,1,0,0:0:0
272,328,114422,1,10,0:0:0
104,328,114891,6,0,B|52:328,4,45,4|0|0|0|8,0:0|0:0|0:0|0:0|0:0,0:0:0
168,268,115594,1,0,0:0:0
224,204,115828,2,0,B|276:204,4,45,0|0|0|0|8,0:0|0:0|0:0|0:0|0:0,0:0:0
168,140,116531,5,0,0:0:0
188,60,116766,1,0,0:0:0
264,36,117000,1,0,0:0:0
340,60,117234,1,8,0:0:0
368,136,117469,1,0,0:0:0
368,216,117703,2,0,B|348:260|384:260|368:304,2,90,0|0|8,0:0|0:0|0:0,0:0:0
368,136,118406,1,0,0:0:0
288,136,118641,6,0,B|244:136,2,45
368,136,119109,2,0,B|412:136,2,45,8|0|0,0:0|0:0|0:0,0:0:0
360,60,119578,1,0,0:0:0
276,60,119812,1,0,0:0:0
232,48,119930,1,0,0:0:0
188,60,120047,1,8,0:0:0
128,120,120281,1,0,0:0:0
128,204,120516,6,0,B|76:204,2,45
128,288,120984,2,0,B|76:288,2,45,8|0|0,0:0|0:0|0:0,0:0:0
200,324,121453,1,0,0:0:0
276,352,121687,1,0,0:0:0
352,320,121922,1,8,0:0:0
128,288,122391,6,0,B|80:288,4,45,4|0|0|0|8,0:0|0:0|0:0|0:0|0:0,0:0:0
176,224,123094,1,0,0:0:0
124,160,123328,2,0,B|72:160,4,45,0|0|0|0|8,0:0|0:0|0:0|0:0|0:0,0:0:0
176,100,124031,1,0,0:0:0
256,100,124266,6,0,B|288:52|336:72|380:52|416:100,1,180,0|8,0:0|0:0,0:0:0
464,164,124969,1,0,0:0:0
420,232,125203,2,0,B|380:276|340:256|296:276|256:232,1,180,0|8,0:0|0:0,0:0:0
212,164,125906,1,0,0:0:0
184,88,126141,6,0,B|148:44|104:64|56:44|24:92,2,180,0|8|0,0:0|0:0|0:0,0:0:0
212,164,127312,1,0,0:0:0
200,204,127430,1,0,0:0:0
212,244,127547,1,8,0:0:0
296,248,127781,1,0,0:0:0
332,176,128016,1,0,0:0:0
392,124,128250,1,0,0:0:0
456,172,128484,1,8,0:0:0
488,248,128719,1,0,0:0:0
436,312,128953,5,0,0:0:0
412,344,129070,1,0,0:0:0
372,352,129187,1,8,0:0:0
292,352,129422,1,8,0:0:0
128,352,129891,5,4,0:0:0
