osu file format v13

[General]
AudioFilename: Inaba.mp3
AudioLeadIn: 1484
PreviewTime: 8016
Countdown: 0
SampleSet: Soft
StackLeniency: 0.6
Mode: 0
LetterboxInBreaks: 0
WidescreenStoryboard: 1

[Editor]
Bookmarks: 9767,114422
DistanceSpacing: 1
BeatDivisor: 4
GridSize: 4
TimelineZoom: 1.7

[Metadata]
Title:Endless Tewi-ma Park
TitleUnicode:エンドレス・てゐマパーク
Artist:IOSYS
ArtistUnicode:IOSYS
Creator:Rotte
Version:Lunatic
Source:Touhou
Tags:Tewi's Mapaku To Endless Wi Tewi Tei Inaba
BeatmapID:439978
BeatmapSetID:182499

[Difficulty]
HPDrainRate:6
CircleSize:4
OverallDifficulty:7
ApproachRate:8
SliderMultiplier:1.6
SliderTickRate:1

[Events]
//Background and Video events
0,0,"BG.jpg",0,0
//Break Periods
//Storyboard Layer 0 (Background)
//Storyboard Layer 1 (Fail)
//Storyboard Layer 2 (Pass)
//Storyboard Layer 3 (Foreground)
//Storyboard Sound Samples
//Background Colour Transformations
3,100,163,162,255

[TimingPoints]
510,468.75,4,2,0,50,1,0
627,-100,4,1,1,70,0,0
38010,-100,4,1,1,80,0,1
52892,-100,4,1,1,80,0,0
53010,-100,4,1,1,80,0,1
68010,-100,4,2,0,50,0,0
73635,-200,4,2,0,60,0,0
84885,-100,4,1,1,60,0,0
99885,-100,4,1,1,80,0,1
114416,-100,4,1,1,80,0,0
114885,-100,4,1,1,90,0,1
115002,-100,4,1,1,90,0,0

[Colours]
Combo1 : 242,206,0
Combo2 : 230,111,2
Combo3 : 242,206,0
Combo4 : 121,200,2

[HitObjects]
152,200,510,6,0,P|160:280|232:296,1,160,4|2,0:0|0:0,0:0:0:0:
329,260,1330,1,0,0:0:0:0:
329,260,1447,2,0,L|337:180,1,80
436,158,1916,2,0,L|431:197,2,40,0|0|0,0:0|0:0|0:0,0:0:0:0:
370,59,2385,6,0,P|330:51|290:59,1,80,0|0,0:0|0:0,0:0:0:0:
204,95,2853,1,2,0:0:0:0:
178,107,2970,1,0,0:0:0:0:
149,107,3088,1,0,0:0:0:0:
121,100,3205,1,0,0:0:0:0:
98,83,3322,2,0,L|75:171,1,80
204,95,3791,5,0,0:0:0:0:
212,68,3908,1,0,0:0:0:0:
218,40,4025,1,0,0:0:0:0:
248,168,4260,6,0,B|256:232|256:232|240:256|208:256,1,120,8|0,0:0|0:0,0:0:0:0:
181,250,4728,2,0,P|137:242|102:248,1,80,2|0,0:0|0:0,0:0:0:0:
265,283,5197,2,0,L|360:279,1,80,0|8,0:0|0:0,0:0:0:0:
466,238,5666,2,0,L|509:244,2,40,2|0|0,0:0|0:0|0:0,0:0:0:0:
388,168,6135,6,0,B|302:182|302:182|263:177,1,120,8|0,0:0|0:0,0:0:0:0:
244,164,6603,2,0,P|221:131|227:76,1,80,2|0,0:0|0:0,0:0:0:0:
367,22,7072,1,0,0:0:0:0:
474,92,7306,1,8,0:0:0:0:
402,197,7541,1,10,0:0:0:0:
404,216,7658,1,0,0:0:0:0:
406,235,7775,1,8,0:0:0:0:
409,254,7892,1,0,0:0:0:0:
411,273,8010,6,0,P|383:305|319:317,1,80,12|0,0:0|0:0,0:0:0:0:
337,314,8361,1,0,0:0:0:0:
325,310,8478,2,0,L|245:318,1,80,8|0,0:0|0:0,0:0:0:0:
44,240,8947,2,0,L|124:232,1,80
136,236,9299,1,0,0:0:0:0:
148,240,9416,2,0,P|176:212|190:172,1,80,8|2,0:0|0:0,0:0:0:0:
144,56,9885,1,0,0:0:0:0:
144,56,10119,6,0,L|183:47,1,40
208,56,10353,2,0,L|248:56,3,40,8|0|0|0,0:0|0:0|0:0|0:0,0:0:0:0:
272,48,10822,2,0,P|256:84|264:124,1,80,0|0,0:0|0:0,0:0:0:0:
272,132,11174,1,0,0:0:0:0:
280,140,11291,2,0,L|360:148,1,80,8|2,0:0|0:0,0:0:0:0:
468,92,11760,6,0,P|484:132|480:168,1,80
476,180,12111,1,0,0:0:0:0:
472,192,12228,1,8,0:0:0:0:
308,240,12463,1,0,0:0:0:0:
376,304,12697,2,0,P|408:320|456:320,1,80,0|2,0:0|0:0,0:0:0:0:
296,248,13166,2,0,L|200:244,1,80,8|2,0:0|0:0,0:0:0:0:
64,296,13635,6,0,P|103:302|148:283,1,80
152,280,13986,1,0,0:0:0:0:
164,268,14103,1,8,0:0:0:0:
200,116,14338,1,0,0:0:0:0:
124,56,14572,2,0,P|84:49|39:68,1,80,0|2,0:0|0:0,0:0:0:0:
212,124,15041,2,0,L|296:116,1,80,8|2,0:0|0:0,0:0:0:0:
468,172,15510,6,0,P|440:204|404:216,1,80,4|0,0:0|0:0,0:0:0:0:
392,212,15861,1,0,0:0:0:0:
380,208,15978,1,8,0:0:0:0:
504,264,16213,1,2,0:0:0:0:
367,203,16447,2,0,P|326:216|289:209,1,80
281,199,16798,1,0,0:0:0:0:
272,190,16915,1,8,0:0:0:0:
352,300,17150,1,2,0:0:0:0:
204,260,17385,6,0,L|152:256,3,40
140,260,17853,2,0,L|100:232,1,40,8|0,0:0|0:0,0:0:0:0:
80,236,18088,2,0,L|60:192,1,40,2|0,0:0|0:0,0:0:0:0:
56,172,18322,1,0,0:0:0:0:
216,152,18556,1,0,0:0:0:0:
92,76,18791,1,8,0:0:0:0:
220,16,19025,1,2,0:0:0:0:
320,96,19260,6,0,P|356:108|400:104,1,80
408,100,19611,1,0,0:0:0:0:
420,96,19728,2,0,P|460:96|500:112,1,80,8|2,0:0|0:0,0:0:0:0:
472,252,20197,2,0,P|424:252|376:228,1,80,0|2,0:0|0:0,0:0:0:0:
384,232,20548,1,0,0:0:0:0:
372,228,20666,2,0,P|333:229|288:252,1,80,10|0,0:0|0:0,0:0:0:0:
172,344,21135,6,0,P|148:302|144:248,1,80
148,260,21486,1,0,0:0:0:0:
156,248,21603,1,2,0:0:0:0:
156,248,22072,5,0,0:0:0:0:
80,164,22306,2,0,P|122:140|176:135,1,80,2|2,0:0|0:0,0:0:0:0:
312,160,23010,6,0,L|404:156,1,80,4|0,0:0|0:0,0:0:0:0:
408,164,23361,1,0,0:0:0:0:
424,172,23478,2,0,P|400:128|400:88,1,80,8|2,0:0|0:0,0:0:0:0:
496,224,23947,2,0,P|486:261|461:293,1,80
446,301,24298,1,2,0:0:0:0:
428,305,24416,2,0,L|348:292,1,80,8|2,0:0|0:0,0:0:0:0:
236,224,24885,5,0,0:0:0:0:
168,288,25119,2,0,P|152:300|128:304,1,40
116,304,25353,1,8,0:0:0:0:
100,304,25470,1,0,0:0:0:0:
84,300,25588,1,2,0:0:0:0:
72,292,25705,1,0,0:0:0:0:
60,280,25822,2,0,B|40:248|40:248|36:224|48:204,1,80
56,192,26174,1,0,0:0:0:0:
68,180,26291,2,0,B|104:168|104:168|120:152|124:132,1,80,8|2,0:0|0:0,0:0:0:0:
104,40,26760,5,0,0:0:0:0:
196,80,26994,2,0,L|236:96,1,40
260,84,27228,2,0,L|352:76,1,80,8|2,0:0|0:0,0:0:0:0:
428,32,27697,2,0,L|508:24,2,80,0|2|8,0:0|0:0|0:0,0:0:0:0:
448,44,28400,6,0,P|464:60|468:80,1,40,2|0,0:0|0:0,0:0:0:0:
468,104,28635,1,0,0:0:0:0:
440,196,28869,2,0,P|445:217|439:237,1,40
432,260,29103,1,8,0:0:0:0:
336,280,29338,2,0,P|330:301|314:315,1,40
292,324,29572,2,0,L|195:324,1,80,0|2,0:0|0:0,0:0:0:0:
108,280,30041,2,0,L|64:276,3,40,8|0|2|0,0:0|0:0|0:0|0:0,0:0:0:0:
108,280,30510,6,0,P|144:240|144:212,1,80,4|0,0:0|0:0,0:0:0:0:
140,200,30861,1,0,0:0:0:0:
132,184,30978,2,0,L|216:180,1,80,8|2,0:0|0:0,0:0:0:0:
256,56,31447,2,0,P|216:64|172:60,1,80
192,72,31799,1,0,0:0:0:0:
208,80,31916,2,0,P|248:88|292:84,1,80,8|2,0:0|0:0,0:0:0:0:
432,24,32385,5,0,0:0:0:0:
504,88,32619,1,0,0:0:0:0:
504,88,32736,1,0,0:0:0:0:
504,88,32853,2,0,L|496:168,1,80,8|2,0:0|0:0,0:0:0:0:
492,196,33205,1,0,0:0:0:0:
484,224,33322,2,0,P|448:248|404:248,1,80
292,336,33791,2,0,P|249:328|218:297,1,80,8|2,0:0|0:0,0:0:0:0:
208,184,34260,5,0,0:0:0:0:
112,188,34494,2,0,L|64:188,1,40
112,188,34728,2,0,P|80:156|72:116,1,80,8|2,0:0|0:0,0:0:0:0:
220,84,35197,2,0,P|208:40|221:1,2,80,0|2|10,0:0|0:0|0:0,0:0:0:0:
236,108,36135,5,0,0:0:0:0:
248,132,36603,2,0,L|340:128,2,80,2|0|0,0:0|0:0|0:0,0:0:0:0:
132,60,37306,1,2,0:0:0:0:
112,196,37541,1,10,0:0:0:0:
112,196,38010,5,4,0:0:0:0:
100,220,38127,1,0,0:0:0:0:
100,252,38244,1,0,0:0:0:0:
112,276,38361,1,0,0:0:0:0:
136,288,38478,1,8,0:0:0:0:
164,292,38595,1,0,0:0:0:0:
192,288,38712,1,2,0:0:0:0:
216,272,38830,1,0,0:0:0:0:
228,248,38947,1,0,0:0:0:0:
240,272,39064,1,0,0:0:0:0:
264,288,39182,1,0,0:0:0:0:
292,292,39299,1,0,0:0:0:0:
320,288,39416,1,8,0:0:0:0:
344,276,39533,1,0,0:0:0:0:
356,252,39650,1,2,0:0:0:0:
356,220,39767,1,2,0:0:0:0:
340,196,39885,1,0,0:0:0:0:
340,196,40119,6,0,P|340:172|352:156,1,40
424,104,40353,1,8,0:0:0:0:
416,132,40470,1,0,0:0:0:0:
416,160,40588,1,2,0:0:0:0:
424,188,40705,1,0,0:0:0:0:
440,208,40822,2,0,B|452:232|480:248|480:248|464:268,1,80
448,288,41174,1,0,0:0:0:0:
424,304,41291,2,0,P|372:320|336:316,1,80,8|2,0:0|0:0,0:0:0:0:
220,268,41760,6,0,L|136:280,1,80
120,296,42111,1,0,0:0:0:0:
100,316,42228,2,0,P|64:276|64:248,1,80,8|2,0:0|0:0,0:0:0:0:
124,96,42697,2,0,L|208:84,2,80,0|2|8,0:0|0:0|0:0,0:0:0:0:
148,120,43400,6,0,P|160:136|160:160,1,40,2|0,0:0|0:0,0:0:0:0:
152,180,43635,1,0,0:0:0:0:
288,184,43869,2,0,P|280:202|259:214,1,40
238,217,44104,1,8,0:0:0:0:
264,328,44338,2,0,P|244:330|223:318,1,40
210,301,44572,2,0,L|128:308,1,80,0|2,0:0|0:0,0:0:0:0:
238,217,45041,1,8,0:0:0:0:
265,215,45158,1,0,0:0:0:0:
292,213,45275,1,2,0:0:0:0:
319,212,45392,1,0,0:0:0:0:
347,211,45510,5,4,0:0:0:0:
364,232,45627,1,0,0:0:0:0:
391,241,45744,1,0,0:0:0:0:
418,239,45861,1,0,0:0:0:0:
443,227,45978,1,8,0:0:0:0:
463,208,46095,1,0,0:0:0:0:
475,182,46213,1,2,0:0:0:0:
473,154,46330,1,0,0:0:0:0:
509,65,46447,5,0,0:0:0:0:
503,92,46564,1,0,0:0:0:0:
486,114,46681,1,0,0:0:0:0:
462,129,46799,1,0,0:0:0:0:
434,131,46916,1,8,0:0:0:0:
406,128,47033,1,0,0:0:0:0:
381,113,47150,1,2,0:0:0:0:
363,91,47267,1,0,0:0:0:0:
437,42,47385,5,0,0:0:0:0:
418,20,47502,1,0,0:0:0:0:
394,5,47619,1,0,0:0:0:0:
359,0,47736,1,0,0:0:0:0:
331,5,47853,1,8,0:0:0:0:
306,19,47971,1,0,0:0:0:0:
288,41,48088,1,2,0:0:0:0:
278,67,48205,1,0,0:0:0:0:
262,90,48322,6,0,P|225:107|172:102,1,80
160,96,48674,1,0,0:0:0:0:
136,84,48791,2,0,P|99:101|46:96,1,80,8|2,0:0|0:0,0:0:0:0:
140,196,49260,5,0,0:0:0:0:
80,288,49494,2,0,P|64:296|40:292,1,40,2|0,0:0|0:0,0:0:0:0:
42,293,49728,2,0,P|84:276|124:280,1,80,8|0,0:0|0:0,0:0:0:0:
272,324,50197,2,0,P|230:341|190:337,1,80,0|2,0:0|0:0,0:0:0:0:
212,228,50666,1,8,0:0:0:0:
212,228,50900,6,0,L|256:212,2,40,2|0|0,0:0|0:0|0:0,0:0:0:0:
112,136,51369,2,0,L|68:140,2,40,0|0|8,0:0|0:0|0:0,0:0:0:0:
240,60,51838,2,0,L|200:44,2,40,2|0|0,0:0|0:0|0:0,0:0:0:0:
364,104,52306,1,2,0:0:0:0:
494,70,52541,1,8,0:0:0:0:
489,99,52658,1,0,0:0:0:0:
484,128,52775,1,2,0:0:0:0:
478,156,52892,1,0,0:0:0:0:
456,240,53010,5,0,0:0:0:0:
428,244,53127,1,0,0:0:0:0:
404,232,53244,1,0,0:0:0:0:
376,236,53361,1,0,0:0:0:0:
336,288,53478,1,8,0:0:0:0:
308,284,53595,1,0,0:0:0:0:
296,220,53713,1,2,0:0:0:0:
268,224,53830,1,0,0:0:0:0:
168,272,53947,5,0,0:0:0:0:
180,248,54064,1,0,0:0:0:0:
156,232,54181,1,0,0:0:0:0:
156,204,54298,1,0,0:0:0:0:
204,136,54416,1,8,0:0:0:0:
200,164,54533,1,0,0:0:0:0:
96,240,54650,2,0,L|84:200,1,40
96,120,54885,1,0,0:0:0:0:
96,120,55119,5,0,0:0:0:0:
112,96,55236,1,0,0:0:0:0:
132,76,55353,1,8,0:0:0:0:
156,64,55470,1,0,0:0:0:0:
184,60,55588,1,0,0:0:0:0:
212,64,55705,1,0,0:0:0:0:
236,76,55822,2,0,L|328:88,1,80
336,104,56174,2,0,L|392:100,1,40,0|8,0:0|0:0,0:0:0:0:
480,116,56525,1,2,0:0:0:0:
416,32,56760,5,0,0:0:0:0:
416,32,56994,2,0,L|464:28,1,40
480,116,57228,2,0,L|393:123,1,80,8|2,0:0|0:0,0:0:0:0:
348,214,57697,2,0,L|428:208,1,80,0|2,0:0|0:0,0:0:0:0:
504,316,58166,1,8,0:0:0:0:
476,320,58283,1,0,0:0:0:0:
448,324,58400,1,2,0:0:0:0:
420,328,58517,1,0,0:0:0:0:
392,332,58635,6,0,L|312:328,1,80
292,312,58986,1,0,0:0:0:0:
272,292,59103,2,0,L|184:300,1,80,8|2,0:0|0:0,0:0:0:0:
108,236,59572,2,0,L|28:243,1,80,0|2,0:0|0:0,0:0:0:0:
72,143,60041,2,0,L|112:140,3,40,8|0|2|0,0:0|0:0|0:0|0:0,0:0:0:0:
136,152,60510,5,4,0:0:0:0:
164,156,60627,1,0,0:0:0:0:
192,152,60744,1,0,0:0:0:0:
216,140,60861,1,0,0:0:0:0:
260,72,60978,1,8,0:0:0:0:
260,72,61213,6,0,L|316:76,1,40,2|0,0:0|0:0,0:0:0:0:
404,40,61447,1,0,0:0:0:0:
424,60,61564,1,0,0:0:0:0:
432,88,61681,1,0,0:0:0:0:
436,116,61799,1,0,0:0:0:0:
408,188,61916,1,8,0:0:0:0:
408,188,62150,6,0,L|456:192,1,40,2|0,0:0|0:0,0:0:0:0:
512,236,62385,2,0,P|516:272|496:316,1,80
432,340,62736,1,0,0:0:0:0:
368,296,62853,5,8,0:0:0:0:
340,304,62971,1,0,0:0:0:0:
312,312,63088,1,2,0:0:0:0:
284,320,63205,1,0,0:0:0:0:
256,312,63322,2,0,L|180:288,1,80
152,300,63674,2,0,P|132:300|108:288,1,40,0|8,0:0|0:0,0:0:0:0:
60,220,64025,1,2,0:0:0:0:
112,120,64260,6,0,P|149:105|200:112,1,80
212,124,64611,1,0,0:0:0:0:
232,140,64728,2,0,B|272:136|272:136|300:96,1,80,8|2,0:0|0:0,0:0:0:0:
396,72,65197,2,0,B|380:96|380:96|376:120|376:120|360:144,2,80,0|2|8,0:0|0:0|0:0,0:0:0:0:
504,84,65900,2,0,L|484:128,1,40,2|0,0:0|0:0,0:0:0:0:
464,132,66135,6,0,L|424:216,1,80
500,288,66603,2,0,L|412:319,1,80,8|2,0:0|0:0,0:0:0:0:
340,248,67072,2,0,L|256:208,2,80,0|2|10,0:0|0:0|0:0,0:0:0:0:
224,304,68010,5,4,0:0:0:0:
188,276,68478,1,0,0:0:0:0:
152,248,68947,1,0,0:0:0:0:
116,220,69416,2,0,L|32:244,2,80,2|0|0,0:0|0:0|0:0,0:0:0:0:
160,204,70353,1,0,0:0:0:0:
204,188,70822,1,0,0:0:0:0:
396,120,71760,6,0,L|304:112,2,80,0|0|0,0:0|0:0|0:0,0:0:0:0:
412,140,72463,1,0,0:0:0:0:
424,160,72697,2,0,L|503:166,2,80,0|0|2,0:0|0:0|0:0,0:0:0:0:
412,180,73400,1,0,0:0:0:0:
400,200,73635,6,0,L|320:193,2,80
388,304,75510,6,0,P|428:304|464:284,2,80,4|2|0,0:0|0:0|0:0,0:0:0:0:
368,296,76916,1,0,0:0:0:0:
352,280,77385,2,0,L|268:288,2,80,0|2|0,0:0|0:0|0:0,0:0:0:0:
116,136,79260,5,0,0:0:0:0:
220,76,79494,1,0,0:0:0:0:
204,196,79728,1,2,0:0:0:0:
184,76,79963,1,0,0:0:0:0:
284,144,80197,1,0,0:0:0:0:
164,152,80431,1,0,0:0:0:0:
272,60,80666,5,0,0:0:0:0:
384,144,80900,1,0,0:0:0:0:
272,228,81135,1,0,0:0:0:0:
256,192,81252,12,2,83010,0:0:0:0:
132,136,84885,5,4,0:0:0:0:
152,128,85002,1,0,0:0:0:0:
172,120,85119,2,0,L|216:128,2,40,0|0|8,0:0|0:0|0:0,0:0:0:0:
224,220,85588,2,0,L|268:228,1,40,2|0,0:0|0:0,0:0:0:0:
276,244,85822,1,0,0:0:0:0:
288,260,85939,1,0,0:0:0:0:
300,276,86056,2,0,L|348:272,2,40,0|0|8,0:0|0:0|0:0,0:0:0:0:
408,200,86525,6,0,L|456:208,2,40,2|0|0,0:0|0:0|0:0,0:0:0:0:
352,112,86994,1,0,0:0:0:0:
332,112,87111,1,0,0:0:0:0:
316,124,87228,1,8,0:0:0:0:
296,120,87345,1,0,0:0:0:0:
276,116,87463,1,2,0:0:0:0:
256,120,87580,1,0,0:0:0:0:
236,124,87697,2,0,B|192:124|160:100,2,80,0|0|10,0:0|0:0|0:0,0:0:0:0:
56,188,88635,5,0,0:0:0:0:
132,260,88869,1,0,0:0:0:0:
220,208,89103,2,0,L|264:212,1,40,8|0,0:0|0:0,0:0:0:0:
332,216,89338,2,0,L|292:228,1,40,2|0,0:0|0:0,0:0:0:0:
240,280,89572,2,0,P|248:324|276:352,1,80
384,368,90041,1,8,0:0:0:0:
384,368,90275,6,0,P|412:360|428:340,1,40,2|0,0:0|0:0,0:0:0:0:
369,303,90510,2,0,L|352:339,1,40
435,339,90744,2,0,L|459:299,1,40
415,230,90978,2,0,L|411:269,1,40,8|0,0:0|0:0,0:0:0:0:
493,246,91213,2,0,L|501:202,1,40,2|0,0:0|0:0,0:0:0:0:
480,129,91447,2,0,P|460:85|428:65,2,80,0|0|8,0:0|0:0|0:0,0:0:0:0:
376,156,92385,5,4,0:0:0:0:
376,156,92502,1,0,0:0:0:0:
376,156,92619,2,0,P|348:168|320:164,2,40,0|0|8,0:0|0:0|0:0,0:0:0:0:
280,108,93088,2,0,L|232:112,1,40,2|0,0:0|0:0,0:0:0:0:
200,100,93322,1,0,0:0:0:0:
160,104,93439,1,0,0:0:0:0:
136,64,93556,5,0,0:0:0:0:
160,104,93674,1,0,0:0:0:0:
144,144,93791,1,8,0:0:0:0:
152,248,94025,6,0,P|140:260|116:268,1,40,2|0,0:0|0:0,0:0:0:0:
80,272,94260,2,0,L|168:288,1,80,8|0,0:0|0:0,0:0:0:0:
176,300,94611,1,0,0:0:0:0:
192,312,94728,2,0,L|236:312,1,40,8|0,0:0|0:0,0:0:0:0:
228,228,94963,2,0,L|268:244,1,40,2|0,0:0|0:0,0:0:0:0:
300,168,95197,2,0,B|332:196|332:196|340:236,1,80
412,312,95666,1,8,0:0:0:0:
408,292,95783,1,0,0:0:0:0:
416,276,95900,1,0,0:0:0:0:
424,260,96017,1,0,0:0:0:0:
420,240,96135,6,0,L|412:196,1,40,0|0,0:0|0:0,0:0:0:0:
444,176,96369,2,0,L|436:128,1,40
448,100,96603,2,0,L|416:72,1,40,8|0,0:0|0:0,0:0:0:0:
380,84,96838,2,0,L|332:80,1,40,2|0,0:0|0:0,0:0:0:0:
308,56,97072,2,0,P|272:56|232:76,2,80,8|0|8,0:0|0:0|0:0,0:0:0:0:
308,56,97775,6,0,L|264:44,1,40,2|0,0:0|0:0,0:0:0:0:
128,88,98010,2,0,L|116:132,1,40
32,128,98244,2,0,L|60:172,1,40
120,200,98478,2,0,L|104:240,1,40,8|0,0:0|0:0,0:0:0:0:
32,232,98713,2,0,L|40:272,1,40,2|0,0:0|0:0,0:0:0:0:
100,316,98947,1,0,0:0:0:0:
260,304,99181,1,0,0:0:0:0:
188,160,99416,1,12,0:0:0:0:
188,160,99885,5,4,0:0:0:0:
216,132,100002,1,0,0:0:0:0:
252,148,100119,1,6,0:0:0:0:
248,188,100236,1,0,0:0:0:0:
208,196,100353,1,8,0:0:0:0:
208,196,100588,5,2,0:0:0:0:
248,188,100705,1,0,0:0:0:0:
288,180,100822,1,4,0:0:0:0:
326,171,100939,1,0,0:0:0:0:
348,204,101056,1,2,0:0:0:0:
323,236,101173,1,0,0:0:0:0:
285,221,101290,1,8,0:0:0:0:
285,221,101525,6,0,L|284:272,2,40,2|0|8,0:0|0:0|0:0,0:0:0:0:
288,80,101994,1,2,0:0:0:0:
320,56,102111,1,0,0:0:0:0:
360,52,102228,1,8,0:0:0:0:
392,76,102345,1,0,0:0:0:0:
432,88,102463,1,2,0:0:0:0:
468,72,102580,1,0,0:0:0:0:
432,88,102697,2,0,B|416:108|416:132|416:132|436:160,1,80,8|2,0:0|0:0,0:0:0:0:
508,276,103166,2,0,L|456:308,1,40,8|0,0:0|0:0,0:0:0:0:
476,336,103400,2,0,L|436:356,1,40,2|0,0:0|0:0,0:0:0:0:
400,352,103635,5,0,0:0:0:0:
360,340,103752,1,0,0:0:0:0:
332,312,103869,1,2,0:0:0:0:
320,272,103986,1,0,0:0:0:0:
280,284,104103,1,8,0:0:0:0:
240,296,104220,1,0,0:0:0:0:
200,308,104338,1,2,0:0:0:0:
164,320,104455,1,0,0:0:0:0:
124,332,104572,2,0,P|80:324|52:296,1,80,0|2,0:0|0:0,0:0:0:0:
44,264,104924,1,0,0:0:0:0:
36,224,105041,2,0,L|24:144,1,80,8|2,0:0|0:0,0:0:0:0:
56,120,105392,1,0,0:0:0:0:
180,40,105510,6,0,P|178:61|168:80,1,40
236,116,105744,2,0,P|223:133|205:144,1,40,2|0,0:0|0:0,0:0:0:0:
104,180,105978,2,0,P|116:162|134:151,1,40,8|0,0:0|0:0,0:0:0:0:
168,228,106213,2,0,P|187:218|208:218,1,40,2|0,0:0|0:0,0:0:0:0:
284,244,106447,2,0,P|324:252|380:244,2,80,0|2|8,0:0|0:0|0:0,0:0:0:0:
352,56,107385,5,4,0:0:0:0:
388,72,107502,1,0,0:0:0:0:
428,72,107619,1,2,0:0:0:0:
452,104,107736,1,0,0:0:0:0:
492,112,107853,1,8,0:0:0:0:
492,112,107970,1,0,0:0:0:0:
480,152,108088,1,2,0:0:0:0:
480,152,108205,1,0,0:0:0:0:
448,176,108322,2,0,P|452:208|464:224,2,40,0|0|2,0:0|0:0|0:0,0:0:0:0:
448,176,108791,1,8,0:0:0:0:
368,188,109025,2,0,L|316:196,1,40,2|0,0:0|0:0,0:0:0:0:
292,212,109260,5,0,0:0:0:0:
264,240,109377,1,0,0:0:0:0:
228,252,109494,1,2,0:0:0:0:
188,244,109611,1,0,0:0:0:0:
160,272,109728,1,8,0:0:0:0:
122,263,109845,1,0,0:0:0:0:
93,237,109962,1,2,0:0:0:0:
80,198,110079,1,0,0:0:0:0:
94,159,110197,2,0,L|10:167,1,80,0|2,0:0|0:0,0:0:0:0:
84,120,110666,2,0,L|136:116,1,40,8|0,0:0|0:0,0:0:0:0:
160,132,110900,2,0,L|212:128,1,40,2|0,0:0|0:0,0:0:0:0:
376,40,111135,5,4,0:0:0:0:
348,68,111252,1,0,0:0:0:0:
308,80,111369,1,2,0:0:0:0:
268,76,111486,1,0,0:0:0:0:
236,56,111603,6,0,P|264:80|276:120,1,80,8|2,0:0|0:0,0:0:0:0:
268,160,111955,1,0,0:0:0:0:
244,192,112072,1,0,0:0:0:0:
328,260,112306,1,2,0:0:0:0:
296,284,112424,1,0,0:0:0:0:
256,288,112541,1,8,0:0:0:0:
296,284,112775,5,2,0:0:0:0:
256,288,112892,1,0,0:0:0:0:
220,272,113010,2,0,P|200:278|180:276,1,40
116,232,113244,2,0,P|100:218|92:199,1,40,2|0,0:0|0:0,0:0:0:0:
111,315,113478,2,0,P|92:311|76:300,1,40,8|0,0:0|0:0,0:0:0:0:
23,160,113712,2,0,P|16:140|18:120,1,40,2|0,0:0|0:0,0:0:0:0:
168,140,113947,2,0,L|248:136,2,80,0|2|8,0:0|0:0|0:0,0:0:0:0:
260,60,114885,5,4,0:0:0:0:
260,60,115002,1,0,0:0:0:0:
284,92,115119,1,0,0:0:0:0:
380,72,115236,2,0,L|340:80,1,40,0|8,0:0|0:0,0:0:0:0:
260,60,115588,5,2,0:0:0:0:
284,92,115705,1,0,0:0:0:0:
308,132,115822,1,0,0:0:0:0:
308,132,115939,1,0,0:0:0:0:
332,164,116056,1,0,0:0:0:0:
428,144,116173,2,0,L|388:152,1,40,0|8,0:0|0:0,0:0:0:0:
308,132,116525,5,2,0:0:0:0:
332,164,116642,1,0,0:0:0:0:
336,204,116760,1,0,0:0:0:0:
336,204,116877,1,0,0:0:0:0:
328,244,116994,1,0,0:0:0:0:
328,244,117111,1,0,0:0:0:0:
300,272,117228,1,8,0:0:0:0:
264,284,117345,1,0,0:0:0:0:
156,292,117463,1,2,0:0:0:0:
192,280,117580,1,0,0:0:0:0:
188,172,117697,5,0,0:0:0:0:
100,224,117931,1,0,0:0:0:0:
60,128,118166,1,8,0:0:0:0:
60,128,118283,1,0,0:0:0:0:
100,124,118400,1,2,0:0:0:0:
120,88,118517,1,0,0:0:0:0:
152,64,118635,5,0,0:0:0:0:
188,80,118752,1,0,0:0:0:0:
224,60,118869,1,0,0:0:0:0:
360,32,119103,1,8,0:0:0:0:
348,68,119220,1,0,0:0:0:0:
352,108,119338,1,2,0:0:0:0:
380,136,119455,1,0,0:0:0:0:
416,148,119572,1,0,0:0:0:0:
468,240,119806,2,0,L|512:236,2,40,0|0|8,0:0|0:0|0:0,0:0:0:0:
392,316,120275,2,0,L|352:312,1,40,2|0,0:0|0:0,0:0:0:0:
312,316,120510,5,0,0:0:0:0:
304,276,120627,1,0,0:0:0:0:
280,244,120744,1,0,0:0:0:0:
244,232,120861,1,0,0:0:0:0:
204,236,120978,1,8,0:0:0:0:
192,200,121095,1,0,0:0:0:0:
160,172,121213,1,2,0:0:0:0:
120,164,121330,1,0,0:0:0:0:
84,176,121447,2,0,P|60:140|24:128,1,80
124,248,121916,1,8,0:0:0:0:
228,316,122385,5,4,0:0:0:0:
228,316,122502,1,0,0:0:0:0:
228,316,122619,2,0,L|272:304,1,40
380,296,122853,1,8,0:0:0:0:
380,296,123088,2,0,L|340:280,1,40,2|0,0:0|0:0,0:0:0:0:
288,200,123322,1,0,0:0:0:0:
288,200,123439,1,0,0:0:0:0:
288,200,123556,2,0,L|328:196,1,40
424,216,123791,1,8,0:0:0:0:
424,216,124025,5,2,0:0:0:0:
444,180,124142,1,0,0:0:0:0:
436,140,124260,1,0,0:0:0:0:
436,140,124377,1,0,0:0:0:0:
412,108,124494,1,0,0:0:0:0:
412,108,124611,1,0,0:0:0:0:
376,92,124728,1,8,0:0:0:0:
336,100,124845,1,0,0:0:0:0:
296,96,124963,1,2,0:0:0:0:
260,76,125080,1,0,0:0:0:0:
232,48,125197,6,0,L|144:56,1,80
44,64,125666,1,8,0:0:0:0:
44,64,125783,1,0,0:0:0:0:
64,96,125900,1,2,0:0:0:0:
68,136,126017,1,0,0:0:0:0:
56,172,126135,5,0,0:0:0:0:
88,196,126252,1,0,0:0:0:0:
128,192,126369,1,0,0:0:0:0:
236,248,126603,1,8,0:0:0:0:
212,280,126720,1,0,0:0:0:0:
172,292,126838,1,2,0:0:0:0:
236,248,126955,2,0,L|284:252,1,40
384,288,127306,2,0,L|428:280,2,40,0|0|8,0:0|0:0|0:0,0:0:0:0:
396,204,127775,2,0,L|440:196,1,40,2|0,0:0|0:0,0:0:0:0:
396,204,128010,5,0,0:0:0:0:
384,164,128127,1,0,0:0:0:0:
360,132,128244,1,0,0:0:0:0:
324,112,128361,1,0,0:0:0:0:
284,108,128478,1,8,0:0:0:0:
248,124,128595,1,0,0:0:0:0:
208,132,128713,1,2,0:0:0:0:
168,128,128830,1,0,0:0:0:0:
132,112,128947,2,0,P|92:112|52:132,2,80,0|0|8,0:0|0:0|0:0,0:0:0:0:
