osu file format v13

[General]
AudioFilename: Inaba.mp3
AudioLeadIn: 1484
PreviewTime: 8016
Countdown: 0
SampleSet: Soft
StackLeniency: 0.6
Mode: 0
LetterboxInBreaks: 0
WidescreenStoryboard: 1

[Editor]
Bookmarks: 114422
DistanceSpacing: 0.9
BeatDivisor: 2
GridSize: 4
TimelineZoom: 0.6999998

[Metadata]
Title:Endless Tewi-ma Park
TitleUnicode:エンドレス・てゐマパーク
Artist:IOSYS
ArtistUnicode:IOSYS
Creator:Rotte
Version:Easy
Source:Touhou
Tags:Tewi's Mapaku To Endless Wi Tewi Tei Inaba
BeatmapID:437641
BeatmapSetID:182499

[Difficulty]
HPDrainRate:3
CircleSize:3
OverallDifficulty:3
ApproachRate:3
SliderMultiplier:0.600000005960464
SliderTickRate:1

[Events]
//Background and Video events
0,0,"BG.jpg",0,0
//Break Periods
2,68210,83445
//Storyboard Layer 0 (Background)
//Storyboard Layer 1 (Fail)
//Storyboard Layer 2 (Pass)
//Storyboard Layer 3 (Foreground)
//Storyboard Sound Samples
//Background Colour Transformations
3,100,163,162,255

[TimingPoints]
510,468.75,4,2,1,50,1,0
627,-100,4,1,1,70,0,0
38010,-100,4,1,1,80,0,1
52892,-100,4,1,1,80,0,0
53010,-100,4,1,1,80,0,1
68010,-100,4,2,1,70,0,0
84885,-100,4,1,1,60,0,0
99885,-100,4,1,1,80,0,1
114416,-100,4,1,1,80,0,0
114885,-100,4,1,1,90,0,1
115002,-100,4,1,1,90,0,0

[Colours]
Combo1 : 242,206,0
Combo2 : 230,111,2
Combo3 : 242,206,0
Combo4 : 121,200,2

[HitObjects]
116,121,510,6,0,L|240:135,1,120.000001192093,4|0,0:0|0:0,0:0:0:0:
332,181,2385,1,0,0:0:0:0:
433,143,3322,6,0,P|451:104|433:26,2,120.000001192093,0|4|0,0:0|0:0|0:0,0:0:0:0:
394,243,6135,2,0,L|405:315,2,60.0000005960464,0|0|0,0:0|0:0|0:0,0:0:0:0:
332,156,8010,5,12,0:0:0:0:
244,96,8947,1,8,0:0:0:0:
136,96,9885,2,0,P|72:112|40:168,1,120.000001192093,8|0,0:0|0:0,0:0:0:0:
140,196,11760,6,0,L|267:168,1,120.000001192093,8|0,0:0|0:0,0:0:0:0:
220,65,13635,2,0,L|157:78,2,60.0000005960464,8|0|0,0:0|0:0|0:0,0:0:0:0:
327,55,15510,6,0,B|386:53|386:53|416:71|423:100,1,120.000001192093,12|0,0:0|0:0,0:0:0:0:
441,205,17385,2,0,P|411:267|347:295,1,120.000001192093,8|0,0:0|0:0,0:0:0:0:
260,296,19260,6,0,L|192:291,1,60.0000005960464,8|0,0:0|0:0,0:0:0:0:
168,247,20197,2,0,L|101:248,1,60.0000005960464,0|0,0:0|0:0,0:0:0:0:
56,232,21135,2,0,P|48:171|76:113,1,120.000001192093,8|0,0:0|0:0,0:0:0:0:
162,61,23010,6,0,L|285:75,1,120.000001192093,12|0,0:0|0:0,0:0:0:0:
388,61,24885,1,8,0:0:0:0:
467,134,25822,1,0,0:0:0:0:
472,241,26760,6,0,P|439:282|368:302,1,120.000001192093,8|0,0:0|0:0,0:0:0:0:
271,277,28635,2,0,L|150:291,1,120.000001192093,8|0,0:0|0:0,0:0:0:0:
70,362,30510,6,0,P|42:308|56:244,1,120.000001192093,12|0,0:0|0:0,0:0:0:0:
141,191,32385,1,8,0:0:0:0:
116,88,33322,1,0,0:0:0:0:
216,48,34260,6,0,L|285:45,1,60.0000005960464,8|0,0:0|0:0,0:0:0:0:
328,32,35197,2,0,P|378:64|396:121,1,120.000001192093,0|8,0:0|0:0,0:0:0:0:
356,220,37072,1,0,0:0:0:0:
408,315,38010,6,0,L|471:320,4,60.0000005960464,12|0|0|0|8,0:0|0:0|0:0|0:0|0:0,0:0:0:0:
302,336,40822,1,0,0:0:0:0:
195,315,41760,6,0,L|124:300,1,60.0000005960464,8|0,0:0|0:0,0:0:0:0:
92,270,42697,1,0,0:0:0:0:
184,214,43635,2,0,L|159:150,1,60.0000005960464,8|0,0:0|0:0,0:0:0:0:
167,104,44572,1,0,0:0:0:0:
273,83,45510,6,0,L|302:138,3,60.0000005960464,12|0|0|0,0:0|0:0|0:0|0:0,0:0:0:0:
343,168,47385,2,0,P|397:177|464:158,1,120.000001192093,8|0,0:0|0:0,0:0:0:0:
509,256,49260,5,8,0:0:0:0:
436,336,50197,2,0,L|369:331,1,60.0000005960464,0|0,0:0|0:0,0:0:0:0:
323,317,51135,1,8,0:0:0:0:
221,281,52072,2,0,L|154:286,1,60.0000005960464,0|0,0:0|0:0,0:0:0:0:
112,308,53010,6,0,P|90:271|91:245,1,60.0000005960464,12|0,0:0|0:0,0:0:0:0:
114,207,53947,2,0,L|126:141,1,60.0000005960464,0|0,0:0|0:0,0:0:0:0:
114,96,54885,2,0,P|167:65|227:64,1,120.000001192093,8|0,0:0|0:0,0:0:0:0:
326,98,56760,6,0,L|399:93,2,60.0000005960464,8|0|0,0:0|0:0|0:0,0:0:0:0:
269,189,58635,2,0,L|209:193,2,60.0000005960464,8|0|0,0:0|0:0|0:0,0:0:0:0:
373,218,60510,6,0,L|432:226,1,60.0000005960464,12|0,0:0|0:0,0:0:0:0:
481,248,61447,2,0,B|497:280|479:316|479:315,1,60.0000005960464,0|0,0:0|0:0,0:0:0:0:
443,344,62385,2,0,L|319:329,1,120.000001192093,0|8,0:0|0:0,0:0:0:0:
222,292,64260,6,0,B|165:322|106:286|106:286|81:223,1,180.000001788139,8|0,0:0|0:0,0:0:0:0:
85,178,66135,2,0,B|107:123|107:123|165:88|222:118,1,180.000001788139,8|0,0:0|0:0,0:0:0:0:
265,150,68010,1,4,0:0:0:0:
96,170,84885,6,0,L|233:160,1,120.000001192093,12|0,0:0|0:0,0:0:0:0:
319,131,86760,2,0,P|356:135|385:159,1,60.0000005960464,8|0,0:0|0:0,0:0:0:0:
406,190,87697,2,0,L|390:257,1,60.0000005960464,0|0,0:0|0:0,0:0:0:0:
363,294,88635,5,8,0:0:0:0:
264,338,89572,1,0,0:0:0:0:
166,292,90510,2,0,B|74:302|75:302,2,90.0000008940696,8|0|0,0:0|0:0|0:0,0:0:0:0:
219,286,92385,6,0,P|245:251|240:175,1,120.000001192093,12|0,0:0|0:0,0:0:0:0:
168,97,94260,1,8,0:0:0:0:
70,144,95197,2,0,L|0:130,2,60.0000005960464,0|0|8,0:0|0:0|0:0,0:0:0:0:
157,207,97072,6,0,L|283:229,1,120.000001192093,0|8,0:0|0:0,0:0:0:0:
379,255,98947,2,0,P|413:259|447:245,1,60.0000005960464,0|0,0:0|0:0,0:0:0:0:
480,218,99885,6,0,P|490:182|465:100,1,120.000001192093,12|0,0:0|0:0,0:0:0:0:
367,66,101760,2,0,L|299:78,2,60.0000005960464,8|0|0,0:0|0:0|0:0,0:0:0:0:
365,174,103635,6,0,B|265:191|265:191|217:184|195:151,1,180.000001788139,8|0,0:0|0:0,0:0:0:0:
177,104,105510,2,0,L|111:113,1,60.0000005960464,8|0,0:0|0:0,0:0:0:0:
66,130,106447,2,0,P|56:163|63:212,1,60.0000005960464,0|0,0:0|0:0,0:0:0:0:
68,240,107385,6,0,B|74:303|137:320|137:320|210:303,1,180.000001788139,12|0,0:0|0:0,0:0:0:0:
253,291,109260,1,8,0:0:0:0:
355,325,110197,1,0,0:0:0:0:
458,295,111135,6,0,P|496:252|486:182,1,120.000001192093,8|0,0:0|0:0,0:0:0:0:
420,112,113010,2,0,P|382:155|392:225,2,120.000001192093,8|0|0,0:0|0:0|0:0,0:0:0:0:
332,48,115822,5,0,0:0:0:0:
227,82,116760,2,0,L|158:77,1,60.0000005960464,8|0,0:0|0:0,0:0:0:0:
113,76,117697,2,0,P|81:119|81:186,1,120.000001192093,0|8,0:0|0:0,0:0:0:0:
140,273,119572,5,0,0:0:0:0:
245,251,120510,2,0,L|310:258,1,60.0000005960464,8|0,0:0|0:0,0:0:0:0:
354,277,121447,2,0,P|387:274|413:253,1,60.0000005960464
439,214,122385,6,0,L|455:91,1,120.000001192093,12|0,0:0|0:0,0:0:0:0:
361,40,124260,2,0,L|345:158,1,120.000001192093,8|0,0:0|0:0,0:0:0:0:
296,255,126135,6,0,P|256:278|222:282,1,60.0000005960464,8|0,0:0|0:0,0:0:0:0:
189,275,127072,2,0,L|128:264,1,60.0000005960464,0|8,0:0|0:0,0:0:0:0:
76,252,128010,1,0,0:0:0:0:
140,168,128947,2,0,L|211:180,1,60.0000005960464
252,186,129885,1,12,0:0:0:0:
