osu file format v13

[General]
AudioFilename: IOSYS - Cirno's Perfect Math Class.mp3
AudioLeadIn: 0
PreviewTime: -1
Countdown: 0
SampleSet: Normal
StackLeniency: 0.7
Mode: 3
LetterboxInBreaks: 0
SpecialStyle: 0
WidescreenStoryboard: 1

[Editor]
DistanceSpacing: 0.5
BeatDivisor: 4
GridSize: 8
TimelineZoom: 1.7

[Metadata]
Title:Cirno's Perfect Math Class
TitleUnicode:チルノのパーフェクトさんすう教室
Artist:IOSYS
ArtistUnicode:IOSYS
Creator:Level 51
Version:Hyper
Source:Touhou
Tags:chiruno no paafekuto sansuu kyoushitsu
BeatmapID:557865
BeatmapSetID:241544

[Difficulty]
HPDrainRate:8
CircleSize:4
OverallDifficulty:8
ApproachRate:0
SliderMultiplier:1.4
SliderTickRate:1

[Events]
//Background and Video events
//Break Periods
//Storyboard Layer 0 (Background)
//Storyboard Layer 1 (Fail)
//Storyboard Layer 2 (Pass)
//Storyboard Layer 3 (Foreground)
//Storyboard Sound Samples

[TimingPoints]
42,342.857142857143,4,1,0,7,1,0

[HitObjects]
64,192,42,5,0,0:0:0:0:
192,192,213,1,0,0:0:0:0:
64,192,384,1,0,0:0:0:0:
320,192,384,1,0,0:0:0:0:
448,192,556,1,0,0:0:0:0:
192,192,556,1,0,0:0:0:0:
448,192,899,1,0,0:0:0:0:
320,192,1070,1,0,0:0:0:0:
64,192,1070,1,0,0:0:0:0:
192,192,1242,1,0,0:0:0:0:
64,192,1413,1,0,0:0:0:0:
192,192,1584,1,0,0:0:0:0:
320,192,1756,1,0,0:0:0:0:
64,192,1756,1,0,0:0:0:0:
192,192,1927,1,0,0:0:0:0:
448,192,1927,1,0,0:0:0:0:
448,192,2270,1,0,0:0:0:0:
320,192,2442,1,0,0:0:0:0:
64,192,2442,1,0,0:0:0:0:
192,192,2613,1,0,0:0:0:0:
64,192,2784,1,0,0:0:0:0:
448,192,2784,1,0,0:0:0:0:
192,192,2956,1,0,0:0:0:0:
448,192,2956,1,0,0:0:0:0:
320,192,3042,1,0,0:0:0:0:
448,192,3127,1,0,0:0:0:0:
192,192,3299,1,0,0:0:0:0:
320,192,3299,1,0,0:0:0:0:
64,192,3470,1,0,0:0:0:0:
448,192,3470,1,0,0:0:0:0:
320,192,3642,1,0,0:0:0:0:
64,192,3642,1,0,0:0:0:0:
192,192,3727,1,0,0:0:0:0:
64,192,3813,1,0,0:0:0:0:
64,192,3984,1,0,0:0:0:0:
448,192,4156,1,0,0:0:0:0:
192,192,4156,1,0,0:0:0:0:
320,192,4327,1,0,0:0:0:0:
64,192,4327,1,0,0:0:0:0:
192,192,4499,1,0,0:0:0:0:
448,192,4499,1,0,0:0:0:0:
64,192,4670,1,0,0:0:0:0:
320,192,4670,1,0,0:0:0:0:
192,192,5013,1,0,0:0:0:0:
320,192,5099,1,0,0:0:0:0:
192,192,5184,1,0,0:0:0:0:
64,192,5527,1,0,0:0:0:0:
192,192,5699,1,0,0:0:0:0:
320,192,5870,1,0,0:0:0:0:
64,192,5870,1,0,0:0:0:0:
448,192,6042,1,0,0:0:0:0:
192,192,6042,1,0,0:0:0:0:
448,192,6384,1,0,0:0:0:0:
192,192,6556,1,0,0:0:0:0:
64,192,6556,1,0,0:0:0:0:
320,192,6727,1,0,0:0:0:0:
64,192,6899,1,0,0:0:0:0:
448,192,6899,1,0,0:0:0:0:
192,192,7070,1,0,0:0:0:0:
448,192,7070,1,0,0:0:0:0:
64,192,7242,1,0,0:0:0:0:
320,192,7242,1,0,0:0:0:0:
192,192,7413,1,0,0:0:0:0:
320,192,7413,1,0,0:0:0:0:
64,192,7756,1,0,0:0:0:0:
448,192,7756,1,0,0:0:0:0:
192,192,7927,1,0,0:0:0:0:
320,192,7927,1,0,0:0:0:0:
64,192,8099,1,0,0:0:0:0:
448,192,8099,1,0,0:0:0:0:
448,192,8270,1,0,0:0:0:0:
192,192,8270,1,0,0:0:0:0:
320,192,8442,1,0,0:0:0:0:
64,192,8442,1,0,0:0:0:0:
448,192,8527,1,0,0:0:0:0:
192,192,8613,1,0,0:0:0:0:
320,192,8613,1,0,0:0:0:0:
64,192,8784,1,0,0:0:0:0:
448,192,8784,1,0,0:0:0:0:
448,192,8956,1,0,0:0:0:0:
320,192,8956,1,0,0:0:0:0:
192,192,9127,1,0,0:0:0:0:
320,192,9127,1,0,0:0:0:0:
64,192,9299,1,0,0:0:0:0:
320,192,9299,1,0,0:0:0:0:
64,192,9470,1,0,0:0:0:0:
192,192,9470,1,0,0:0:0:0:
320,192,9642,1,0,0:0:0:0:
448,192,9642,1,0,0:0:0:0:
320,192,9813,1,0,0:0:0:0:
448,192,9813,1,0,0:0:0:0:
64,192,9984,1,0,0:0:0:0:
192,192,9984,1,0,0:0:0:0:
320,192,10156,1,0,0:0:0:0:
448,192,10156,1,0,0:0:0:0:
64,192,10499,128,0,10670:0:0:0:0:
192,192,10670,128,0,10842:0:0:0:0:
320,192,10842,128,0,11013:0:0:0:0:
448,192,11013,128,0,11184:0:0:0:0:
320,192,11184,1,0,0:0:0:0:
192,192,11270,1,0,0:0:0:0:
64,192,11356,1,0,0:0:0:0:
448,192,11442,1,0,0:0:0:0:
320,192,11527,1,0,0:0:0:0:
192,192,11613,1,0,0:0:0:0:
64,192,11699,1,0,0:0:0:0:
448,192,11784,1,0,0:0:0:0:
320,192,11870,1,0,0:0:0:0:
192,192,11956,1,0,0:0:0:0:
64,192,12042,1,0,0:0:0:0:
448,192,12127,1,0,0:0:0:0:
320,192,12213,1,0,0:0:0:0:
192,192,12299,1,0,0:0:0:0:
64,192,12384,1,0,0:0:0:0:
64,192,12556,1,0,0:0:0:0:
320,192,12556,1,0,0:0:0:0:
192,192,12727,1,0,0:0:0:0:
320,192,12727,1,0,0:0:0:0:
192,192,12899,1,0,0:0:0:0:
448,192,12899,1,0,0:0:0:0:
320,192,13070,1,0,0:0:0:0:
448,192,13070,1,0,0:0:0:0:
64,192,13242,128,0,13413:0:0:0:0:
192,192,13413,128,0,13584:0:0:0:0:
320,192,13584,128,0,13756:0:0:0:0:
448,192,13756,1,0,0:0:0:0:
192,192,13842,1,0,0:0:0:0:
320,192,13927,1,0,0:0:0:0:
192,192,14013,1,0,0:0:0:0:
64,192,14099,1,0,0:0:0:0:
448,192,14184,1,0,0:0:0:0:
320,192,14270,1,0,0:0:0:0:
192,192,14356,1,0,0:0:0:0:
320,192,14442,1,0,0:0:0:0:
192,192,14527,1,0,0:0:0:0:
64,192,14613,1,0,0:0:0:0:
448,192,14699,1,0,0:0:0:0:
320,192,14784,1,0,0:0:0:0:
192,192,14870,1,0,0:0:0:0:
320,192,14956,1,0,0:0:0:0:
192,192,15042,1,0,0:0:0:0:
64,192,15127,1,0,0:0:0:0:
448,192,15127,1,0,0:0:0:0:
320,192,15299,1,0,0:0:0:0:
192,192,15384,1,0,0:0:0:0:
64,192,15470,1,0,0:0:0:0:
320,192,15470,1,0,0:0:0:0:
448,192,15556,1,0,0:0:0:0:
320,192,15642,1,0,0:0:0:0:
192,192,15727,1,0,0:0:0:0:
448,192,15813,1,0,0:0:0:0:
320,192,15813,1,0,0:0:0:0:
64,192,15899,1,0,0:0:0:0:
192,192,15899,1,0,0:0:0:0:
448,192,15984,1,0,0:0:0:0:
320,192,15984,1,0,0:0:0:0:
192,192,16070,1,0,0:0:0:0:
64,192,16070,1,0,0:0:0:0:
320,192,16156,1,0,0:0:0:0:
448,192,16156,1,0,0:0:0:0:
192,192,16242,1,0,0:0:0:0:
320,192,16327,1,0,0:0:0:0:
192,192,16413,1,0,0:0:0:0:
64,192,16499,1,0,0:0:0:0:
448,192,16499,128,0,17184:0:0:0:0:
320,192,16499,128,0,17184:0:0:0:0:
64,192,17184,128,0,17870:0:0:0:0:
192,192,17184,128,0,17870:0:0:0:0:
320,192,17870,128,0,18556:0:0:0:0:
448,192,17870,128,0,18556:0:0:0:0:
64,192,18556,128,0,18727:0:0:0:0:
192,192,18727,128,0,18899:0:0:0:0:
320,192,18899,128,0,19070:0:0:0:0:
448,192,19070,128,0,19242:0:0:0:0:
64,192,19242,128,0,19584:0:0:0:0:
192,192,19242,1,0,0:0:0:0:
320,192,19413,1,0,0:0:0:0:
192,192,19584,1,0,0:0:0:0:
320,192,19756,1,0,0:0:0:0:
448,192,19927,128,0,20270:0:0:0:0:
192,192,19927,1,0,0:0:0:0:
320,192,20099,1,0,0:0:0:0:
192,192,20270,1,0,0:0:0:0:
320,192,20442,1,0,0:0:0:0:
64,192,20613,1,0,0:0:0:0:
448,192,20613,1,0,0:0:0:0:
320,192,20784,1,0,0:0:0:0:
192,192,20784,1,0,0:0:0:0:
448,192,20870,1,0,0:0:0:0:
64,192,20870,1,0,0:0:0:0:
320,192,20956,1,0,0:0:0:0:
192,192,20956,1,0,0:0:0:0:
64,192,21127,1,0,0:0:0:0:
192,192,21127,1,0,0:0:0:0:
64,192,21299,1,0,0:0:0:0:
192,192,21299,1,0,0:0:0:0:
320,192,21470,1,0,0:0:0:0:
448,192,21470,1,0,0:0:0:0:
320,192,21642,1,0,0:0:0:0:
448,192,21642,1,0,0:0:0:0:
192,192,21984,1,0,0:0:0:0:
448,192,21984,1,0,0:0:0:0:
64,192,22156,1,0,0:0:0:0:
320,192,22156,1,0,0:0:0:0:
320,192,22327,1,0,0:0:0:0:
192,192,22327,1,0,0:0:0:0:
448,192,22499,128,0,22842:0:0:0:0:
64,192,22499,1,0,0:0:0:0:
320,192,22842,1,0,0:0:0:0:
64,192,22842,1,0,0:0:0:0:
192,192,22927,1,0,0:0:0:0:
64,192,23013,1,0,0:0:0:0:
448,192,23099,1,0,0:0:0:0:
320,192,23184,1,0,0:0:0:0:
192,192,23270,1,0,0:0:0:0:
64,192,23356,1,0,0:0:0:0:
448,192,23356,1,0,0:0:0:0:
64,192,23527,1,0,0:0:0:0:
320,192,23527,1,0,0:0:0:0:
192,192,23699,1,0,0:0:0:0:
448,192,23699,1,0,0:0:0:0:
448,192,23870,128,0,24042:0:0:0:0:
320,192,23870,1,0,0:0:0:0:
64,192,24127,1,0,0:0:0:0:
448,192,24213,1,0,0:0:0:0:
192,192,24213,1,0,0:0:0:0:
320,192,24384,1,0,0:0:0:0:
192,192,24384,1,0,0:0:0:0:
64,192,24556,1,0,0:0:0:0:
320,192,24556,1,0,0:0:0:0:
448,192,24727,1,0,0:0:0:0:
192,192,24727,1,0,0:0:0:0:
64,192,24899,1,0,0:0:0:0:
192,192,24899,1,0,0:0:0:0:
64,192,25070,1,0,0:0:0:0:
448,192,25070,1,0,0:0:0:0:
320,192,25242,1,0,0:0:0:0:
448,192,25242,1,0,0:0:0:0:
448,192,25413,1,0,0:0:0:0:
320,192,25499,1,0,0:0:0:0:
192,192,25584,1,0,0:0:0:0:
320,192,25670,1,0,0:0:0:0:
192,192,25756,1,0,0:0:0:0:
64,192,25842,1,0,0:0:0:0:
192,192,25927,1,0,0:0:0:0:
320,192,26013,1,0,0:0:0:0:
448,192,26099,1,0,0:0:0:0:
320,192,26184,1,0,0:0:0:0:
192,192,26270,1,0,0:0:0:0:
64,192,26356,1,0,0:0:0:0:
192,192,26442,1,0,0:0:0:0:
448,192,26527,1,0,0:0:0:0:
320,192,26613,1,0,0:0:0:0:
192,192,26699,1,0,0:0:0:0:
448,192,26784,1,0,0:0:0:0:
320,192,26784,1,0,0:0:0:0:
64,192,26870,1,0,0:0:0:0:
448,192,26956,1,0,0:0:0:0:
192,192,26956,1,0,0:0:0:0:
448,192,27127,1,0,0:0:0:0:
64,192,27127,1,0,0:0:0:0:
320,192,27213,1,0,0:0:0:0:
192,192,27299,1,0,0:0:0:0:
64,192,27384,1,0,0:0:0:0:
320,192,27470,1,0,0:0:0:0:
448,192,27470,1,0,0:0:0:0:
64,192,27642,1,0,0:0:0:0:
320,192,27642,1,0,0:0:0:0:
192,192,27813,1,0,0:0:0:0:
448,192,27813,1,0,0:0:0:0:
448,192,27984,128,0,28327:0:0:0:0:
320,192,27984,1,0,0:0:0:0:
64,192,28327,1,0,0:0:0:0:
320,192,28413,1,0,0:0:0:0:
192,192,28499,1,0,0:0:0:0:
64,192,28584,1,0,0:0:0:0:
192,192,28670,1,0,0:0:0:0:
320,192,28756,1,0,0:0:0:0:
192,192,28842,1,0,0:0:0:0:
448,192,28842,1,0,0:0:0:0:
64,192,29013,1,0,0:0:0:0:
192,192,29013,1,0,0:0:0:0:
64,192,29184,1,0,0:0:0:0:
448,192,29184,1,0,0:0:0:0:
448,192,29356,128,0,29527:0:0:0:0:
320,192,29356,1,0,0:0:0:0:
64,192,29527,1,0,0:0:0:0:
192,192,29613,1,0,0:0:0:0:
320,192,29699,1,0,0:0:0:0:
448,192,29699,1,0,0:0:0:0:
192,192,29870,1,0,0:0:0:0:
320,192,29870,1,0,0:0:0:0:
64,192,30042,1,0,0:0:0:0:
192,192,30042,1,0,0:0:0:0:
192,192,30213,1,0,0:0:0:0:
320,192,30213,1,0,0:0:0:0:
64,192,30384,1,0,0:0:0:0:
192,192,30384,1,0,0:0:0:0:
64,192,30556,1,0,0:0:0:0:
320,192,30556,1,0,0:0:0:0:
192,192,30727,1,0,0:0:0:0:
448,192,30727,128,0,31070:0:0:0:0:
320,192,31070,1,0,0:0:0:0:
192,192,31156,1,0,0:0:0:0:
64,192,31242,1,0,0:0:0:0:
448,192,31327,1,0,0:0:0:0:
320,192,31413,1,0,0:0:0:0:
192,192,31499,1,0,0:0:0:0:
448,192,31584,1,0,0:0:0:0:
64,192,31670,1,0,0:0:0:0:
320,192,31756,1,0,0:0:0:0:
192,192,31842,1,0,0:0:0:0:
448,192,31927,1,0,0:0:0:0:
64,192,32013,1,0,0:0:0:0:
320,192,32099,1,0,0:0:0:0:
192,192,32184,1,0,0:0:0:0:
64,192,32270,1,0,0:0:0:0:
448,192,32270,1,0,0:0:0:0:
192,192,32442,1,0,0:0:0:0:
320,192,32442,1,0,0:0:0:0:
64,192,32613,1,0,0:0:0:0:
448,192,32613,1,0,0:0:0:0:
192,192,32784,1,0,0:0:0:0:
320,192,32784,1,0,0:0:0:0:
64,192,32956,1,0,0:0:0:0:
448,192,32956,1,0,0:0:0:0:
64,192,33127,1,0,0:0:0:0:
320,192,33127,1,0,0:0:0:0:
192,192,33299,1,0,0:0:0:0:
448,192,33299,1,0,0:0:0:0:
448,192,33470,128,0,33813:0:0:0:0:
64,192,33470,1,0,0:0:0:0:
320,192,33813,1,0,0:0:0:0:
192,192,33899,1,0,0:0:0:0:
448,192,33984,1,0,0:0:0:0:
320,192,34070,1,0,0:0:0:0:
192,192,34156,1,0,0:0:0:0:
64,192,34242,1,0,0:0:0:0:
320,192,34327,1,0,0:0:0:0:
448,192,34327,1,0,0:0:0:0:
64,192,34499,1,0,0:0:0:0:
448,192,34499,1,0,0:0:0:0:
192,192,34670,1,0,0:0:0:0:
320,192,34670,1,0,0:0:0:0:
320,192,34842,1,0,0:0:0:0:
448,192,34842,1,0,0:0:0:0:
192,192,35099,1,0,0:0:0:0:
448,192,35184,1,0,0:0:0:0:
64,192,35184,1,0,0:0:0:0:
64,192,35356,1,0,0:0:0:0:
320,192,35356,1,0,0:0:0:0:
64,192,35527,1,0,0:0:0:0:
192,192,35527,1,0,0:0:0:0:
192,192,35699,1,0,0:0:0:0:
448,192,35699,1,0,0:0:0:0:
64,192,35870,1,0,0:0:0:0:
320,192,35870,1,0,0:0:0:0:
320,192,36042,1,0,0:0:0:0:
448,192,36042,1,0,0:0:0:0:
448,192,36213,128,0,36556:0:0:0:0:
64,192,36213,1,0,0:0:0:0:
320,192,36556,1,0,0:0:0:0:
192,192,36642,1,0,0:0:0:0:
320,192,36727,1,0,0:0:0:0:
448,192,36813,1,0,0:0:0:0:
320,192,36899,1,0,0:0:0:0:
192,192,36984,1,0,0:0:0:0:
64,192,37070,1,0,0:0:0:0:
320,192,37156,1,0,0:0:0:0:
192,192,37242,1,0,0:0:0:0:
64,192,37327,1,0,0:0:0:0:
192,192,37413,1,0,0:0:0:0:
320,192,37499,1,0,0:0:0:0:
192,192,37584,1,0,0:0:0:0:
448,192,37670,1,0,0:0:0:0:
192,192,37756,1,0,0:0:0:0:
64,192,37756,1,0,0:0:0:0:
448,192,37842,1,0,0:0:0:0:
192,192,37927,1,0,0:0:0:0:
320,192,37927,1,0,0:0:0:0:
64,192,38099,1,0,0:0:0:0:
448,192,38099,1,0,0:0:0:0:
320,192,38270,1,0,0:0:0:0:
192,192,38270,1,0,0:0:0:0:
64,192,38442,1,0,0:0:0:0:
320,192,38442,1,0,0:0:0:0:
192,192,38613,1,0,0:0:0:0:
448,192,38613,1,0,0:0:0:0:
64,192,38784,1,0,0:0:0:0:
320,192,38784,1,0,0:0:0:0:
192,192,38956,1,0,0:0:0:0:
448,192,38956,128,0,39299:0:0:0:0:
64,192,39299,1,0,0:0:0:0:
192,192,39384,1,0,0:0:0:0:
320,192,39470,1,0,0:0:0:0:
192,192,39556,1,0,0:0:0:0:
64,192,39642,1,0,0:0:0:0:
320,192,39727,1,0,0:0:0:0:
192,192,39813,1,0,0:0:0:0:
64,192,39813,1,0,0:0:0:0:
448,192,39899,1,0,0:0:0:0:
192,192,39984,1,0,0:0:0:0:
320,192,39984,1,0,0:0:0:0:
64,192,40070,1,0,0:0:0:0:
320,192,40156,1,0,0:0:0:0:
448,192,40156,1,0,0:0:0:0:
64,192,40242,1,0,0:0:0:0:
192,192,40327,1,0,0:0:0:0:
320,192,40327,1,0,0:0:0:0:
448,192,40413,1,0,0:0:0:0:
64,192,40499,1,0,0:0:0:0:
192,192,40499,1,0,0:0:0:0:
448,192,40584,1,0,0:0:0:0:
320,192,40670,1,0,0:0:0:0:
192,192,40670,1,0,0:0:0:0:
64,192,40756,1,0,0:0:0:0:
448,192,40842,1,0,0:0:0:0:
320,192,40842,1,0,0:0:0:0:
64,192,40927,1,0,0:0:0:0:
192,192,41013,1,0,0:0:0:0:
320,192,41013,1,0,0:0:0:0:
448,192,41099,1,0,0:0:0:0:
192,192,41184,1,0,0:0:0:0:
320,192,41184,1,0,0:0:0:0:
448,192,41270,1,0,0:0:0:0:
64,192,41270,1,0,0:0:0:0:
64,192,41442,1,0,0:0:0:0:
320,192,41442,1,0,0:0:0:0:
448,192,41527,1,0,0:0:0:0:
192,192,41527,1,0,0:0:0:0:
192,192,41699,1,0,0:0:0:0:
64,192,41699,1,0,0:0:0:0:
448,192,41784,1,0,0:0:0:0:
320,192,41784,1,0,0:0:0:0:
64,192,41956,1,0,0:0:0:0:
448,192,41956,1,0,0:0:0:0:
192,192,42042,1,0,0:0:0:0:
320,192,42042,1,0,0:0:0:0:
320,192,42213,1,0,0:0:0:0:
192,192,42213,1,0,0:0:0:0:
64,192,42299,1,0,0:0:0:0:
448,192,42299,1,0,0:0:0:0:
192,192,42384,1,0,0:0:0:0:
320,192,42384,1,0,0:0:0:0:
64,192,42470,1,0,0:0:0:0:
192,192,42556,1,0,0:0:0:0:
320,192,42556,1,0,0:0:0:0:
448,192,42556,1,0,0:0:0:0:
192,192,42727,1,0,0:0:0:0:
320,192,42727,1,0,0:0:0:0:
448,192,42727,1,0,0:0:0:0:
192,192,42899,1,0,0:0:0:0:
320,192,42899,1,0,0:0:0:0:
448,192,42899,1,0,0:0:0:0:
64,192,43070,1,0,0:0:0:0:
192,192,43156,1,0,0:0:0:0:
320,192,43156,1,0,0:0:0:0:
448,192,43156,1,0,0:0:0:0:
64,192,43584,128,0,43756:0:0:0:0:
192,192,43584,128,0,43756:0:0:0:0:
320,192,43584,128,0,43756:0:0:0:0:
448,192,43584,128,0,43756:0:0:0:0:
64,192,43927,1,0,0:0:0:0:
448,192,43927,1,0,0:0:0:0:
192,192,44099,1,0,0:0:0:0:
64,192,44270,1,0,0:0:0:0:
448,192,44270,1,0,0:0:0:0:
320,192,44442,1,0,0:0:0:0:
64,192,44613,1,0,0:0:0:0:
192,192,44613,1,0,0:0:0:0:
448,192,44784,1,0,0:0:0:0:
192,192,44956,1,0,0:0:0:0:
320,192,44956,1,0,0:0:0:0:
448,192,45127,1,0,0:0:0:0:
64,192,45299,1,0,0:0:0:0:
320,192,45299,1,0,0:0:0:0:
192,192,45470,1,0,0:0:0:0:
64,192,45642,1,0,0:0:0:0:
320,192,45642,1,0,0:0:0:0:
448,192,45813,1,0,0:0:0:0:
64,192,45984,1,0,0:0:0:0:
192,192,45984,1,0,0:0:0:0:
448,192,46156,1,0,0:0:0:0:
320,192,46327,1,0,0:0:0:0:
192,192,46327,1,0,0:0:0:0:
64,192,46499,1,0,0:0:0:0:
192,192,46670,1,0,0:0:0:0:
448,192,46670,1,0,0:0:0:0:
320,192,46842,1,0,0:0:0:0:
192,192,47013,1,0,0:0:0:0:
448,192,47013,1,0,0:0:0:0:
64,192,47184,1,0,0:0:0:0:
192,192,47356,1,0,0:0:0:0:
320,192,47356,1,0,0:0:0:0:
448,192,47527,1,0,0:0:0:0:
192,192,47699,1,0,0:0:0:0:
320,192,47699,1,0,0:0:0:0:
64,192,47870,1,0,0:0:0:0:
192,192,48042,1,0,0:0:0:0:
448,192,48042,1,0,0:0:0:0:
64,192,48213,1,0,0:0:0:0:
192,192,48384,1,0,0:0:0:0:
448,192,48384,1,0,0:0:0:0:
320,192,48556,1,0,0:0:0:0:
192,192,48727,1,0,0:0:0:0:
64,192,48727,1,0,0:0:0:0:
192,192,48899,1,0,0:0:0:0:
320,192,49070,1,0,0:0:0:0:
448,192,49070,1,0,0:0:0:0:
320,192,49242,1,0,0:0:0:0:
64,192,49413,1,0,0:0:0:0:
448,192,49413,1,0,0:0:0:0:
192,192,49413,1,0,0:0:0:0:
320,192,49584,1,0,0:0:0:0:
192,192,49670,1,0,0:0:0:0:
320,192,49756,1,0,0:0:0:0:
448,192,49756,1,0,0:0:0:0:
64,192,49927,1,0,0:0:0:0:
192,192,50099,1,0,0:0:0:0:
448,192,50099,1,0,0:0:0:0:
320,192,50270,1,0,0:0:0:0:
192,192,50442,1,0,0:0:0:0:
448,192,50442,1,0,0:0:0:0:
64,192,50613,1,0,0:0:0:0:
192,192,50784,1,0,0:0:0:0:
320,192,50784,1,0,0:0:0:0:
64,192,50956,1,0,0:0:0:0:
192,192,51042,1,0,0:0:0:0:
320,192,51127,1,0,0:0:0:0:
448,192,51127,1,0,0:0:0:0:
64,192,51299,1,0,0:0:0:0:
192,192,51470,1,0,0:0:0:0:
320,192,51470,1,0,0:0:0:0:
448,192,51642,1,0,0:0:0:0:
64,192,51813,1,0,0:0:0:0:
192,192,51813,1,0,0:0:0:0:
320,192,51984,1,0,0:0:0:0:
448,192,52156,128,0,52327:0:0:0:0:
64,192,52156,1,0,0:0:0:0:
320,192,52327,128,0,52499:0:0:0:0:
192,192,52327,1,0,0:0:0:0:
64,192,52499,128,0,52670:0:0:0:0:
448,192,52499,1,0,0:0:0:0:
192,192,52670,128,0,52842:0:0:0:0:
320,192,52670,1,0,0:0:0:0:
64,192,52842,1,0,0:0:0:0:
448,192,52842,128,0,53013:0:0:0:0:
192,192,53013,1,0,0:0:0:0:
320,192,53013,128,0,53184:0:0:0:0:
64,192,53184,128,0,53356:0:0:0:0:
448,192,53184,1,0,0:0:0:0:
192,192,53356,128,0,53527:0:0:0:0:
320,192,53356,1,0,0:0:0:0:
64,192,53527,1,0,0:0:0:0:
448,192,53527,128,0,53699:0:0:0:0:
320,192,53699,1,0,0:0:0:0:
64,192,53784,1,0,0:0:0:0:
192,192,53870,1,0,0:0:0:0:
320,192,53956,1,0,0:0:0:0:
192,192,54042,1,0,0:0:0:0:
64,192,54127,1,0,0:0:0:0:
448,192,54213,1,0,0:0:0:0:
64,192,54299,1,0,0:0:0:0:
192,192,54384,1,0,0:0:0:0:
320,192,54470,1,0,0:0:0:0:
192,192,54556,1,0,0:0:0:0:
64,192,54642,1,0,0:0:0:0:
448,192,54727,1,0,0:0:0:0:
320,192,54813,1,0,0:0:0:0:
192,192,54899,1,0,0:0:0:0:
64,192,54899,1,0,0:0:0:0:
448,192,55070,1,0,0:0:0:0:
192,192,55242,1,0,0:0:0:0:
320,192,55242,1,0,0:0:0:0:
64,192,55413,1,0,0:0:0:0:
192,192,55584,1,0,0:0:0:0:
320,192,55584,1,0,0:0:0:0:
64,192,55756,1,0,0:0:0:0:
320,192,55927,128,0,56099:0:0:0:0:
192,192,55927,128,0,56099:0:0:0:0:
64,192,56099,1,0,0:0:0:0:
320,192,56270,1,0,0:0:0:0:
448,192,56270,1,0,0:0:0:0:
192,192,56442,1,0,0:0:0:0:
64,192,56527,1,0,0:0:0:0:
192,192,56613,1,0,0:0:0:0:
448,192,56613,1,0,0:0:0:0:
320,192,56784,1,0,0:0:0:0:
64,192,56956,1,0,0:0:0:0:
448,192,56956,1,0,0:0:0:0:
64,192,57127,128,0,57470:0:0:0:0:
192,192,57127,1,0,0:0:0:0:
320,192,57299,1,0,0:0:0:0:
192,192,57299,128,0,57470:0:0:0:0:
448,192,57470,1,0,0:0:0:0:
64,192,57642,1,0,0:0:0:0:
320,192,57642,1,0,0:0:0:0:
192,192,57813,1,0,0:0:0:0:
320,192,57899,1,0,0:0:0:0:
448,192,57984,1,0,0:0:0:0:
64,192,57984,1,0,0:0:0:0:
192,192,58156,1,0,0:0:0:0:
64,192,58327,1,0,0:0:0:0:
448,192,58327,1,0,0:0:0:0:
320,192,58499,1,0,0:0:0:0:
64,192,58670,1,0,0:0:0:0:
448,192,58670,1,0,0:0:0:0:
192,192,58842,1,0,0:0:0:0:
64,192,59013,1,0,0:0:0:0:
320,192,59013,1,0,0:0:0:0:
320,192,59184,1,0,0:0:0:0:
448,192,59184,1,0,0:0:0:0:
64,192,59270,1,0,0:0:0:0:
192,192,59270,1,0,0:0:0:0:
320,192,59356,1,0,0:0:0:0:
448,192,59356,1,0,0:0:0:0:
64,192,59527,1,0,0:0:0:0:
192,192,59527,1,0,0:0:0:0:
320,192,59613,1,0,0:0:0:0:
448,192,59613,1,0,0:0:0:0:
192,192,59699,1,0,0:0:0:0:
64,192,59699,1,0,0:0:0:0:
320,192,59784,1,0,0:0:0:0:
64,192,59870,1,0,0:0:0:0:
192,192,59870,1,0,0:0:0:0:
320,192,59956,1,0,0:0:0:0:
448,192,59956,1,0,0:0:0:0:
64,192,60042,1,0,0:0:0:0:
192,192,60042,1,0,0:0:0:0:
448,192,60127,1,0,0:0:0:0:
320,192,60127,1,0,0:0:0:0:
64,192,60213,1,0,0:0:0:0:
192,192,60213,1,0,0:0:0:0:
320,192,60299,1,0,0:0:0:0:
448,192,60299,1,0,0:0:0:0:
64,192,60384,1,0,0:0:0:0:
192,192,60384,1,0,0:0:0:0:
320,192,60470,1,0,0:0:0:0:
448,192,60556,1,0,0:0:0:0:
192,192,60642,1,0,0:0:0:0:
64,192,60727,1,0,0:0:0:0:
192,192,60813,1,0,0:0:0:0:
320,192,60899,1,0,0:0:0:0:
448,192,60984,1,0,0:0:0:0:
64,192,61070,1,0,0:0:0:0:
320,192,61070,1,0,0:0:0:0:
192,192,61156,1,0,0:0:0:0:
320,192,61242,1,0,0:0:0:0:
448,192,61327,1,0,0:0:0:0:
320,192,61413,1,0,0:0:0:0:
192,192,61499,1,0,0:0:0:0:
64,192,61584,1,0,0:0:0:0:
192,192,61670,1,0,0:0:0:0:
448,192,61756,1,0,0:0:0:0:
320,192,61756,1,0,0:0:0:0:
64,192,61842,1,0,0:0:0:0:
192,192,61927,1,0,0:0:0:0:
320,192,62013,1,0,0:0:0:0:
448,192,62099,1,0,0:0:0:0:
64,192,62099,1,0,0:0:0:0:
320,192,62184,1,0,0:0:0:0:
192,192,62270,1,0,0:0:0:0:
64,192,62356,1,0,0:0:0:0:
320,192,62442,1,0,0:0:0:0:
448,192,62442,1,0,0:0:0:0:
192,192,62613,1,0,0:0:0:0:
320,192,62613,1,0,0:0:0:0:
64,192,62784,1,0,0:0:0:0:
192,192,62784,1,0,0:0:0:0:
448,192,63127,128,0,63470:0:0:0:0:
64,192,63127,1,0,0:0:0:0:
192,192,63299,128,0,63470:0:0:0:0:
64,192,63470,128,0,63813:0:0:0:0:
320,192,63642,128,0,63813:0:0:0:0:
448,192,63813,128,0,64156:0:0:0:0:
192,192,63813,1,0,0:0:0:0:
320,192,63984,128,0,64156:0:0:0:0:
64,192,64156,128,0,64499:0:0:0:0:
192,192,64327,128,0,64499:0:0:0:0:
448,192,64499,1,0,0:0:0:0:
320,192,64584,1,0,0:0:0:0:
192,192,64670,1,0,0:0:0:0:
64,192,64756,1,0,0:0:0:0:
448,192,64842,1,0,0:0:0:0:
320,192,64927,1,0,0:0:0:0:
192,192,65013,1,0,0:0:0:0:
64,192,65099,1,0,0:0:0:0:
448,192,65184,1,0,0:0:0:0:
320,192,65270,1,0,0:0:0:0:
192,192,65356,1,0,0:0:0:0:
64,192,65442,1,0,0:0:0:0:
192,192,65527,1,0,0:0:0:0:
320,192,65527,1,0,0:0:0:0:
448,192,65613,1,0,0:0:0:0:
64,192,65613,1,0,0:0:0:0:
192,192,65699,1,0,0:0:0:0:
320,192,65699,1,0,0:0:0:0:
64,192,65784,1,0,0:0:0:0:
448,192,65784,1,0,0:0:0:0:
192,192,65870,1,0,0:0:0:0:
320,192,65870,128,0,66042:0:0:0:0:
64,192,66042,128,0,66213:0:0:0:0:
192,192,66213,128,0,66384:0:0:0:0:
320,192,66384,128,0,67242:0:0:0:0:
192,192,67242,128,0,67413:0:0:0:0:
64,192,67413,128,0,67584:0:0:0:0:
192,192,67584,128,0,67756:0:0:0:0:
320,192,67756,128,0,68099:0:0:0:0:
448,192,68099,128,0,68270:0:0:0:0:
320,192,68270,128,0,68442:0:0:0:0:
64,192,68442,128,0,68613:0:0:0:0:
192,192,68613,128,0,68784:0:0:0:0:
64,192,68784,128,0,68956:0:0:0:0:
192,192,68956,128,0,69127:0:0:0:0:
320,192,69127,128,0,69984:0:0:0:0:
192,192,69984,128,0,70156:0:0:0:0:
64,192,70156,128,0,70327:0:0:0:0:
192,192,70327,128,0,70499:0:0:0:0:
448,192,70499,128,0,70842:0:0:0:0:
320,192,70842,128,0,71013:0:0:0:0:
192,192,71013,128,0,71356:0:0:0:0:
320,192,71356,128,0,71527:0:0:0:0:
64,192,71527,128,0,71699:0:0:0:0:
448,192,71527,1,0,0:0:0:0:
192,192,71699,128,0,71870:0:0:0:0:
320,192,71870,128,0,72213:0:0:0:0:
448,192,71870,1,0,0:0:0:0:
448,192,72213,128,0,72384:0:0:0:0:
192,192,72213,1,0,0:0:0:0:
320,192,72384,128,0,72556:0:0:0:0:
64,192,72556,128,0,72727:0:0:0:0:
192,192,72556,1,0,0:0:0:0:
320,192,72727,1,0,0:0:0:0:
448,192,72727,1,0,0:0:0:0:
192,192,72813,1,0,0:0:0:0:
64,192,72813,1,0,0:0:0:0:
320,192,72899,1,0,0:0:0:0:
448,192,72899,1,0,0:0:0:0:
64,192,72984,1,0,0:0:0:0:
192,192,72984,1,0,0:0:0:0:
320,192,73070,1,0,0:0:0:0:
448,192,73070,1,0,0:0:0:0:
64,192,73156,1,0,0:0:0:0:
192,192,73156,1,0,0:0:0:0:
320,192,73242,1,0,0:0:0:0:
448,192,73242,1,0,0:0:0:0:
64,192,73327,1,0,0:0:0:0:
192,192,73327,1,0,0:0:0:0:
320,192,73413,1,0,0:0:0:0:
448,192,73413,1,0,0:0:0:0:
192,192,73584,1,0,0:0:0:0:
320,192,73584,1,0,0:0:0:0:
64,192,73756,1,0,0:0:0:0:
192,192,73756,1,0,0:0:0:0:
192,192,73927,1,0,0:0:0:0:
320,192,73927,1,0,0:0:0:0:
320,192,74099,1,0,0:0:0:0:
448,192,74099,1,0,0:0:0:0:
64,192,74099,128,0,74184:0:0:0:0:
192,192,74184,128,0,74270:0:0:0:0:
320,192,74270,128,0,74356:0:0:0:0:
448,192,74356,128,0,74442:0:0:0:0:
64,192,74442,128,0,74784:0:0:0:0:
192,192,74442,128,0,74784:0:0:0:0:
448,192,74784,128,0,74870:0:0:0:0:
320,192,74870,128,0,74956:0:0:0:0:
192,192,74956,128,0,75042:0:0:0:0:
64,192,75042,128,0,75127:0:0:0:0:
320,192,75127,128,0,75470:0:0:0:0:
448,192,75127,128,0,75470:0:0:0:0:
64,192,75470,1,0,0:0:0:0:
192,192,75556,1,0,0:0:0:0:
320,192,75642,1,0,0:0:0:0:
448,192,75727,1,0,0:0:0:0:
64,192,75813,1,0,0:0:0:0:
192,192,75899,1,0,0:0:0:0:
320,192,75984,1,0,0:0:0:0:
448,192,76070,1,0,0:0:0:0:
64,192,76156,1,0,0:0:0:0:
320,192,76156,1,0,0:0:0:0:
64,192,76327,128,0,76499:0:0:0:0:
192,192,76499,128,0,76670:0:0:0:0:
320,192,76670,128,0,76842:0:0:0:0:
448,192,76842,128,0,77184:0:0:0:0:
64,192,76842,1,0,0:0:0:0:
192,192,76842,1,0,0:0:0:0:
192,192,77013,1,0,0:0:0:0:
64,192,77184,1,0,0:0:0:0:
320,192,77184,1,0,0:0:0:0:
192,192,77356,1,0,0:0:0:0:
64,192,77527,1,0,0:0:0:0:
448,192,77527,1,0,0:0:0:0:
320,192,77699,1,0,0:0:0:0:
192,192,77870,1,0,0:0:0:0:
64,192,77870,1,0,0:0:0:0:
320,192,78042,1,0,0:0:0:0:
448,192,78213,1,0,0:0:0:0:
192,192,78213,1,0,0:0:0:0:
64,192,78384,128,0,78556:0:0:0:0:
192,192,78556,128,0,78727:0:0:0:0:
448,192,78556,1,0,0:0:0:0:
320,192,78727,128,0,78899:0:0:0:0:
448,192,78899,128,0,79070:0:0:0:0:
64,192,78899,1,0,0:0:0:0:
192,192,79070,1,0,0:0:0:0:
64,192,79242,1,0,0:0:0:0:
320,192,79242,1,0,0:0:0:0:
448,192,79413,1,0,0:0:0:0:
320,192,79584,1,0,0:0:0:0:
192,192,79584,1,0,0:0:0:0:
64,192,79756,1,0,0:0:0:0:
192,192,79927,1,0,0:0:0:0:
448,192,79927,1,0,0:0:0:0:
320,192,80099,1,0,0:0:0:0:
192,192,80270,1,0,0:0:0:0:
64,192,80270,1,0,0:0:0:0:
448,192,80442,1,0,0:0:0:0:
192,192,80613,1,0,0:0:0:0:
320,192,80613,1,0,0:0:0:0:
64,192,80784,1,0,0:0:0:0:
192,192,80956,1,0,0:0:0:0:
448,192,80956,1,0,0:0:0:0:
448,192,81127,1,0,0:0:0:0:
320,192,81213,1,0,0:0:0:0:
64,192,81299,1,0,0:0:0:0:
448,192,81299,1,0,0:0:0:0:
320,192,81384,1,0,0:0:0:0:
192,192,81470,1,0,0:0:0:0:
64,192,81556,1,0,0:0:0:0:
192,192,81642,1,0,0:0:0:0:
64,192,81984,1,0,0:0:0:0:
192,192,81984,1,0,0:0:0:0:
448,192,81984,1,0,0:0:0:0:
320,192,82327,128,0,82670:0:0:0:0:
192,192,82327,128,0,82670:0:0:0:0:
64,192,82670,1,0,0:0:0:0:
448,192,82670,1,0,0:0:0:0:
320,192,82842,1,0,0:0:0:0:
64,192,82927,1,0,0:0:0:0:
192,192,83013,1,0,0:0:0:0:
320,192,83184,1,0,0:0:0:0:
64,192,83184,1,0,0:0:0:0:
448,192,83356,1,0,0:0:0:0:
192,192,83356,1,0,0:0:0:0:
64,192,83527,1,0,0:0:0:0:
320,192,83527,1,0,0:0:0:0:
320,192,83870,1,0,0:0:0:0:
448,192,83870,1,0,0:0:0:0:
64,192,83956,1,0,0:0:0:0:
192,192,84042,1,0,0:0:0:0:
320,192,84042,1,0,0:0:0:0:
320,192,84213,1,0,0:0:0:0:
448,192,84213,1,0,0:0:0:0:
64,192,84556,1,0,0:0:0:0:
192,192,84556,1,0,0:0:0:0:
448,192,84642,1,0,0:0:0:0:
192,192,84727,1,0,0:0:0:0:
320,192,84727,1,0,0:0:0:0:
64,192,84899,1,0,0:0:0:0:
192,192,84899,1,0,0:0:0:0:
448,192,85070,1,0,0:0:0:0:
320,192,85070,1,0,0:0:0:0:
320,192,85242,1,0,0:0:0:0:
448,192,85327,1,0,0:0:0:0:
192,192,85413,1,0,0:0:0:0:
320,192,85584,1,0,0:0:0:0:
64,192,85584,1,0,0:0:0:0:
448,192,85756,1,0,0:0:0:0:
192,192,85756,1,0,0:0:0:0:
192,192,85927,1,0,0:0:0:0:
320,192,86013,1,0,0:0:0:0:
64,192,86099,1,0,0:0:0:0:
192,192,86270,1,0,0:0:0:0:
64,192,86442,1,0,0:0:0:0:
320,192,86442,1,0,0:0:0:0:
192,192,86784,1,0,0:0:0:0:
448,192,86784,1,0,0:0:0:0:
192,192,87127,1,0,0:0:0:0:
448,192,87127,1,0,0:0:0:0:
64,192,87299,128,0,87470:0:0:0:0:
448,192,87299,1,0,0:0:0:0:
320,192,87384,1,0,0:0:0:0:
192,192,87470,128,0,87642:0:0:0:0:
320,192,87642,128,0,87813:0:0:0:0:
448,192,87813,128,0,88156:0:0:0:0:
64,192,87813,1,0,0:0:0:0:
192,192,87813,1,0,0:0:0:0:
64,192,87984,1,0,0:0:0:0:
320,192,88156,1,0,0:0:0:0:
192,192,88156,1,0,0:0:0:0:
64,192,88327,1,0,0:0:0:0:
192,192,88499,1,0,0:0:0:0:
448,192,88499,1,0,0:0:0:0:
320,192,88670,1,0,0:0:0:0:
64,192,88842,1,0,0:0:0:0:
192,192,88842,1,0,0:0:0:0:
448,192,89013,1,0,0:0:0:0:
192,192,89184,1,0,0:0:0:0:
320,192,89184,1,0,0:0:0:0:
64,192,89356,128,0,89527:0:0:0:0:
192,192,89527,128,0,89699:0:0:0:0:
448,192,89527,1,0,0:0:0:0:
320,192,89699,128,0,89870:0:0:0:0:
448,192,89870,128,0,90042:0:0:0:0:
64,192,89870,1,0,0:0:0:0:
192,192,90042,1,0,0:0:0:0:
64,192,90213,1,0,0:0:0:0:
320,192,90213,1,0,0:0:0:0:
448,192,90384,1,0,0:0:0:0:
192,192,90556,1,0,0:0:0:0:
320,192,90556,1,0,0:0:0:0:
64,192,90727,1,0,0:0:0:0:
192,192,90899,1,0,0:0:0:0:
448,192,90899,1,0,0:0:0:0:
320,192,91070,1,0,0:0:0:0:
448,192,91242,1,0,0:0:0:0:
64,192,91242,1,0,0:0:0:0:
192,192,91413,1,0,0:0:0:0:
64,192,91584,1,0,0:0:0:0:
320,192,91584,1,0,0:0:0:0:
192,192,91756,1,0,0:0:0:0:
64,192,91927,1,0,0:0:0:0:
448,192,92099,1,0,0:0:0:0:
320,192,92184,1,0,0:0:0:0:
64,192,92270,1,0,0:0:0:0:
192,192,92270,1,0,0:0:0:0:
320,192,92356,1,0,0:0:0:0:
192,192,92442,1,0,0:0:0:0:
64,192,92527,1,0,0:0:0:0:
320,192,92613,1,0,0:0:0:0:
448,192,92613,1,0,0:0:0:0:
192,192,92956,128,0,93299:0:0:0:0:
64,192,92956,1,0,0:0:0:0:
448,192,92956,1,0,0:0:0:0:
320,192,93299,128,0,93642:0:0:0:0:
64,192,93299,1,0,0:0:0:0:
448,192,93299,1,0,0:0:0:0:
64,192,93642,1,0,0:0:0:0:
448,192,93642,1,0,0:0:0:0:
320,192,93813,1,0,0:0:0:0:
448,192,93813,1,0,0:0:0:0:
192,192,93899,1,0,0:0:0:0:
64,192,93984,1,0,0:0:0:0:
192,192,94156,1,0,0:0:0:0:
320,192,94156,1,0,0:0:0:0:
448,192,94327,1,0,0:0:0:0:
192,192,94327,1,0,0:0:0:0:
64,192,94499,1,0,0:0:0:0:
320,192,94499,1,0,0:0:0:0:
448,192,94670,1,0,0:0:0:0:
192,192,94670,1,0,0:0:0:0:
320,192,94842,1,0,0:0:0:0:
64,192,94842,1,0,0:0:0:0:
192,192,94927,1,0,0:0:0:0:
320,192,95013,1,0,0:0:0:0:
448,192,95013,1,0,0:0:0:0:
192,192,95184,1,0,0:0:0:0:
64,192,95356,1,0,0:0:0:0:
320,192,95356,1,0,0:0:0:0:
192,192,95527,1,0,0:0:0:0:
320,192,95527,1,0,0:0:0:0:
64,192,95613,1,0,0:0:0:0:
192,192,95699,5,0,0:0:0:0:
448,192,95699,1,0,0:0:0:0:
320,192,95870,1,0,0:0:0:0:
448,192,95870,1,0,0:0:0:0:
448,192,96042,1,0,0:0:0:0:
320,192,96127,1,0,0:0:0:0:
192,192,96213,1,0,0:0:0:0:
64,192,96299,1,0,0:0:0:0:
448,192,96384,1,0,0:0:0:0:
320,192,96384,1,0,0:0:0:0:
192,192,96384,1,0,0:0:0:0:
64,192,96727,1,0,0:0:0:0:
192,192,96813,1,0,0:0:0:0:
320,192,96899,1,0,0:0:0:0:
448,192,96984,1,0,0:0:0:0:
64,192,97070,1,0,0:0:0:0:
192,192,97070,1,0,0:0:0:0:
320,192,97070,1,0,0:0:0:0:
64,192,97413,5,0,0:0:0:0:
320,192,97584,1,0,0:0:0:0:
448,192,97670,1,0,0:0:0:0:
320,192,97756,1,0,0:0:0:0:
448,192,97927,1,0,0:0:0:0:
320,192,98099,1,0,0:0:0:0:
64,192,98270,1,0,0:0:0:0:
448,192,98270,1,0,0:0:0:0:
192,192,98442,1,0,0:0:0:0:
320,192,98442,1,0,0:0:0:0:
320,192,98784,1,0,0:0:0:0:
448,192,98784,1,0,0:0:0:0:
64,192,98956,1,0,0:0:0:0:
192,192,98956,1,0,0:0:0:0:
320,192,99127,1,0,0:0:0:0:
64,192,99127,1,0,0:0:0:0:
448,192,99299,128,0,99642:0:0:0:0:
192,192,99299,1,0,0:0:0:0:
64,192,99470,1,0,0:0:0:0:
192,192,99642,1,0,0:0:0:0:
320,192,99727,1,0,0:0:0:0:
192,192,99813,1,0,0:0:0:0:
64,192,99899,1,0,0:0:0:0:
448,192,99984,1,0,0:0:0:0:
320,192,100070,1,0,0:0:0:0:
64,192,100156,1,0,0:0:0:0:
448,192,100156,1,0,0:0:0:0:
64,192,100327,1,0,0:0:0:0:
320,192,100327,1,0,0:0:0:0:
320,192,100499,1,0,0:0:0:0:
192,192,100499,1,0,0:0:0:0:
448,192,100670,128,0,100842:0:0:0:0:
64,192,100670,1,0,0:0:0:0:
320,192,100842,1,0,0:0:0:0:
64,192,100927,1,0,0:0:0:0:
192,192,100927,1,0,0:0:0:0:
320,192,101013,1,0,0:0:0:0:
448,192,101013,1,0,0:0:0:0:
64,192,101184,1,0,0:0:0:0:
448,192,101184,1,0,0:0:0:0:
320,192,101356,1,0,0:0:0:0:
192,192,101356,1,0,0:0:0:0:
448,192,101527,1,0,0:0:0:0:
192,192,101527,1,0,0:0:0:0:
320,192,101699,1,0,0:0:0:0:
64,192,101699,1,0,0:0:0:0:
192,192,101870,1,0,0:0:0:0:
320,192,101870,1,0,0:0:0:0:
448,192,102042,128,0,102384:0:0:0:0:
64,192,102042,1,0,0:0:0:0:
192,192,102213,1,0,0:0:0:0:
64,192,102384,1,0,0:0:0:0:
320,192,102470,1,0,0:0:0:0:
192,192,102556,1,0,0:0:0:0:
64,192,102642,1,0,0:0:0:0:
448,192,102727,1,0,0:0:0:0:
320,192,102813,1,0,0:0:0:0:
192,192,102899,1,0,0:0:0:0:
64,192,102899,1,0,0:0:0:0:
320,192,102984,1,0,0:0:0:0:
448,192,103070,1,0,0:0:0:0:
320,192,103156,1,0,0:0:0:0:
192,192,103242,1,0,0:0:0:0:
448,192,103242,1,0,0:0:0:0:
64,192,103327,1,0,0:0:0:0:
192,192,103413,1,0,0:0:0:0:
320,192,103413,1,0,0:0:0:0:
448,192,103499,1,0,0:0:0:0:
320,192,103584,1,0,0:0:0:0:
192,192,103670,1,0,0:0:0:0:
64,192,103756,1,0,0:0:0:0:
320,192,103756,1,0,0:0:0:0:
448,192,103842,1,0,0:0:0:0:
320,192,103927,1,0,0:0:0:0:
192,192,104013,1,0,0:0:0:0:
64,192,104099,1,0,0:0:0:0:
192,192,104184,1,0,0:0:0:0:
320,192,104270,1,0,0:0:0:0:
448,192,104270,1,0,0:0:0:0:
64,192,104442,1,0,0:0:0:0:
192,192,104442,1,0,0:0:0:0:
192,192,104613,1,0,0:0:0:0:
320,192,104613,1,0,0:0:0:0:
448,192,104784,128,0,105127:0:0:0:0:
64,192,104784,1,0,0:0:0:0:
320,192,105127,1,0,0:0:0:0:
192,192,105213,1,0,0:0:0:0:
64,192,105299,1,0,0:0:0:0:
192,192,105384,1,0,0:0:0:0:
320,192,105470,1,0,0:0:0:0:
192,192,105556,1,0,0:0:0:0:
320,192,105642,1,0,0:0:0:0:
448,192,105642,1,0,0:0:0:0:
64,192,105813,1,0,0:0:0:0:
448,192,105813,1,0,0:0:0:0:
192,192,105984,1,0,0:0:0:0:
320,192,105984,1,0,0:0:0:0:
64,192,106156,1,0,0:0:0:0:
448,192,106156,128,0,106327:0:0:0:0:
192,192,106327,1,0,0:0:0:0:
64,192,106413,1,0,0:0:0:0:
320,192,106413,1,0,0:0:0:0:
192,192,106499,1,0,0:0:0:0:
448,192,106499,1,0,0:0:0:0:
64,192,106670,1,0,0:0:0:0:
320,192,106670,1,0,0:0:0:0:
64,192,106842,1,0,0:0:0:0:
192,192,106842,1,0,0:0:0:0:
192,192,107013,1,0,0:0:0:0:
448,192,107013,1,0,0:0:0:0:
64,192,107184,1,0,0:0:0:0:
448,192,107184,1,0,0:0:0:0:
192,192,107356,1,0,0:0:0:0:
320,192,107356,1,0,0:0:0:0:
448,192,107527,128,0,107870:0:0:0:0:
64,192,107527,1,0,0:0:0:0:
320,192,107870,1,0,0:0:0:0:
192,192,107956,1,0,0:0:0:0:
64,192,108042,1,0,0:0:0:0:
320,192,108127,1,0,0:0:0:0:
192,192,108213,1,0,0:0:0:0:
64,192,108299,1,0,0:0:0:0:
448,192,108384,1,0,0:0:0:0:
320,192,108470,1,0,0:0:0:0:
192,192,108556,1,0,0:0:0:0:
64,192,108642,1,0,0:0:0:0:
192,192,108727,1,0,0:0:0:0:
320,192,108813,1,0,0:0:0:0:
448,192,108899,1,0,0:0:0:0:
320,192,108984,1,0,0:0:0:0:
192,192,109070,1,0,0:0:0:0:
64,192,109070,1,0,0:0:0:0:
448,192,109070,1,0,0:0:0:0:
192,192,109242,1,0,0:0:0:0:
320,192,109242,1,0,0:0:0:0:
64,192,109413,1,0,0:0:0:0:
448,192,109413,1,0,0:0:0:0:
192,192,109584,1,0,0:0:0:0:
320,192,109584,1,0,0:0:0:0:
64,192,109756,1,0,0:0:0:0:
448,192,109756,1,0,0:0:0:0:
192,192,109927,1,0,0:0:0:0:
320,192,109927,1,0,0:0:0:0:
64,192,110099,1,0,0:0:0:0:
448,192,110099,1,0,0:0:0:0:
448,192,110270,128,0,110613:0:0:0:0:
192,192,110270,1,0,0:0:0:0:
192,192,110613,1,0,0:0:0:0:
64,192,110699,1,0,0:0:0:0:
192,192,110784,1,0,0:0:0:0:
448,192,110870,1,0,0:0:0:0:
320,192,110956,1,0,0:0:0:0:
192,192,111042,1,0,0:0:0:0:
64,192,111127,1,0,0:0:0:0:
448,192,111127,1,0,0:0:0:0:
64,192,111299,1,0,0:0:0:0:
320,192,111299,1,0,0:0:0:0:
192,192,111470,1,0,0:0:0:0:
448,192,111470,1,0,0:0:0:0:
448,192,111642,128,0,111813:0:0:0:0:
64,192,111642,1,0,0:0:0:0:
320,192,111813,1,0,0:0:0:0:
64,192,111899,1,0,0:0:0:0:
192,192,111899,1,0,0:0:0:0:
320,192,111984,1,0,0:0:0:0:
448,192,111984,1,0,0:0:0:0:
192,192,112156,1,0,0:0:0:0:
320,192,112156,1,0,0:0:0:0:
64,192,112327,1,0,0:0:0:0:
192,192,112327,1,0,0:0:0:0:
192,192,112499,1,0,0:0:0:0:
448,192,112499,1,0,0:0:0:0:
64,192,112670,1,0,0:0:0:0:
320,192,112670,1,0,0:0:0:0:
64,192,112842,1,0,0:0:0:0:
448,192,112842,1,0,0:0:0:0:
448,192,113013,128,0,113356:0:0:0:0:
192,192,113013,1,0,0:0:0:0:
320,192,113356,1,0,0:0:0:0:
192,192,113442,1,0,0:0:0:0:
64,192,113527,1,0,0:0:0:0:
448,192,113613,1,0,0:0:0:0:
320,192,113699,1,0,0:0:0:0:
192,192,113784,1,0,0:0:0:0:
64,192,113870,1,0,0:0:0:0:
448,192,113956,1,0,0:0:0:0:
320,192,114042,1,0,0:0:0:0:
192,192,114127,1,0,0:0:0:0:
64,192,114213,1,0,0:0:0:0:
192,192,114299,1,0,0:0:0:0:
320,192,114384,1,0,0:0:0:0:
448,192,114470,1,0,0:0:0:0:
320,192,114556,1,0,0:0:0:0:
64,192,114642,1,0,0:0:0:0:
192,192,114642,1,0,0:0:0:0:
320,192,114727,1,0,0:0:0:0:
448,192,114727,1,0,0:0:0:0:
192,192,114899,1,0,0:0:0:0:
320,192,114899,1,0,0:0:0:0:
64,192,115070,1,0,0:0:0:0:
192,192,115070,1,0,0:0:0:0:
448,192,115242,1,0,0:0:0:0:
64,192,115242,1,0,0:0:0:0:
64,192,115413,1,0,0:0:0:0:
320,192,115413,1,0,0:0:0:0:
192,192,115584,1,0,0:0:0:0:
320,192,115584,1,0,0:0:0:0:
448,192,115756,128,0,116099:0:0:0:0:
192,192,115756,1,0,0:0:0:0:
320,192,116099,1,0,0:0:0:0:
192,192,116184,1,0,0:0:0:0:
64,192,116270,1,0,0:0:0:0:
192,192,116356,1,0,0:0:0:0:
320,192,116442,1,0,0:0:0:0:
192,192,116527,1,0,0:0:0:0:
64,192,116613,1,0,0:0:0:0:
192,192,116699,1,0,0:0:0:0:
320,192,116784,1,0,0:0:0:0:
448,192,116870,1,0,0:0:0:0:
320,192,116956,1,0,0:0:0:0:
192,192,117042,1,0,0:0:0:0:
64,192,117127,1,0,0:0:0:0:
192,192,117213,1,0,0:0:0:0:
320,192,117299,1,0,0:0:0:0:
448,192,117384,1,0,0:0:0:0:
320,192,117470,1,0,0:0:0:0:
192,192,117556,1,0,0:0:0:0:
64,192,117642,1,0,0:0:0:0:
192,192,117727,1,0,0:0:0:0:
320,192,117813,1,0,0:0:0:0:
448,192,117899,1,0,0:0:0:0:
64,192,117984,1,0,0:0:0:0:
192,192,117984,1,0,0:0:0:0:
320,192,118070,1,0,0:0:0:0:
448,192,118070,1,0,0:0:0:0:
64,192,118242,1,0,0:0:0:0:
320,192,118242,1,0,0:0:0:0:
192,192,118327,1,0,0:0:0:0:
448,192,118327,1,0,0:0:0:0:
64,192,118499,1,0,0:0:0:0:
448,192,118499,1,0,0:0:0:0:
192,192,118584,1,0,0:0:0:0:
320,192,118584,1,0,0:0:0:0:
448,192,118756,1,0,0:0:0:0:
320,192,118756,1,0,0:0:0:0:
192,192,118842,1,0,0:0:0:0:
64,192,118842,1,0,0:0:0:0:
448,192,119013,1,0,0:0:0:0:
320,192,119013,1,0,0:0:0:0:
64,192,119184,1,0,0:0:0:0:
192,192,119184,1,0,0:0:0:0:
320,192,119356,1,0,0:0:0:0:
192,192,119356,1,0,0:0:0:0:
192,192,119527,1,0,0:0:0:0:
320,192,119527,1,0,0:0:0:0:
192,192,119699,1,0,0:0:0:0:
320,192,119699,1,0,0:0:0:0:
64,192,119870,1,0,0:0:0:0:
448,192,119870,1,0,0:0:0:0:
192,192,119956,1,0,0:0:0:0:
320,192,119956,1,0,0:0:0:0:
320,192,120384,128,0,124842:0:0:0:0:
192,192,120384,128,0,124842:0:0:0:0:
64,192,120384,1,0,0:0:0:0:
448,192,120384,1,0,0:0:0:0:
