osu file format v9

[General]
AudioFilename: 11.mp3
AudioLeadIn: 1000
PreviewTime: 88752
Countdown: 1
SampleSet: Normal
StackLeniency: 0.7
Mode: 0
LetterboxInBreaks: 1

[Editor]
Bookmarks: 130215
DistanceSpacing: 1.2
BeatDivisor: 4
GridSize: 8

[Metadata]
Title:Chanteikku Sanyousei no Itazura Daisensou
Artist:IOSYS
Creator:Kochiya Sanae
Version:Lunatic
Source:Touhou
Tags:Funky Kota Fairy war monotone Crazy Jay Saten Ruiko OnosakiHito

[Difficulty]
HPDrainRate:4
CircleSize:4
OverallDifficulty:5
ApproachRate:7
SliderMultiplier:1.4
SliderTickRate:0.5

[Events]
//Background and Video events
0,0,"bg.jpg"
//Break Periods
2,16303,22987
2,57492,65798
2,109384,118987
2,130303,147527
//Storyboard Layer 0 (Background)
Sprite,Background,Centre,"SB\count3.png",320,240 M,0,86157,86481,122,721,122,242 S,0,86157,108860,0.6313601 M,0,86481,,122,242 F,0,108860,109508,1,0 S,0,108860,109508,0.6313601,0.9078401
Sprite,Background,Centre,"SB\count2.png",320,240 S,0,86157,108860,0.6211199 M,0,86481,86806,519,-236,518,240 F,0,108860,109508,1,0 S,0,108860,109508,0.6211199,1.03072
Sprite,Background,Centre,"SB\count1.png",320,240 F,0,86806,87454,1 S,0,86806,87454,0.16032,0.62112 F,0,87454,108860,1 S,0,87454,108860,0.62112,0.6196977 F,0,108860,109508,1,0 S,0,108860,109508,0.6196977,0.9883378
Sprite,Background,Centre,"SB\count2A.png",320,240 S,0,169184,169833,0.54944,1 M,0,169833,,312,240 S,0,169833,192049,1 F,0,192049,192535,1,0 S,0,192049,192535,1,1.44032
Sprite,Background,Centre,"SB\count3A.png",320,240 M,0,169833,170157,772,237,522,240 F,0,192049,192535,1,0 S,0,192049,192535,1,1.33792
Sprite,Background,Centre,"SB\count1A.png",320,240 M,0,169833,170157,-120,228,110,240 F,0,192049,192535,1,0 S,0,192049,192535,1,1.57344
//Storyboard Layer 1 (Fail)
//Storyboard Layer 2 (Pass)
//Storyboard Layer 3 (Foreground)
Sprite,Foreground,Centre,"SB\1.png",320,240 S,0,25184,25346,0.40608,1 R,0,25184,25346,0.4505597,-0.3276801 M,0,25184,25508,112,284 R,0,25346,25508,-0.3276801,0.3891199
Sprite,Foreground,Centre,"SB\2.png",320,240 S,0,25508,25671,0.34464,1 R,0,25508,25671,-0.47104,0.3891199 M,0,25508,25833,256,149 S,0,25671,25833,1 R,0,25671,25833,0.3891199,-0.59392
Sprite,Foreground,Centre,"SB\3.png",320,240 M,0,25833,,371,317 S,0,25833,25995,0.3446397,1 R,0,25833,25995,0.4915204,-0.2867197 R,0,25995,26157,-0.2867197,0.5324802
Sprite,Foreground,Centre,"SB\4.png",320,240 S,0,26157,26319,0.2524799,1 R,0,26157,26319,-0.3072005,0.5939198 R,0,26319,26481,0.5939198,-0.47104 M,0,26481,,537,155
Sprite,Foreground,Centre,"SB\lyric1.png",320,240 S,0,27130,27292,0.6006399,1 R,0,27130,27292,-0.24576,0.3481599 S,0,27292,27454,1 R,0,27292,27454,0.3481599,0 M,0,27454,,98,116 F,0,28752,29076,1,0
Sprite,Foreground,Centre,"SB\lyric2.png",320,240 S,0,27454,27617,0.6518402,1 R,0,27454,27617,0.49152,-0.4505599 R,0,27617,27779,-0.4505599,-0.04095994 M,0,27779,,139,99 F,0,27779,28752,1 F,0,28752,29076,1,0
Sprite,Foreground,Centre,"SB\lyric4.png",320,240 M,0,28752,,253,94 F,0,28752,28914,1 S,0,28752,28914,0.71328,1 R,0,28752,28914,0.2457599,-0.2252798 F,0,28914,29076,1,0.89248 F,0,29076,29238,0.89248,0
Sprite,Foreground,Centre,"SB\lyric5.png",320,240 S,0,29076,29238,0.5494401,1.256 R,0,29076,29238,0.02047974,0.3072 S,0,29238,29400,1.256,1 R,0,29238,29400,0.3072,-0.02047973 M,0,29725,30373,324,200 M,0,30373,30535,324,200,322,170 M,0,30535,30698,322,170,324,200 M,0,30698,30860,324,200,322,164 M,0,30860,31022,322,164,324,200 M,0,31022,,324,200 M,0,31022,,324,200 M,0,31022,31184,324,200,324,170 M,0,31184,31346,324,170,324,200 M,0,31346,31508,324,200,324,175 F,0,31346,31671,1,0 M,0,31508,31671,324,175,324,200
Sprite,Foreground,Centre,"SB\lyric6.png",320,240 S,0,32319,32481,1,1.43008 M,0,32319,32968,320,240 S,0,32481,32644,1.43008,1 S,0,32644,32968,1,1.005277 M,0,32968,33130,320,240 M,0,33130,33292,320,240,278,241 M,0,33292,33454,278,241,298,241 F,0,33941,34265,1,0.03743988
Sprite,Foreground,Centre,"SB\lyric7.png",320,240 M,0,32968,33130,544,240,404,240 F,0,32968,33941,1 M,0,33130,33292,404,240,392,238 M,0,33292,33454,392,238,387,241 F,0,33941,34265,1,0.17056
Sprite,Foreground,Centre,"SB\lyric8.png",320,240 M,0,33454,33617,443,53,450,242 F,0,33454,33617,0,1 M,0,33617,33779,450,242,446,229 F,0,33617,33941,1 M,0,33779,33941,446,229,451,240 F,0,33941,34265,1,0.08352013
Sprite,Foreground,Centre,"SB\lyric9.png",320,240 M,0,34265,34427,169,130,356,124 R,0,34265,34914,0 F,0,34265,36535,1 M,0,34427,34590,356,124,313,121 M,0,34590,36860,313,121,315,121 R,0,34914,35076,0,0.16384 R,0,35076,35238,0.16384,-0.24576 R,0,35238,35400,-0.24576,0.2252797 R,0,35400,35563,0.2252797,-4.648417E-07 F,0,36535,36860,1,0 S,0,36535,36860,1,1.43008
Sprite,Foreground,Centre,"SB\lyric11.png",320,240 M,0,47887,,61,63 S,0,47887,48049,1,1.57344 R,0,47887,48049,-0.2457605,0.2457593 F,0,47887,49508,1 S,0,48049,48211,1.57344,1 R,0,48049,48211,0.2457593,-0.1638403 R,0,48211,48373,-0.1638403,-6.020069E-07 S,0,48211,48535,1 F,0,49508,49833,1,0
Sprite,Foreground,Centre,"SB\lyric12.png",320,240 M,0,48535,,121,88 R,0,48535,,0.2867201 S,0,48535,48698,1,2.37216 S,0,48698,48860,2.37216,1.41984 F,0,49508,49833,1,0
Sprite,Foreground,Centre,"SB\lyric13.png",320,240 M,0,48860,,165,82 S,0,48860,49022,1,1.98304 R,0,48860,49022,-0.24576,0.47104 S,0,49022,49184,1.98304,1.37888 R,0,49022,49184,0.47104,-0.02048013 F,0,49508,49833,1,0
Sprite,Foreground,Centre,"SB\lyric14.png",320,240 M,0,49184,,213,89 R,0,49184,,0 S,0,49184,49346,1,2.14688 S,0,49346,49508,2.14688,1.44032 F,0,49508,49833,1,0
Sprite,Foreground,Centre,"SB\lyric15.png",320,240 M,0,49508,,260,62 F,0,49508,49671,1 S,0,49508,49671,1,1.99328 S,0,49671,49833,1.99328,1.32768 F,0,49671,49995,1,0
Sprite,Foreground,Centre,"SB\lyric16.png",320,240 M,0,49833,50013,320,240,306,241 M,0,50013,50157,306,241,328,240 M,0,50157,50319,328,240,312,239 M,0,50319,50481,312,239,329,237 R,0,50481,50644,-0.02048034,0.1638403 M,0,50481,51130,329,237,326,238 R,0,50644,50806,0.1638403,-0.1843195 R,0,50806,50968,-0.1843195,0.1024008 R,0,50968,51130,0.1024008,-0.1843192 M,0,51130,51292,326,238,325,238 R,0,51130,51292,-0.1843192,9.149313E-07 M,0,51292,51454,325,238,302,210 M,0,51454,51617,302,210,324,238 M,0,51617,51779,324,238,349,209 M,0,51779,51941,349,209,329,237 M,0,51941,52103,329,237,294,207 M,0,52103,52265,294,207,325,238 M,0,52265,52427,325,238,320,240 F,0,52265,52427,1,0
Sprite,Foreground,Centre,"SB\lyric19.png",320,240 M,0,53563,53725,640,287,583,287 F,0,53563,53725,0,1 M,0,53725,53887,583,287,519,289 F,0,53725,54698,1 M,0,53887,54049,519,289,421,284 M,0,54049,54211,421,284,399,285 M,0,54211,55022,399,285 F,0,54698,55022,1 M,0,55022,55184,399,285,400,248 R,0,55022,55184,-0.02048004,0.2867203 F,0,55022,57292,1 M,0,55184,55346,400,248,400,257 R,0,55184,55346,0.2867203,0.02048004 F,0,57292,57617,1,0
Sprite,Foreground,Centre,"SB\lyric3.png",320,240 S,0,27779,27941,1,1.34816 R,0,27779,27941,0.2048003,-0.3891199 S,0,27941,28103,1.34816,1 R,0,27941,28752,-0.3891199 S,0,28103,28265,1,1.48128 S,0,28265,28427,1.48128,1 S,0,28427,28752,1 M,0,28752,,193,122 F,0,28752,28914,1 F,0,28914,,1 F,0,28914,29238,1,0
Sprite,Foreground,Centre,"SB\lyric18.png",320,240 M,0,53400,53563,312,67,307,256 F,0,53400,53563,0,1 R,0,53400,53563,0.06143951,0.5432549 M,0,53563,53725,307,256,372,258 R,0,53563,53725,0.5432549,1.49504 F,0,53563,54698,1 M,0,53725,53887,372,258,445,289 R,0,53725,53887,1.49504,-3.604481 M,0,53887,54049,445,289,350,285 R,0,53887,54049,-3.604481,0.06143983 M,0,54049,54211,350,285,329,287 M,0,54211,55022,329,287 F,0,54698,55022,1 M,0,55022,55184,329,287,327,242 F,0,55022,57292,1 M,0,55184,55346,327,242,327,258 M,0,55346,57292,327,258,327,257 F,0,57292,57617,1,0
Sprite,Foreground,Centre,"SB\lyric17.png",320,240 M,0,52914,53076,67,296,198,292 M,0,53076,53400,198,292,281,287 F,0,53076,54698,1 M,0,53400,53563,281,287,269,286 M,0,53563,55022,269,286 F,0,54698,55022,1 M,0,55022,55184,269,286,265,239 F,0,55022,57292,1 M,0,55184,55346,265,239,265,256 F,0,57292,57617,1,0
Sprite,Foreground,Centre,"SB\lyric21.png",320,240 M,0,54860,55022,251,427,264,327 F,0,54860,55022,0,1 M,0,55022,55184,264,327,247,299 F,0,55022,57292,1 M,0,55184,55346,247,299,248,289 F,0,57292,57617,1,0
Sprite,Foreground,Centre,"SB\lyric22.png",320,240 M,0,67346,,166,308 S,0,67346,67508,0.3958401,1.188511 R,0,67346,67508,-0.5120001,0.2662396 F,0,67346,67671,1 S,0,67508,67671,1.188511,1 R,0,67508,67671,0.2662396,-0.3686402 R,0,67671,67833,-0.3686402,0.1228796 F,0,67671,72535,1 F,0,72535,72860,1,0
Sprite,Foreground,Centre,"SB\lyric23.png",320,240 M,0,67833,67995,161,308 S,0,67833,67995,0.5494403,1.27648 R,0,67833,67995,-0.3276807,0.4505591 S,0,67995,68157,1.27648,0.9180804 R,0,67995,68157,0.4505591,0.1638391 R,0,68157,,0.1638391 F,0,72535,72860,1,0
Sprite,Foreground,Centre,"SB\lyric24.png",320,240 M,0,68644,70265,564,194,424,344 R,0,68644,70265,1.39264,-2.671778E-07 M,0,70265,70427,424,344,422,330 R,0,70265,70427,-2.671778E-07,0.1638395 M,0,70427,70590,422,330,416,337 R,0,70427,70590,0.1638395,3.469735E-07 M,0,70590,70752,416,337,413,317 M,0,70590,70914,416,337 M,0,70752,70914,413,317,416,337 M,0,70914,72535,416,337 S,0,71887,72049,1,1.28672 S,0,72049,72211,1.28672,1 F,0,72535,72860,1,0
Sprite,Foreground,Centre,"SB\lyric24A.png",320,240 S,0,72860,,1 M,0,72860,73022,179,133,170,123 F,0,72860,73022,0,1 M,0,73022,73184,170,123,150,130 F,0,73022,73508,1 M,0,73184,73346,150,130,174,144 M,0,73346,73508,174,144,179,133 F,0,73508,73833,1,0
Sprite,Foreground,Centre,"SB\lyric24B.png",320,240 M,0,73833,,325,199 R,0,73833,73995,0,0.7987198 F,0,73833,75454,1 R,0,73995,74157,0.7987198,1.57696 R,0,74157,74319,1.57696,2.3552 R,0,74319,74481,2.3552,3.15392 R,0,74481,74644,3.15392,3.993599 R,0,74644,74806,3.993599,4.73088 R,0,74806,74968,4.73088,5.55008 R,0,74968,75130,5.55008,6.287359 S,0,75454,75617,1 F,0,75454,76914,1 S,0,75617,75779,1,1.33792 S,0,75779,75941,1.33792,1 S,0,75941,76265,1 S,0,76265,76427,1,1.28672 S,0,76427,76590,1.28672,1 S,0,76590,76752,1,1.19456 S,0,76752,76914,1.19456,1 F,0,76914,77400,1,0 S,0,76914,77400,1,1.4608
Sprite,Foreground,Centre,"SB\lyric25.png",320,240 M,0,77725,,111,128 S,0,77725,77887,0.45728,1 R,0,77725,77887,0.3891202,-0.3276797 R,0,77887,78049,-0.3276797,0.5529602 R,0,78049,78211,0.5529602,-0.2047998 R,0,78211,78373,-0.2047998,0.3686402 F,0,82914,83238,1,0
Sprite,Foreground,Centre,"SB\lyric23.png",320,240 M,0,78373,,116,131 S,0,78373,78535,0.45728,1 R,0,78373,78535,-0.3276798,0.4505602 F,0,78373,82914,1 R,0,78535,78698,0.4505602,0 F,0,82914,83238,1,0
Sprite,Foreground,Centre,"SB\lyric26.png",320,240 M,0,79022,79184,694,142,366,142 M,0,79184,79346,366,142,391,142 R,0,79671,79833,0,0.2252802 R,0,79833,79995,0.2252802,-0.2252795 R,0,79995,80157,-0.2252795,0.1638405 R,0,80157,80319,0.1638405,-0.02047989 F,0,82914,83238,1,0 S,0,82914,83238,1,1.53248
Sprite,Foreground,Centre,"SB\lyric26A.png",320,240 S,0,83238,83400,1,1.3584 R,0,83238,83400,0.3072,-0.2662408 S,0,83400,83563,1.3584,1 R,0,83400,83563,-0.2662408,-6.008148E-07 S,0,83563,84211,1 M,0,84211,84373,321,227,322,266 S,0,84211,86157,1,1.67584 M,0,84373,84535,322,266,320,227 M,0,84535,84698,320,227,320,267 M,0,84698,84860,320,267,320,227 M,0,84860,85022,320,227,322,266 M,0,85022,85184,322,266,321,227 M,0,85184,85346,321,227,321,267 M,0,85346,85508,321,267,320,226 M,0,85508,85671,320,226,320,267 M,0,85671,85833,320,267,320,226 M,0,85833,85995,320,226,321,267 M,0,85995,86157,321,267,321,226 F,0,86157,86481,1,0 S,0,86157,86481,1.67584,2.65888
Sprite,Foreground,Centre,"SB\lyric26B.png",320,240 M,0,84211,84373,321,270,321,225 S,0,84211,86157,1,1.72704 M,0,84373,84535,321,225,320,269 M,0,84535,84698,320,269,322,224 M,0,84698,84860,322,224,320,270 M,0,84860,85022,320,270,322,225 M,0,85022,85184,322,225,321,269 M,0,85184,85346,321,269,322,224 M,0,85346,85508,322,224,322,271 M,0,85508,85671,322,271,324,222 M,0,85671,85833,324,222,319,271 M,0,85833,85995,319,271,321,225 M,0,85995,86157,321,225,321,269 F,0,86157,86481,1,0 S,0,86157,86481,1.72704,2.23904
Sprite,Foreground,Centre,"SB\lyric31.png",320,240 S,0,88590,88752,1,1.70656 R,0,88590,88752,0.73728,-0.2047998 S,0,88752,88914,1.70656,1.36864 R,0,88752,88914,-0.2047998,0 M,0,88752,89400,202,171 R,0,88914,89400,0 S,0,88914,91346,1.36864 M,0,89400,89563,202,171,192,158 R,0,89400,89563,0,-0.2047998 M,0,89563,89725,192,158,184,168 R,0,89563,89725,-0.2047998,-0.02047973 R,0,89725,91346,-0.02047973 R,0,91346,91508,-0.02047973,-0.4710397 S,0,91346,92968,1.36864,1.64512 R,0,91508,91671,-0.4710397,0.4096002 R,0,91671,91833,0.4096002,-0.4095996 R,0,91833,91995,-0.4095996,0.4505603 R,0,91995,92157,0.4505603,-0.4505597 R,0,92157,92319,-0.4505597,0.3276803 R,0,92319,92481,0.3276803,-0.4095997 R,0,92481,92644,-0.4095997,0.3891201 R,0,92644,92806,0.3891201,-0.4095997 R,0,92806,92968,-0.4095997,0.3891204 R,0,92968,93130,0.3891204,-0.4300797 F,0,92968,93292,1,0 S,0,92968,93292,1.64512,2.52576 R,0,93130,93292,-0.4300797,2.574921E-07
Sprite,Foreground,Centre,"SB\lyric32.png",320,240 S,0,88914,89076,1,1.49152 M,0,88914,89238,244,184 R,0,88914,89238,0 S,0,89076,89238,1.49152,1 M,0,89238,89400,244,184 R,0,89238,89563,0,-0.1024002 M,0,89400,89563,244,184,231,184 M,0,89563,89725,231,184,227,183 R,0,89563,89725,-0.1024002,-0.04096008 F,0,92968,93292,1,0
Sprite,Foreground,Centre,"SB\lyric33.png",320,240 R,0,89400,,0 S,0,89400,89563,1,1.60416 M,0,89400,89725,304,186 S,0,89563,89725,1.60416,1 M,0,89725,89887,304,186,288,185 F,0,92968,93292,1,0
Sprite,Foreground,Centre,"SB\lyric34.png",320,240 M,0,89725,89887,357,185 S,0,89725,89887,0.70304,1.1024 S,0,89887,91346,1.1024 R,0,91346,91508,0,0.3072 S,0,91346,92968,1.1024,1.49152 R,0,91508,91671,0.3072,-0.1843201 R,0,91671,91833,-0.1843201,0.2457599 R,0,91833,91995,0.2457599,-0.1843201 R,0,91995,92157,-0.1843201,0.2252799 R,0,92157,92319,0.2252799,-0.2867203 R,0,92319,92481,-0.2867203,0.2867197 R,0,92481,92644,0.2867197,-0.2048001 R,0,92644,92806,-0.2048001,0.3276798 R,0,92806,92968,0.3276798,-6.7584 F,0,92968,,1 R,0,92968,93130,-6.7584,-5.9392 F,0,92968,93292,1,0 S,0,92968,93292,1.49152,2.04448 R,0,93130,93292,-5.9392,-6.20544
Sprite,Foreground,Centre,"SB\lyric35.png",320,240 S,0,89887,90049,1,1.3072 S,0,90049,90211,1.3072,1 M,0,90698,93292,320,240,81,236 F,0,92968,93292,1,0
Sprite,Foreground,Centre,"SB\lyric36.png",320,240 S,0,90211,90373,1,1.54272 M,0,90211,90535,386,242 F,0,90211,92968,1 S,0,90373,90535,1.54272,1 M,0,90535,90698,386,242 M,0,90698,92968,386,242,170,237 M,0,92968,93292,170,237,144,241 F,0,92968,93292,1,0
Sprite,Foreground,Centre,"SB\lyric37.png",320,240 M,0,90535,90698,564,242,474,237 M,0,90698,92968,474,237,256,234 M,0,92968,93292,256,234,203,233 F,0,92968,93292,1,0
Sprite,Foreground,Centre,"SB\lyric38.png",320,240 M,0,93292,93454,50,323,175,108 F,0,93292,93617,0,1 M,0,93454,98481,175,108,271,75 F,0,93617,98319,1 F,0,98319,98644,1,0 M,0,98481,98644,271,75,599,54
Sprite,Foreground,Centre,"SB\lyric39.png",320,240 S,0,93779,93941,1,1.65536 M,0,93779,94427,258,163 F,0,93779,98319,1 S,0,93941,94103,1.65536,1 S,0,94103,94265,1,1.58368 S,0,94265,94427,1.58368,1 M,0,94427,98481,258,163,147,129 F,0,98319,98644,1,0 M,0,98481,98644,147,129,19,161
Sprite,Foreground,Centre,"SB\lyric41.png",320,240 M,0,94427,94590,17,351,262,209 F,0,94427,94752,0,1 M,0,94590,98481,262,209,225,179 F,0,94752,98319,1 F,0,98319,98644,1,0 M,0,98481,98644,225,179,626,115
Sprite,Foreground,Centre,"SB\lyric42.png",320,240 S,0,95076,95238,1,1.4608 F,0,95076,98319,1 M,0,95076,98481,356,250,352,190 S,0,95238,95400,1.4608,1 S,0,95400,95563,1,1.43008 S,0,95563,95725,1.43008,1 F,0,98319,98644,1,0 M,0,98481,98644,352,190,460,24
Sprite,Foreground,Centre,"SB\lyric43.png",320,240 M,0,95887,96049,208,417,292,281 R,0,95887,96049,0,1.51552 F,0,95887,96211,0,1 S,0,95887,98481,1,1.4096 R,0,96049,96211,1.51552,3.13344 M,0,96049,98481,292,281,257,251 R,0,96211,96373,3.13344,4.628479 F,0,96211,98481,1 R,0,96373,96535,4.628479,6.294312 R,0,96535,96698,6.294312,7.830311 R,0,96698,96860,7.830311,9.448231 R,0,96860,97022,9.448231,11.27095 R,0,97022,97184,11.27095,12.54071 F,0,98481,98806,1,0 S,0,98481,98806,1.4096,2.91488
Sprite,Foreground,Centre,"SB\lyric44.png",320,240 F,0,98481,101400,0,1 M,0,98481,103833,326,443,311,126 F,0,101400,103508,1 F,0,103508,103833,1,0 S,0,103508,103833,1,2.0752
Sprite,Foreground,Centre,"SB\lyric45.png",320,240 R,0,103995,104157,-0.2252799,0.2048001 F,0,103995,104319,0,1 R,0,104157,104319,0.2048001,-0.2252805 R,0,104319,104481,-0.2252805,-3.124028E-07 F,0,104319,108860,1,0.9598765 S,0,104806,104968,1,1.38912 S,0,104968,105130,1.38912,1 S,0,105130,105292,1,1.39936 S,0,105292,105454,1.39936,1 M,0,105454,105617,320,240,317,195 M,0,105617,105779,317,195,313,199 F,0,108860,109184,0.9598765,0
Sprite,Foreground,Centre,"SB\lyric46.png",320,240 M,0,105292,105454,415,427,323,274 M,0,105454,105617,323,274,311,230 M,0,105617,108860,311,230 F,0,108860,109184,1,0
Sprite,Foreground,Centre,"SB\lyric31.png",320,240 M,0,106103,,180,300 S,0,106103,106265,2.4848,3.73408 R,0,106103,106265,-0.28672,0.6348804 F,0,106103,108860,1 S,0,106265,106427,3.73408,2.4848 R,0,106265,106427,0.6348804,-0.28672 S,0,106427,108860,2.4848 F,0,108860,109508,1,0 S,0,108860,109508,2.4848,5
Sprite,Foreground,Centre,"SB\lyric47.png",320,240 M,0,106427,,313,295 S,0,106427,106590,2.13664,3.16064 R,0,106427,106590,0,0.6144 F,0,106427,108860,0.9692799 S,0,106590,106752,3.16064,2.13664 R,0,106590,106752,0.6144,0 S,0,106752,108860,2.13664 F,0,108860,109508,0.9692799,0 S,0,108860,109508,2.13664,3.44736
Sprite,Foreground,Centre,"SB\lyric48.png",320,240 M,0,106752,,450,295 S,0,106752,106914,2.06496,2.96608 R,0,106752,106914,0.2457599,-0.3891199 F,0,106752,108860,1 S,0,106914,107076,2.96608,2.06496 R,0,106914,107076,-0.3891199,0.2457599 S,0,107076,108860,2.06496,2.092772 F,0,108860,109508,1,0 S,0,108860,109508,2.092772,3.034853
Sprite,Foreground,Centre,"SB\lyric1.png",320,240 M,0,130752,130914,103,287 S,0,130752,130914,1,1.6656 R,0,130752,130914,0,0.6144 M,0,130914,131076,103,287 S,0,130914,131076,1.6656,1 R,0,130914,131076,0.6144,0 F,0,132535,132860,1,0
Sprite,Foreground,Centre,"SB\lyric2.png",320,240 M,0,131076,,135,260 S,0,131076,131238,1,1.55296 R,0,131076,131238,-0.3071997,0.3891202 F,0,131076,132535,1 S,0,131238,131400,1.55296,1 R,0,131238,131400,0.3891202,-0.3071997 F,0,132535,132860,1,0
Sprite,Foreground,Centre,"SB\lyric3.png",320,240 M,0,131400,,192,307 S,0,131400,131563,1,1.4096 F,0,131400,132535,1 S,0,131563,131725,1.4096,1 S,0,131725,131887,1,1.32768 S,0,131887,132049,1.32768,1.109227 S,0,132049,,1.109227 F,0,132535,132860,1,0
Sprite,Foreground,Centre,"SB\lyric4.png",320,240 M,0,132373,,262,302 F,0,132373,,1 S,0,132373,132535,1,1.6656 R,0,132373,132535,0.1843207,-0.5529596 S,0,132535,132698,1.6656,1 R,0,132535,132698,-0.5529596,0.1843207
Sprite,Foreground,Centre,"SB\lyric49.png",320,240 S,0,132860,133022,1,1.4608 M,0,132860,134157,320,240 S,0,133022,133184,1.4608,1 M,0,134157,134319,320,240,321,267 M,0,134319,134481,321,267,320,240 M,0,134481,134644,320,240,320,266 M,0,134644,134806,320,266,320,240 M,0,134806,134968,320,240,321,268 M,0,134968,135130,321,268,320,240 M,0,135130,135292,320,240,321,269 F,0,135130,135454,1,0 M,0,135292,135454,321,269,320,240
Sprite,Foreground,Centre,"SB\lyric47.png",320,240 M,0,136103,,133,105 S,0,136103,136265,1,1.26624 R,0,136103,136265,-0.3891199,0.2048003 F,0,136103,137725,1 S,0,136265,136427,1.26624,1 R,0,136265,136427,0.2048003,-0.3891199 R,0,136427,136590,-0.3891199,0.1228803 F,0,137725,138049,1,0
Sprite,Foreground,Centre,"SB\lyric51.png",320,240 M,0,136427,,180,103 S,0,136427,136590,1,1.65536 R,0,136427,136590,0,0.3071999 F,0,136427,137725,1 S,0,136590,136752,1.65536,1 R,0,136590,136752,0.3071999,0 R,0,136752,136914,0,-0.14336 F,0,137725,138049,1,0
Sprite,Foreground,Centre,"SB\lyric52.png",320,240 S,0,136752,,1 M,0,136752,136914,48,159,187,152 M,0,136914,137076,187,152,176,156 F,0,137725,138049,1,0
Sprite,Foreground,Centre,"SB\lyric4.png",320,240 M,0,136752,136914,582,162,248,155 F,0,136752,137725,1 M,0,136914,137076,248,155,250,157 F,0,137725,138049,1,0
Sprite,Foreground,Centre,"SB\lyric52A.png",320,240 S,0,138049,138211,1,1.29696 M,0,138049,139508,321,240 S,0,138211,138373,1.29696,1 S,0,138373,140319,1 M,0,139508,139590,321,240,326,230 M,0,139590,139671,326,230,318,235 M,0,139671,139752,318,235,325,229 M,0,139752,139833,325,229,334,235 M,0,139833,139914,334,235,320,237 M,0,139914,139995,320,237,315,221 M,0,139995,140076,315,221,322,213 M,0,140076,140157,322,213,328,221 M,0,140157,140238,328,221,334,219 M,0,140238,140319,334,219,327,233 F,0,140319,140644,1,0 S,0,140319,140644,1,2.024
Sprite,Foreground,Centre,"SB\lyric27.png",320,240 M,0,150373,,146,130 S,0,150373,150535,1,1.27648 R,0,150373,150535,0,0.5119998 S,0,150535,150698,1.27648,1 R,0,150535,150698,0.5119998,0 F,0,155563,155887,1,0
Sprite,Foreground,Centre,"SB\lyric23.png",320,240 M,0,151022,,151,126 S,0,151022,151184,0.7440001,1.13312 R,0,151022,151184,0,0.5529599 F,0,151022,155563,1 S,0,151184,151346,1.13312,1 R,0,151184,151346,0.5529599,0 F,0,155563,155887,1,0
Sprite,Foreground,Centre,"SB\lyric53.png",320,240 M,0,151671,151752,262,392,279,373 F,0,151671,155563,1 M,0,151752,151833,279,373,287,347 M,0,151833,151914,287,347,280,327 M,0,151914,151995,280,327,253,323 M,0,151995,152076,253,323,237,336 M,0,152076,152157,237,336,224,350 M,0,152157,152238,224,350,218,366 M,0,152238,152319,218,366,241,376 M,0,152319,152400,241,376,273,364 M,0,152400,152563,273,364,304,306 M,0,152563,152644,304,306,288,266 M,0,152644,152725,288,266,259,277 M,0,152725,152806,259,277,256,298 M,0,152806,152887,256,298,270,315 R,0,152806,152887,0,0.1023999 M,0,152887,152968,270,315,306,306 R,0,152887,153130,0.1023999,-0.08192017 M,0,152968,153049,306,306,323,245 M,0,153049,153130,323,245,351,204 M,0,153130,153211,351,204,307,184 R,0,153130,153292,-0.08192017,0.2047998 M,0,153211,153292,307,184,284,224 M,0,153292,153373,284,224,353,213 R,0,153292,153454,0.2047998,-0.1533166 M,0,153373,153454,353,213,372,162 M,0,153454,153535,372,162,363,133 S,0,153454,153617,1,1.3072 R,0,153454,153617,-0.1533166,0.02047972 M,0,153535,153617,363,133,397,153 S,0,153617,153779,1.3072,1 S,0,153779,153941,1 S,0,153941,154103,1,1.34816 S,0,154103,154265,1.34816,1 S,0,154265,154427,1 F,0,155563,155887,1,0
Sprite,Foreground,Centre,"SB\lyric54.png",320,240 M,0,155887,156049,74,92,129,330 F,0,155887,156049,0,1 S,0,156049,156211,1,1.39936 F,0,156049,160427,1 S,0,156211,156373,1.39936,1 F,0,160427,160752,1,0
Sprite,Foreground,Centre,"SB\lyric55.png",320,240 M,0,156860,157022,427,79,393,326 F,0,156860,160427,1 S,0,157022,157184,1,1.29696 S,0,157184,157346,1.29696,1 R,0,159617,159779,0,0.1843195 R,0,159779,159941,0.1843195,-0.1638397 R,0,159941,160103,-0.1638397,-5.960465E-09 F,0,160427,160752,1,0
Sprite,Foreground,Centre,"SB\lyric29.png",320,240 M,0,160752,,129,306 S,0,160752,160914,1,1.3584 R,0,160752,160914,0,0.3072003 S,0,160914,161076,1.3584,1 R,0,160914,161076,0.3072003,0 F,0,165941,166265,1,0
Sprite,Foreground,Centre,"SB\lyric23.png",320,240 M,0,161400,,136,297 S,0,161400,161563,1,1.33792 F,0,161400,165941,1 R,0,161563,,0.4095996 S,0,161563,161725,1.33792,1 F,0,165941,166265,1,0
Sprite,Foreground,Centre,"SB\lyric56.png",320,240 M,0,162049,162211,356,60,369,332 F,0,162049,165941,1 M,0,162211,162373,369,332,373,316 M,0,162373,162535,373,316,375,323 F,0,165941,166265,1,0 S,0,165941,166265,1,1.75776
Sprite,Foreground,Centre,"SB\lyric57.png",320,240 M,0,166265,166590,320,240 S,0,166265,167238,1,2.97632 M,0,166590,166914,320,240 M,0,166914,167238,320,240 F,0,166914,167238,1,0
Sprite,Foreground,Centre,"SB\lyric58.png",320,240 R,0,167238,167400,0.3071997,-0.3481604 S,0,167238,168860,1 R,0,167400,167563,-0.3481604,0.3071994 R,0,167563,167725,0.3071994,-0.3481607 R,0,167725,167887,-0.3481607,0.1843195 R,0,167887,168049,0.1843195,-0.7782406 R,0,168049,168211,-0.7782406,1.003519 R,0,168211,168373,1.003519,-1.351681 R,0,168373,168535,-1.351681,-3.153921 R,0,168535,168698,-3.153921,-4.95616 R,0,168698,168860,-4.95616,-6.30784 F,0,168860,169184,1,0 S,0,168860,169184,1,2.35168 F,0,169184,,0
Sprite,Foreground,Centre,"SB\lyric31.png",320,240 M,0,171779,171860,73,110,94,98 R,0,171779,171941,0,3.15392 M,0,171860,171941,94,98,114,110 M,0,171941,172022,114,110,118,124 R,0,171941,172103,3.15392,6.348801 M,0,172022,172103,118,124,94,116 F,0,175995,176319,1,0 S,0,175995,176319,1,3.4064
Sprite,Foreground,Centre,"SB\lyric32.png",320,240 M,0,172103,172184,228,73,197,99 R,0,172103,172265,0,-3.19488 M,0,172184,172265,197,99,216,118 M,0,172265,172346,216,118,170,107 R,0,172265,172427,-3.19488,-6.38976 M,0,172346,172427,170,107,133,127 F,0,175995,176319,1,0 S,0,175995,176319,1,3.16064
Sprite,Foreground,Centre,"SB\lyric33.png",320,240 M,0,172427,,188,113 S,0,172427,172590,1,1.63488 R,0,172427,172590,0.2252802,-0.67584 F,0,172427,175995,1 S,0,172590,172752,1.63488,1 R,0,172590,172752,-0.67584,0.2252802 S,0,172752,175995,1 F,0,175995,176319,1,0 S,0,175995,176319,1,2.47456
Sprite,Foreground,Centre,"SB\lyric34.png",320,240 M,0,172752,,250,136 S,0,172752,172914,1,1.83968 R,0,172752,172914,-0.5120001,0.9011196 S,0,172914,173076,1.83968,1 R,0,172914,173076,0.9011196,-0.5120001 R,0,173076,,-0.5120001 S,0,173076,175995,1 F,0,175995,176319,1,0 S,0,175995,176319,1,2.64864
Sprite,Foreground,Centre,"SB\lyric59.png",320,240 S,0,173076,173238,1,1.57344 M,0,173076,173400,320,240 S,0,173238,173400,1.57344,1 M,0,173400,174373,320,240,352,184 S,0,173400,174373,1 R,0,174373,174535,0,3.189965 S,0,174373,175995,1,1.38912 R,0,174535,174698,3.189965,6.28736 R,0,174698,174860,6.28736,9.46176 R,0,174860,175022,9.46176,12.55424 R,0,175022,175184,12.55424,15.74394 R,0,175184,175346,15.74394,18.8569 R,0,175346,175508,18.8569,22.01082 R,0,175508,175671,22.01082,25.14426 R,0,175671,,25.14426 F,0,175995,176319,1,0 S,0,175995,176319,1.38912,2.41312
Sprite,Foreground,Centre,"SB\lyric38.png",320,240 M,0,176319,176644,320,240,176,148 M,0,176644,177292,176,148,163,140 M,0,177292,181508,163,140,109,68 F,0,181508,181833,1,0 S,0,181508,181833,1,2.13664
Sprite,Foreground,Centre,"SB\lyric61.png",320,240 R,0,176968,177049,0,1.51552 M,0,176968,177292,230,188 S,0,176968,177292,0.30368,1 F,0,176968,181508,1 R,0,177049,177130,1.51552,3.15392 R,0,177130,177211,3.15392,4.62848 R,0,177211,177292,4.62848,6.287361 M,0,177292,181508,230,188,163,114 S,0,177292,181508,1 F,0,181508,181833,1,0 S,0,181508,181833,1,2.56672
Sprite,Foreground,Centre,"SB\lyric41.png",320,240 M,0,177617,177941,320,240,429,123 S,0,177617,181508,1 M,0,177941,178914,429,123,358,117 M,0,178914,181508,358,117,331,71 F,0,181508,181833,1,0 S,0,181508,181833,1,2.29024
Sprite,Foreground,Centre,"SB\lyric62.png",320,240 R,0,178265,178346,0,-1.59744 M,0,178265,178590,371,174,423,163 S,0,178265,178590,0.4060799,1 F,0,178265,181508,1 R,0,178346,178427,-1.59744,-3.13344 R,0,178427,178508,-3.13344,-4.7104 R,0,178508,178590,-4.7104,-6.26688 M,0,178590,181508,423,163,353,115 S,0,178590,181508,1 F,0,181508,181833,1,0 S,0,181508,181833,1,2.35168
Sprite,Foreground,Centre,"SB\lyric63.png",320,240 M,0,178914,181508,303,208 F,0,178914,181508,1 S,0,178914,181508,0.4367999,1.5632 F,0,181508,181833,1,0 S,0,181508,181833,1.5632,3.64192
Sprite,Foreground,Centre,"SB\lyric64.png",320,240 F,0,181508,181833,0,1 M,0,181508,182157,320,240 F,0,181833,183941,1 M,0,182157,182319,320,240,298,71 F,0,183941,184184,1,0.5 S,0,183941,184184,1,2.42848 F,0,184184,184427,0.5,0 S,0,184184,184427,2.42848,2.83296
Sprite,Foreground,Centre,"SB\lyric64.png",320,240 F,0,181508,181833,0,1 M,0,181508,182157,320,240 S,0,181508,183941,1 F,0,181833,183941,1 S,0,183941,184103,1,2.04448 F,0,183941,184427,1,0 S,0,184103,184427,2.04448,3.11968
Sprite,Foreground,Centre,"SB\lyric64.png",320,240 F,0,181508,181833,0,1 M,0,181508,182157,320,240 F,0,181833,183941,1 M,0,182157,182319,320,240,352,390 S,0,183941,184103,1,2.19808 F,0,183941,184427,1,0 S,0,184103,184427,2.19808,3.16064
Sprite,Foreground,Centre,"SB\lyric44.png",320,240 M,0,181508,186049,260,46,341,424 F,0,181508,186535,0,0.9116794 S,0,186049,186535,1,1.056262 F,0,186535,187022,0.9116794,0 S,0,186535,187022,1.056262,1.762822
Sprite,Foreground,Centre,"SB\lyric64.png",320,240 F,0,98644,99130,0,1 S,0,98644,100752,1 M,0,99130,99292,320,240,221,128 F,0,99130,100914,1 S,0,100752,100914,1 S,0,100914,101076,1,1.69632 F,0,100914,101400,1,0 S,0,101076,101400,1.69632,2.395927
Sprite,Foreground,Centre,"SB\lyric64.png",320,240 F,0,98644,99130,0,1 F,0,99130,100914,1 S,0,100914,101076,1,1.96256 F,0,100914,101400,1,0 S,0,101076,101400,1.96256,2.59744
Sprite,Foreground,Centre,"SB\lyric64.png",320,240 F,0,98644,98806,0,1 M,0,98644,99130,320,240 F,0,98806,100914,1 M,0,99130,99292,320,240,443,358 S,0,100914,101076,1,2.01376 F,0,100914,101400,1,0 S,0,101076,101400,2.01376,2.71008
Sprite,Foreground,Centre,"SB\lyric65.png",320,240 M,0,187184,,223,121 S,0,187184,187346,1,1.50176 R,0,187184,187346,-0.2662399,0.1638403 F,0,187184,192049,1 S,0,187346,187508,1.50176,1 R,0,187346,187508,0.1638403,-0.2662399 R,0,187508,187671,-0.2662399,0.01327406 S,0,187508,192049,1 R,0,187671,192049,0.01327406,0.008129634 S,0,192049,,1 F,0,192049,192373,1,0 S,0,192049,192373,1,2.03424
Sprite,Foreground,Centre,"SB\lyric46.png",320,240 M,0,188644,188806,69,342,168,178 F,0,188644,192049,1 F,0,192049,192373,1,0 S,0,192049,192373,1,2.6384
Sprite,Foreground,Centre,"SB\lyric31.png",320,240 M,0,189292,189373,102,399,157,245 S,0,189292,192049,2.39264,2.46432 M,0,189373,189454,157,245,183,218 M,0,189454,189535,183,218,190,233 M,0,189535,189617,190,233,192,241 F,0,192049,192373,1,0 S,0,192049,192373,2.46432,4.2256
Sprite,Foreground,Centre,"SB\lyric47.png",320,240 M,0,189617,189698,356,400,322,247 F,0,189617,192049,1 S,0,189617,192049,2.13664 M,0,189698,189779,322,247,299,226 M,0,189779,189860,299,226,291,235 M,0,189860,189941,291,235,285,239 F,0,192049,192373,1,0 S,0,192049,192373,2.13664,3.49856
Sprite,Foreground,Centre,"SB\lyric48.png",320,240 M,0,189941,,387,225 R,0,189941,190022,-0.4915201,0.08192017 F,0,189941,192049,1 S,0,189941,192049,0.5903998,2.21856 R,0,190022,190103,0.08192017,-0.4300796 R,0,190103,190184,-0.4300796,0.1843207 R,0,190184,190265,0.1843207,-0.4915189 R,0,190265,190346,-0.4915189,0.2867212 R,0,190346,190427,0.2867212,-0.5324789 R,0,190427,190508,-0.5324789,0.2252811 R,0,190508,190590,0.2252811,-0.4710388 R,0,190590,190671,-0.4710388,0.1024011 R,0,190671,190752,0.1024011,-0.4710391 R,0,190752,190833,-0.4710391,0.348161 R,0,190833,190914,0.348161,-0.4915189 R,0,190914,190995,-0.4915189,0.327681 R,0,190995,191076,0.327681,-0.5324792 R,0,191076,191157,-0.5324792,0.3072009 R,0,191157,191238,0.3072009,-0.5119992 R,0,191238,191319,-0.5119992,0.4505609 R,0,191319,191400,0.4505609,-0.4915192 R,0,191400,191481,-0.4915192,0.5120007 R,0,191481,191563,0.5120007,-0.5119989 R,0,191563,191644,-0.5119989,0.3072012 R,0,191644,191725,0.3072012,-0.6963187 R,0,191725,191806,-0.6963187,0.3891214 R,0,191806,191887,0.3891214,-0.5324789 R,0,191887,191968,-0.5324789,0.204801 R,0,191968,192049,0.204801,-0.02047911 F,0,192049,192373,1,0 S,0,192049,192373,2.21856,3.17088
Sprite,Foreground,Centre,"SB\AYA.png",320,240 M,0,58914,,188,132 S,0,58914,59076,1,1.43008 R,0,58914,59076,-0.4505603,0.4505595 S,0,59076,59238,1.43008,1 R,0,59076,59238,0.4505595,-0.3686405
Sprite,Foreground,Centre,"SB\AYA!.png",320,240 R,0,59400,,0 F,0,59400,59725,1,0 S,0,59400,59725,1,2.21856
Sprite,Foreground,Centre,"SB\AYA.png",320,240 M,0,61508,,450,362 F,0,61508,,1 S,0,61508,61671,1,1.67584 R,0,61508,61671,0,0.7987201 S,0,61671,61833,1.67584,1 R,0,61671,61833,0.7987201,0
Sprite,Foreground,Centre,"SB\AYA!.png",320,240 M,0,61995,,218,147 S,0,61995,62319,0.26272,1 R,0,61995,62319,0,6.280533 S,0,62319,62644,1,1.5632 F,0,62481,62644,1,0
Sprite,Foreground,Centre,"SB\lyric47.png",320,240 S,0,536,698,1,1.54272 M,0,536,1184,188,232 S,0,698,3698,1.54272 M,0,1184,1265,188,232,183,227 M,0,1265,1346,183,227,172,233 M,0,1346,1508,172,233 M,0,1508,1590,172,233,178,227 M,0,1590,1671,178,227,188,232 M,0,1671,2481,188,232 M,0,2481,2563,188,232,188,216 R,0,2481,2563,0,0.28672 M,0,2563,2644,188,216,187,228 R,0,2563,2644,0.28672,0.04096009 R,0,2644,2725,0.04096009,-0.01023986 R,0,2725,2806,-0.01023986,-0.2252798 R,0,2806,2887,-0.2252798,0.02048005 S,0,3698,3779,1.54272,2.11616 S,0,3779,3860,2.11616,1.54272 S,0,3860,4022,1.54272 S,0,4022,4103,1.54272,2.04448 S,0,4103,4184,2.04448,1.54272 S,0,4184,4346,1.54272 S,0,4346,4427,1.54272,1.91136 S,0,4427,4508,1.91136,1.54272 S,0,4508,4671,1.54272 S,0,4671,4752,1.54272,2.05472 S,0,4752,4833,2.05472,1.54272 S,0,4833,4995,1.54272 S,0,4995,5076,1.54272,2.13664 S,0,5076,5157,2.13664,1.54272 F,0,5076,5725,1,0 S,0,5157,5725,1.54272,3.39616
Sprite,Foreground,Centre,"SB\lyric48.png",320,240 M,0,1833,1995,256,238 S,0,1833,1995,1,1.47104 F,0,1833,5157,1 M,0,1995,2400,256,238 S,0,1995,3698,1.47104 M,0,2400,2481,256,238,249,231 M,0,2481,2563,249,231,256,238 M,0,2563,2725,256,238 M,0,2725,2806,256,238,248,230 M,0,2806,2887,248,230,256,238 M,0,2887,3049,256,238 M,0,3049,3130,256,238,264,230 M,0,3130,3211,264,230,272,236 S,0,3698,3779,1.47104,1.89088 S,0,3779,3860,1.89088,1.47104 S,0,3860,4022,1.47104 S,0,4022,4103,1.47104,1.80896 S,0,4103,4184,1.80896,1.47104 S,0,4184,4346,1.47104 S,0,4346,4427,1.47104,1.86016 S,0,4427,4508,1.86016,1.47104 S,0,4508,4671,1.47104,1.499864 S,0,4671,4752,1.499864,1.858264 S,0,4752,4833,1.858264,1.499864 S,0,4833,4995,1.499864 S,0,4995,5076,1.499864,1.868504 S,0,5076,5157,1.868504,1.499864 F,0,5157,5725,1,0 S,0,5157,5725,1.499864,3.404504
Sprite,Foreground,Centre,"SB\lyric66.png",320,240 M,0,3698,,326,271 R,0,3698,,0.5529605 S,0,3698,3779,1,2.6384 F,0,3698,5238,1 S,0,3779,3860,2.6384,1.53248 S,0,3860,4995,1.53248,1.641707 S,0,4995,5725,1.641707,2.921706 F,0,5238,5725,1,0
Sprite,Foreground,Centre,"SB\lyric1.png",320,240 M,0,4022,,373,314 S,0,4022,4103,1,1.53248 F,0,4022,5238,1 S,0,4103,4184,1.53248,1.32768 S,0,4184,4995,1.32768,1.340322 S,0,4995,5725,1.340322,2.579362 F,0,5238,5725,1,0
Sprite,Foreground,Centre,"SB\lyric2.png",320,240 M,0,4346,,434,319 S,0,4346,4427,1,1.512 F,0,4346,5319,1 S,0,4427,4508,1.512,1.27648 S,0,4508,4995,1.27648,1.293926 S,0,4995,5725,1.293926,2.379366 F,0,5319,5725,1,0
Sprite,Foreground,Centre,"SB\lyric67.png",320,240 M,0,5725,6049,891,88,317,232 F,0,5725,8319,1 S,0,5725,8319,0.8464 M,0,6049,8319,317,232,316,310 F,0,8319,8968,1,0 S,0,8319,8968,0.8464,1.70656
Sprite,Foreground,Centre,"SB\lyric68.png",320,240 M,0,8319,8644,-114,439,334,224 F,0,8319,10914,1 M,0,8644,10914,334,224,322,110 F,0,10914,11563,1,0 S,0,10914,11563,1,1.75776
Sprite,Foreground,Centre,"SB\lyric69.png",320,240 M,0,13508,13833,182,51,422,231 F,0,13508,16103,1 M,0,13833,16103,422,231,262,306 F,0,16103,16752,1,0 S,0,16103,16752,1,1.91136
Sprite,Foreground,Centre,"SB\YA~.png",320,240 M,0,26481,,396,294 F,0,26481,27130,1,0 S,0,26481,27130,1,1.94208
Sprite,Foreground,Centre,"SB\YA~.png",320,240 M,0,31671,,152,121 F,0,31671,32319,1,0 S,0,31671,32319,1,1.64512
Sprite,Foreground,Centre,"SB\YA~.png",320,240 F,0,47238,47887,1,0 S,0,47238,47887,1,1.83968
Sprite,Foreground,Centre,"SB\YA~.png",320,240 M,0,52427,,475,129 F,0,52427,53076,1,0 S,0,52427,53076,1,1.80896
Sprite,Foreground,Centre,"SB\YA~.png",320,240 M,0,130265,,260,139 F,0,130265,130914,1,0 S,0,130265,130914,1,1.70656
Sprite,Foreground,Centre,"SB\YA~.png",320,240 M,0,135454,,426,319 F,0,135454,136103,1,0 S,0,135454,136103,1,1.9216
//Storyboard Sound Samples
//Background Colour Transformations
3,100,163,162,255

[TimingPoints]
536,324.324324324324,4,1,0,31,1,0
16022,-100,4,2,0,65,0,0
16184,-100,4,1,0,53,0,0
57617,-125,4,2,0,53,0,0
64671,-200,4,2,0,25,0,0
66698,-125,4,1,0,53,0,0
78373,-125,4,2,0,82,0,0
78454,-125,4,1,0,53,0,0
88752,-100,4,1,0,53,0,1
109508,-100,4,1,0,53,0,0
125076,-100,4,1,0,40,0,0
127671,-100,4,1,0,50,0,0
130265,-200,4,1,0,53,0,0
140319,-200,4,2,0,67,0,0
151022,-100,4,1,0,53,0,0
171779,-100,4,1,0,53,0,1
192535,-100,4,2,0,53,0,0

[Colours]
Combo1 : 252,252,252
Combo2 : 16,74,250
Combo3 : 255,15,39

[HitObjects]
80,152,536,2,0,B|160:136,1,70,12|0
192,200,860,1,8
272,232,1022,1,0
336,184,1184,1,2
336,184,1508,1,2
384,344,1833,6,0,B|440:312|424:264,1,70,12|0
432,208,2157,1,8
400,128,2319,1,0
320,112,2481,1,2
320,112,2806,1,2
336,184,3130,6,0,B|320:216|272:232,1,70,12|0
208,264,3454,1,8
120,264,3617,1,0
64,192,3779,1,2
64,192,4103,1,2
64,192,4427,5,2
256,32,4752,1,8
368,304,5076,1,2
312,360,5238,2,0,B|232:360,1,70,0|8
168,320,5563,1,8
64,192,5725,6,0,B|88:248|128:256,1,70,2|0
176,200,6049,2,0,B|208:184|248:152,1,70,8|0
160,104,6373,5,2
232,56,6535,1,0
296,112,6698,1,8
360,56,6860,1,0
424,112,7022,2,0,B|440:160|416:200,1,70,2|0
392,256,7346,1,8
336,312,7508,1,0
248,320,7671,2,0,B|240:280|240:232,1,70,2|0
224,168,7995,1,8
312,200,8157,1,8
208,320,8319,6,0,B|232:272|224:240,1,70,2|0
142,267,8644,1,8
88,208,8806,1,0
104,128,8968,6,0,B|176:128,1,70,2|0
216,56,9292,2,0,B|264:120,1,70,8|0
240,184,9617,2,0,B|280:192|328:160,1,70,2|0
352,104,9941,1,8
432,104,10103,1,2
376,168,10265,2,0,B|408:160|456:176,1,70
472,248,10590,1,10
392,248,10752,1,8
456,208,10914,6,0,B|424:288|344:272,1,140,2|8
264,256,11400,1,2
272,168,11563,1,0
200,208,11725,1,0
272,168,11887,1,0
200,128,12049,1,2
120,96,12211,5,2
120,96,12373,1,0
80,168,12536,1,8
80,168,12698,1,0
96,248,12860,2,0,B|176:288,1,70,2|0
264,368,13184,2,0,B|200:336,1,70,10|8
352,368,13508,6,0,B|416:325|400:245,1,140,0|8
376,152,13995,1,2
296,128,14157,1,0
296,128,14238,1,0
296,128,14319,1,0
224,168,14481,2,0,B|224:216,2,35,8|0|0
136,168,14806,6,0,B|120:208|136:248,1,70,2|0
352,248,15130,2,0,B|368:208|352:160,1,70,8|0
256,168,15454,1,0
256,184,15536,1,0
256,200,15617,1,0
256,216,15698,1,0
256,232,15779,1,8
256,384,16103,1,4
256,112,23887,5,2
200,208,24049,1,0
312,208,24211,1,8
312,208,24535,5,2
200,208,24698,1,0
256,112,24860,1,8
208,152,25184,6,0,B|144:112,1,70,2|0
304,152,25508,2,0,B|368:112,1,70,8|0
304,232,25833,2,0,B|368:272,1,70,2|0
208,232,26157,2,0,B|184:256,4,35,8|0|8|0|8
160,64,26806,5,8
304,152,27130,1,0
384,160,27292,1,0
352,80,27454,1,8
376,248,27779,2,0,B|416:248|456:224,1,70
335,319,28103,2,0,B|272:320|248:344,1,70,8|0
176,240,28427,2,0,B|239:240|263:264,1,70,0|8
336,152,28752,2,0,B|272:152|240:176,1,70,8|0
296,240,29076,5,0
376,232,29238,1,0
432,168,29400,1,8
296,72,29725,1,0
224,24,29887,1,0
152,72,30049,1,8
232,224,30373,6,0,B|232:312,1,70,2|0
256,240,30698,2,0,B|320:272,1,70,8|0
280,224,31022,2,0,B|360:224,1,70,2|0
304,200,31346,2,0,B|336:136,1,70,8|8
368,64,31671,5,2
216,128,31995,1,8
64,192,32319,1,0
104,264,32481,1,0
64,192,32644,1,8
168,64,32968,6,0,B|216:56|256:72,1,70,2|0
312,128,33292,2,0,B|280:136|240:128,1,70,8|0
168,200,33617,2,0,B|216:192|256:208,1,70,2|0
312,264,33941,2,0,B|280:272|240:264,1,70,8|0
344,352,34265,5,0
344,352,34427,1,0
424,312,34590,1,8
248,160,34914,1,0
248,160,35076,1,0
168,200,35238,1,8
80,80,35563,5,0
80,80,35725,1,0
152,32,35887,1,8
152,32,36049,1,0
224,80,36211,2,2,B|240:168|168:200,1,140,0|8
96,344,36860,5,2
168,296,37022,1,0
240,344,37184,2,0,B|320:360,1,70
368,296,37508,1,2
440,336,37671,1,0
440,256,37833,2,0,B|472:192,1,70
464,112,38157,6,0,B|432:48,2,70,2|0|2
400,168,38644,1,0
336,224,38806,2,0,B|304:264|272:272,2,70,2|0|0
368,144,39292,1,0
232,96,39454,6,0,B|168:56,1,70,2|0
88,80,39779,1,0
32,144,39941,1,0
112,168,40103,2,0,B|112:240|48:296,1,140,2|0
136,320,40590,1,0
216,240,40752,6,0,B|304:240,1,70,2|0
240,208,41076,2,0,B|304:168,1,70,2|0
256,168,41400,2,0,B|224:88,1,70,2|0
224,152,41725,2,0,B|152:192,1,70,0|0
88,232,42049,6,0,B|88:320|176:336,1,140,2|0
312,304,42698,1,2
384,344,42860,1,0
384,264,43022,2,0,B|464:280|464:368,1,140,0|2
384,344,43508,2,0,B|352:376|312:384,2,70,0|2|0
312,304,43995,1,2
312,304,44157,2,0,B|264:320|248:360,1,70
168,208,44644,5,0
184,128,44806,1,0
264,104,44968,1,2
264,104,45049,1,0
264,104,45130,1,0
248,184,45292,2,0,B|312:208,1,70
376,272,45617,1,2
376,288,45698,1,0
376,304,45779,2,0,B|448:304,2,70
280,304,46265,1,0
208,256,46427,1,0
168,328,46590,2,0,B|104:296|120:200,1,140,0|2
256,24,47238,6,0,B|288:96|256:160,1,140,0|8
48,312,47887,2,0,B|24:272|56:216,1,70
88,176,48211,2,0,B|112:208|88:256,1,70,8|0
160,296,48535,6,0,B|232:336,1,70
344,240,48860,2,0,B|384:160,1,70,8|0
288,80,49184,2,0,B|208:48,1,70
144,144,49508,2,0,B|96:216,1,70,8|0
184,232,49833,6,0,B|232:160|312:152,1,140,0|8
288,272,50319,1,0
360,232,50481,1,0
360,232,50563,1,0
360,232,50644,1,0
432,272,50806,2,0,B|464:304,2,35,8|0|0
432,192,51130,5,2
80,192,51454,1,0
432,192,51779,1,2
80,192,52103,1,2
80,192,52427,6,0,B|96:120|168:80,1,140,2|8
240,232,53076,1,0
240,232,53157,1,0
240,232,53238,1,0
296,296,53400,2,0,B|312:256|328:216,1,70,8|0
336,152,53725,5,2
416,120,53887,1,0
400,200,54049,1,8
328,352,54373,2,0,B|264:296,1,70,2|0
372,295,54698,2,0,B|308:375,1,70,8|0
248,352,55022,6,0,B|216:328|168:384|136:320,1,105,2|0
112,312,55346,1,8
72,240,55508,1,0
72,152,55671,2,0,B|128:160|152:224,1,105,2|0
168,256,55995,2,0,B|200:280|248:264,1,70,8|0
240,184,56319,6,0,B|240:128,3,35,2|2|2|2
280,152,56644,2,0,B|280:208,3,35
280,232,56968,2,0,B|240:264|248:288|280:304|320:280|320:248|272:312,1,140
256,192,66698,12,0,67995
112,264,68644,6,0,B|104:216|120:200,1,56,2|0
256,208,68968,2,0,B|264:256|248:272,1,56,8|0
184,264,69292,2,0,B|184:152,1,112,0|8
320,152,69941,2,0,B|320:272,1,112,0|8
456,264,70590,5,0
456,264,70914,2,0,B|456:200|456:184,1,56,8|0
456,144,71238,2,0,B|400:120|328:144,1,112,0|8
232,32,71887,2,0,B|168:32,1,56
232,104,72211,2,0,B|296:104,1,56,8|0
344,64,72535,2,0,B|360:128|344:176,1,112,0|8
128,312,73184,6,0,B|144:328|184:344,1,56
248,344,73508,1,8
280,280,73671,1,0
344,312,73833,2,0,B|400:352,1,56
400,264,74157,2,0,B|344:224,1,56,8|0
288,232,74481,5,0
224,64,74806,1,8
160,232,75130,1,0
312,136,75454,1,8
136,136,75779,1,0
136,136,76103,1,8
136,136,76265,6,0,B|88:224|144:296,1,168,0|8
280,296,77076,1,0
280,296,77725,5,0
312,240,77887,1,0
352,296,78049,1,0
386,238,78211,1,0
416,176,78373,2,0,B|480:208,2,56,4|0|8
296,88,79022,6,0,B|336:32,2,56,0|0|8
256,136,79508,1,0
216,184,79671,6,0,B|176:240,1,56
240,272,79995,2,0,B|240:328,1,56,8|0
304,328,80319,2,0,B|304:264,1,56
360,232,80644,2,0,B|320:176,1,56,8|0
280,136,80968,5,0
280,136,81292,1,8
280,136,81454,2,0,B|192:104|112:136,1,168,0|8
72,264,82265,2,0,B|112:208,1,56,10|0
144,272,82590,2,0,B|184:208,1,56,2|0
216,176,82914,1,8
328,248,83238,1,0
432,160,83563,6,0,B|416:88|368:56,1,112,2|8
248,72,84211,2,0,B|176:72,2,56,2|0|8
296,120,84698,1,0
344,168,84860,5,2
144,240,85184,1,10
296,360,85508,1,0
344,168,85833,1,2
344,168,85995,1,0
256,192,86157,12,0,88427
256,192,88752,6,0,B|256:248|296:304,1,105,2|0
328,296,89076,1,8
328,296,89238,1,0
408,296,89400,2,0,B|400:344|368:368,1,70
328,296,89725,2,0,B|336:256|368:232,1,70,8|0
416,176,90049,5,2
416,176,90130,1,0
416,176,90211,1,0
432,96,90373,1,8
352,120,90535,1,0
296,56,90698,2,0,B|280:16,2,35,2|0|2
240,120,91022,1,8
160,88,91184,1,0
104,152,91346,6,0,B|64:216|120:248|80:304,1,140,2|8
16,248,91833,1,0
24,328,91995,1,0
24,328,92076,1,0
24,328,92157,1,0
96,368,92319,1,8
160,320,92481,1,0
248,320,92644,5,2
248,240,92806,1,0
248,224,92887,1,0
248,208,92968,1,10
248,128,93130,1,0
248,48,93292,1,2
248,48,93617,1,8
248,48,93941,6,0,B|304:48|352:80,1,105,2|0
352,120,94265,2,0,B|352:168,2,35,8|0|0
424,160,94590,2,0,B|392:232,1,70,2|2
312,240,94914,2,0,B|352:304,1,70,8|0
432,296,95238,1,2
432,296,95319,1,0
432,296,95400,1,0
384,368,95563,1,8
384,368,95887,5,0
304,368,96049,1,0
264,296,96211,2,0,B|232:320|224:360,1,70,8|0
304,368,96535,2,0,B|336:328|352:296,1,70,2|0
368,232,96860,2,0,B|352:176|312:160,1,70,8|0
288,240,97184,1,2
288,240,97265,1,0
288,240,97346,1,0
224,184,97508,1,8
208,264,97671,1,0
256,328,97833,1,2
256,312,97914,1,0
256,296,97995,1,0
256,280,98076,1,0
256,264,98157,1,0
256,248,98238,1,0
256,232,98319,1,0
256,216,98400,1,0
256,200,98481,1,8
176,48,98806,5,8
256,80,98968,1,0
192,128,99130,2,0,B|160:168|80:160,1,105,2|0
56,160,99454,1,8
184,272,99779,1,0
120,328,99941,1,0
200,352,100103,2,0,B|264:368|360:352,1,140,8|2
288,192,100752,1,8
328,104,100914,1,0
424,240,101238,1,0
392,320,101400,1,8
448,160,101725,6,0,B|456:96|384:56,1,105,2|0
368,56,102049,1,8
208,104,102373,1,0
256,176,102535,1,0
296,104,102698,2,0,B|352:152|312:248,1,140,8|0
168,320,103346,1,8
168,320,103508,2,0,B|120:248|152:176,1,140
147,187,103995,1,8
88,128,104157,5,0
168,104,104319,1,2
280,232,104644,1,8
248,304,104806,1,0
328,304,104968,2,0,B|400:304,1,70
424,224,105292,2,0,B|400:144,1,70,0|10
320,136,105617,1,2
320,136,105698,1,0
320,136,105779,1,2
248,176,105941,1,8
248,176,106022,1,0
248,176,106103,1,0
176,128,106265,1,0
176,128,106590,1,8
176,128,106914,5,2
64,248,107238,1,8
128,304,107400,1,0
192,256,107563,1,2
208,256,107644,1,0
224,256,107725,1,0
288,200,107887,1,8
336,136,108049,1,0
400,80,108211,5,2
400,96,108292,1,0
400,112,108373,1,0
400,128,108454,1,0
400,144,108535,1,2
400,160,108617,1,0
400,176,108698,1,0
400,192,108779,1,0
400,208,108860,1,2
400,224,108941,1,0
400,240,109022,2,0,B|384:264|416:280|400:312,1,70,0|8
256,192,119887,5,4
360,64,120211,1,8
392,144,120373,1,0
352,312,120698,1,0
384,232,120860,1,8
456,80,121184,1,0
392,24,121346,1,0
344,96,121508,1,8
272,48,121671,1,0
208,104,121833,1,0
208,144,121914,1,0
208,184,121995,1,0
208,224,122076,1,0
208,264,122157,1,8
360,192,122481,5,4
272,48,122806,2,0,B|192:48,1,70,0|8
96,248,123292,2,0,B|96:168,1,70,0|8
264,200,123779,2,0,B|264:264|344:280,1,105
368,264,124103,2,0,B|376:352|296:376,1,140,8|0
224,344,124590,1,8
144,352,124752,1,8
88,288,124914,1,8
80,208,125076,6,0,B|80:96,1,105,2|0
128,48,125400,2,0,B|240:48,1,105,2|0
176,120,125725,2,0,B|312:120,1,105,2|0
336,120,126049,1,2
400,176,126211,1,0
336,232,126373,1,2
320,248,126454,1,0
304,264,126535,1,0
288,280,126617,1,0
272,296,126698,1,2
208,352,126860,1,2
160,288,127022,2,0,B|96:224,1,70,2|0
136,152,127346,2,0,B|192:208,1,70,2|0
272,192,127671,6,0,B|352:192,1,70,4|0
304,48,127995,2,0,B|352:112,1,70
440,32,128319,2,0,B|440:120,1,70
440,184,128644,1,0
480,256,128806,1,0
400,256,128968,1,0
232,248,129292,1,0
168,200,129454,1,0
136,32,129779,2,0,B|200:80,2,70,0|8|0
256,192,148427,12,0,150698
256,96,151022,6,0,B|336:112|376:176,1,140,0|8
224,256,151671,1,0
168,320,151833,1,0
144,240,151995,1,8
224,256,152157,1,0
248,336,152319,2,0,B|328:344|400:312,1,140,0|8
448,160,152968,2,0,B|368:152|296:184,1,140,0|8
168,96,153617,5,0
144,176,153779,1,0
144,176,153941,1,8
224,192,154103,1,0
192,272,154265,1,0
192,272,154346,1,0
192,272,154427,1,0
120,320,154590,1,8
120,320,154914,5,0
192,360,155076,1,0
272,352,155238,2,0,B|312:336|352:304,1,70,8|0
328,232,155563,1,0
368,240,155644,1,0
400,272,155725,2,0,B|416:320|400:360,1,70,0|8
488,192,156211,6,0,B|448:128|368:112,1,140,0|8
216,152,156860,1,0
216,152,156941,1,0
216,152,157022,1,0
136,168,157184,2,0,B|152:208|200:232,1,70,0|0
216,152,157508,6,0,B|192:80|112:56,1,140,0|8
88,224,158157,2,0,B|112:264|152:272,2,70,0|0|0
224,312,158806,6,0,B|304:344|384:304,1,140,0|8
296,256,159292,2,0,B|296:112,1,140
296,32,159779,1,8
368,80,159941,1,0
400,160,160103,2,0,B|384:240|320:272,1,140,0|8
176,184,160752,1,0
104,224,160914,1,0
176,264,161076,1,8
176,184,161238,1,0
120,120,161400,6,0,B|176:80,1,70
240,128,161725,2,0,B|320:128,1,70,8|0
336,48,162049,1,0
400,96,162211,1,0
400,176,162373,1,8
336,232,162536,1,0
248,232,162698,6,0,B|232:264|240:304,1,70
328,296,163022,2,0,B|344:264|336:224,1,70,8|0
160,232,163346,2,0,B|160:320,1,70
416,304,163671,2,0,B|416:216,1,70,8|0
416,152,163995,2,0,B|344:64|224:64,2,210,0|0|0
248,192,165292,6,0,B|208:256,1,70,0|8
128,232,165617,2,0,B|144:312,1,70
224,328,165941,2,0,B|248:352,2,35
296,288,166265,2,0,B|344:208,1,70,8|0
368,144,166590,5,2
368,144,167238,1,2
368,144,167887,1,2
211,83,168211,1,2
136,232,168536,1,8
296,296,168860,1,2
296,296,169022,1,0
256,192,169184,12,0,171454
120,192,171779,6,0,B|144:144|200:112,1,105,2|0
232,112,172103,2,0,B|304:112,1,70,8|0
296,192,172427,1,2
368,232,172590,1,0
328,304,172752,1,8
400,344,172914,1,2
472,296,173076,5,0
472,296,173157,1,0
472,296,173238,1,0
456,216,173400,1,8
472,136,173563,1,0
440,56,173725,1,2
440,56,173806,1,0
440,56,173887,1,0
376,112,174049,2,0,B|344:144|304:144,1,70,8|0
312,56,174373,2,0,B|240:72|184:128,1,140,2|8
128,176,174860,5,0
104,256,175022,1,2
104,256,175103,1,0
104,256,175184,1,0
184,288,175346,1,8
256,240,175508,1,0
256,328,175671,5,2
256,240,175833,1,0
256,224,175914,1,0
256,208,175995,1,10
256,128,176157,1,0
256,48,176319,1,2
256,48,176644,1,8
256,48,176968,6,0,B|208:48|176:16,1,70
160,112,177292,2,0,B|120:144|88:144,1,70,8|0
24,176,177617,2,0,B|24:216|56:264,1,70
128,256,177941,2,0,B|152:296|152:336,1,70,8|0
208,344,178265,6,0,B|248:336|288:344,1,70
280,256,178590,2,0,B|240:264|200:256,1,70,8|0
160,192,178914,1,0
192,112,179076,1,0
272,136,179238,1,0
272,136,179319,1,0
272,136,179400,1,0
352,112,179563,5,2
352,112,179887,1,8
464,232,180211,1,2
464,232,180292,1,0
464,232,180373,1,0
464,152,180536,1,8
464,232,180698,1,0
384,192,180860,5,2
368,192,180941,1,0
352,192,181022,1,0
336,192,181103,1,0
320,192,181184,1,0
304,192,181265,1,0
288,192,181346,1,0
272,192,181427,1,0
256,192,181508,1,8
88,192,181833,5,8
112,272,181995,1,0
184,320,182157,2,0,B|240:312|296:336,1,105,2|0
328,344,182481,1,8
456,240,182806,1,0
440,160,182968,1,0
408,80,183130,2,0,B|336:72|264:80,1,140,8|0
136,192,183779,1,8
96,264,183941,1,0
168,112,184265,1,2
136,192,184427,1,8
96,264,184590,1,0
56,344,184752,6,0,B|144:368|216:344,1,140,0|8
360,352,185400,1,0
344,272,185563,1,0
424,296,185725,2,0,B|432:224|384:160,1,140,8|0
272,288,186373,1,8
272,288,186536,2,0,B|227:228|235:156,1,140
235,156,187022,1,10
192,88,187184,6,0,B|152:120|144:160,1,70
192,304,187671,1,8
224,224,187833,1,0
272,288,187995,2,0,B|272:328|248:360,1,70
336,352,188319,2,0,B|344:304|368:272,1,70,8|0
424,336,188644,5,2
424,336,188725,1,0
424,336,188806,1,2
432,256,188968,1,8
432,256,189049,1,0
432,256,189130,1,0
416,176,189292,1,0
416,176,189617,1,8
416,176,189941,5,2
272,96,190265,1,0
208,152,190427,1,0
288,184,190590,1,2
288,200,190671,1,0
288,216,190752,1,0
288,296,190914,1,0
288,296,191076,1,0
208,296,191238,5,2
192,288,191319,1,0
176,280,191400,1,0
160,272,191481,1,0
144,264,191563,1,2
128,256,191644,1,0
112,248,191725,1,0
96,240,191806,1,0
80,232,191887,1,2
64,224,191968,1,0
48,216,192049,2,0,B|24:192|48:160|8:144,1,70,0|8
152,40,192536,1,4
