osu file format v7

[General]
AudioFilename: CAMELLIA! ~Dangerous Camellia Vacation~.mp3
AudioLeadIn: 0
PreviewTime: 282
Countdown: 0
SampleSet: Normal
StackLeniency: 0.4
Mode: 0
LetterboxInBreaks: 0

[Editor]
Bookmarks: 22324,32990,43657,54324,67657,78323,88990,96990,107657,117990
DistanceSpacing: 1.20000004768372
BeatDivisor: 4
GridSize: 32

[Metadata]
Title:CAMELLIA! ~Dangerous Camellia Vacation~
Artist:IOSYS
Creator:DJPop
Version:Normal
Source:Princess Party Camellia
Tags:Circus

[Difficulty]
HPDrainRate:2
CircleSize:4
OverallDifficulty:4
SliderMultiplier:1.28
SliderTickRate:2

[Events]
//Background and Video events
0,0,"CAMELLIA! ~Dangerous Camellia Vacation~.png"
Video,0,"CAMELLIA! ~Dangerous Camellia Vacation~.avi"
//Break Periods
//Storyboard Layer 0 (Background)
//Storyboard Layer 1 (Fail)
//Storyboard Layer 2 (Pass)
//Storyboard Layer 3 (Foreground)
//Storyboard Sound Samples
//Background Colour Transformations
3,100,0,0,0

[TimingPoints]
19575,333.333333333333,4,1,1,80,1,0
22324,333.333333333333,4,1,1,80,1,0
67657,-100,4,1,1,80,0,1
96323,-100,4,1,1,80,0,0

[Colours]
Combo1 : 0,255,0
Combo2 : 0,255,255
Combo3 : 255,0,255
Combo4 : 255,255,0

[HitObjects]
256,192,19616,12,4,22324
256,192,22990,5,2
256,192,23324,1,2
128,192,23657,2,0,L|104:192|88:208|72:176|56:192|32:192,3,128,0|2|0|2
33,192,24990,5,4
256,192,25657,1,2
256,192,25990,1,2
384,192,26323,2,0,L|408:192|424:176|440:208|456:192|480:192,3,128,0|2|0|2
478,192,27657,5,4
256,192,28323,1,2
256,192,28657,1,2
224,64,28990,2,0,L|224:40|232:40|232:32|280:32|280:40|288:40|288:64,3,128,0|2|0|2
256,192,30324,5,4
256,192,30990,1,2
256,192,31323,1,2
288,352,31657,2,0,C|224:352,2,64,12|8|8
288,352,32324,1,8
32,352,32990,6,0,C|32:224,1,128,4|0
32,96,33657,1,2
32,96,33990,1,2
160,32,34324,5,0
160,32,34657,2,0,C|160:160,1,128,2|0
160,288,35324,1,2
288,352,35657,5,0
416,352,35990,1,2
480,248,36323,2,0,C|352:248,1,128
352,136,36990,6,2,C|480:136,3,128,2|2|2|2
416,32,38324,5,4
288,32,38657,1,2
160,32,38990,2,0,C|32:32,1,128
72,152,39657,5,0
200,136,39990,2,0,B|224:152|242:192|224:232|200:248|200:248,1,128
72,232,40657,1,2
32,352,40990,6,0,C|160:352,1,128
288,352,41657,1,2
416,352,41990,1,2
256,192,42990,5,8
256,192,43324,1,8
256,192,43490,1,8
256,192,43657,6,0,C|256:64,2,128,4|0|2
256,320,44657,1,2
128,352,44990,6,0,B|128:256|193:256|193:256,1,128,0|2
320,256,45657,2,0,B|384:256|384:352|384:352,1,128,0|2
480,256,46323,5,0
448,128,46657,2,0,C|496:80,2,64,2|2|0
320,96,47323,1,0
192,96,47657,6,0,L|192:80|176:80|176:64|160:64|160:48|144:48|144:32|128:32,1,128,2|0
32,128,48323,2,0,L|32:144|48:144|48:160|64:160|64:176|80:176|80:192|96:192,1,128,0|2
32,320,48990,5,4
160,288,49323,2,0,C|160:352,2,64,2|2|0
288,320,49990,1,2
416,352,50323,6,0,B|448:360|495:346|488:304|480:272|480:272,1,128,0|2
352,240,50990,2,0,B|344:208|337:165|384:152|416:160|416:160,1,128
480,32,51657,5,2
352,32,51990,1,2
224,32,52323,2,0,C|160:32,2,64,2|2|0
128,128,52990,6,0,B|112:168|80:178|48:168|32:128|32:128,2,128,2|2|8
96,256,53990,1,8
96,256,54157,1,8
96,256,54323,6,0,B|144:352|256:378|368:352|416:256|416:256,1,384,4|0
288,224,55657,6,0,C|384:192,2,96
224,224,56323,2,0,C|128:192,2,96
256,160,56990,6,0,L|256:129|279:120|233:104|279:88|233:72|256:63|256:32,2,256,0|0|2
144,96,58657,5,2
64,192,58990,1,2
144,288,59323,1,2
256,352,59657,6,0,C|384:352,1,128,4|0
480,256,60323,2,0,C|480:64,1,192
352,32,61157,5,0
256,112,61490,1,0
160,32,61823,1,0
64,192,62323,6,0,C|64:256,1,64,2|2
192,192,62823,2,0,C|192:256,1,64,2|2
320,192,63323,2,0,C|320:256,1,64,2|2
448,192,63823,5,2
448,192,64157,2,0,C|448:256,4,64,2|2|2|2|6
320,352,65323,5,0
192,352,65657,1,0
256,240,65990,1,0
256,240,66157,2,0,C|256:112,2,128,6|6|6
32,352,67657,6,0,C|32:288,1,64,4|0
32,160,68157,2,0,C|32:224,1,64
32,32,68823,6,0,C|160:32,1,128,4|0
288,32,69490,2,0,C|224:32,1,64
416,32,70157,6,0,C|416:160,1,128,4|0
416,224,70657,2,0,C|416:352,2,128
352,192,71490,1,2
224,224,71823,5,2
224,224,71990,1,2
224,352,72323,1,2
352,352,72657,1,2
480,352,72990,6,0,C|480:288,1,64,4|0
480,160,73490,2,0,C|480:224,1,64
480,32,74157,6,0,C|352:32,1,128,4|0
224,32,74823,2,0,C|288:32,1,64
96,32,75490,6,0,C|96:160,1,128,4|0
96,224,75990,2,0,C|96:352,2,128
160,192,76823,1,2
288,224,77157,5,2
288,224,77323,1,2
288,352,77657,1,2
160,352,77990,1,2
32,352,78323,6,0,C|32:288,1,64,4|0
32,160,78823,2,0,C|32:96,1,64
160,96,79323,2,0,L|224:96,1,64,2|4
336,32,79823,2,0,C|464:32,2,128,0|0|2
320,160,80823,6,0,B|352:112|400:94|448:112|480:160|480:160,1,192,4|0
400,264,81657,1,0
272,264,81990,2,0,C|208:264,1,64,0|2
96,352,82489,5,2
96,352,82656,1,2
224,352,82989,1,2
352,352,83323,1,2
480,352,83657,6,0,C|480:288,1,64,4|0
480,160,84157,2,0,C|480:96,1,64
352,96,84657,2,0,L|288:96,1,64,2|4
176,32,85157,2,0,C|48:32,2,128,0|0|2
160,160,86157,6,0,B|128:208|128:256|128:320|176:368|256:382|336:368|384:320|384:256|384:208|352:160|352:160,1,512,4|2
256,96,87823,2,0,L|256:32,2,64,2|2|2
256,224,88490,1,2
448,192,88990,6,0,B|480:168|496:152|508:112|496:72|480:56|448:32|448:32,2,192,4|0|0
448,256,90157,2,0,B|472:264|488:280|492:304|488:328|472:344|448:352|448:352,3,128,4|0|0|0
320,352,91490,6,0,B|208:352|166:256|208:160|320:160|320:160,1,320,4|0
384,160,92490,2,0,C|384:32,1,128,0|4
192,32,93323,5,0
64,64,93657,1,0
32,192,93990,1,0
160,208,94323,6,0,L|160:336,3,128,4|0|0|0
160,336,95490,1,2
32,352,95823,1,2
32,352,95990,1,2
384,64,96990,5,4
128,64,97656,1,2
128,64,97990,1,2
256,64,98323,2,0,C|256:192,3,128,0|2|0|2
128,192,99656,5,4
384,192,100323,1,2
384,192,100656,1,2
256,192,100989,2,0,C|256:320,3,128,0|2|0|2
384,320,102323,5,4
384,64,102989,1,2
384,64,103323,1,2
384,192,103656,2,0,C|256:192,3,128,0|2|0|2
256,64,104990,5,4
256,320,105656,1,2
256,320,105989,1,2
256,192,106323,2,0,C|128:192,3,128,0|2|0|2
128,320,107657,6,0,L|64:320,2,64,4|0|0
128,192,108323,1,2
128,192,108657,1,2
128,64,108990,6,0,L|256:64,1,128,0|2
256,192,109657,2,0,L|256:320,1,128,0|2
384,320,110323,6,0,L|448:320,2,64,4|0|0
384,192,110989,1,2
384,192,111323,1,2
384,64,111656,6,0,L|256:64,1,128,0|2
256,192,112323,2,0,L|256:320,1,128,0|2
128,288,112990,6,0,L|128:352,2,64,4|0|0
256,192,113656,1,2
256,192,113990,1,2
128,96,114323,6,0,L|128:88|136:88|136:80|144:80|144:72|152:72|152:64|160:64|160:56|168:56|168:48|176:48|176:40|184:40|184:32|192:32,1,128,0|2
320,32,114990,2,0,L|328:32|328:40|336:40|336:48|344:48|344:56|352:56|352:64|360:64|360:72|368:72|368:80|376:80|376:88|384:88|384:96,1,128,0|2
384,288,115657,6,0,L|384:352,2,64,4|0|0
256,192,116323,1,2
256,192,116657,1,2
128,288,116990,6,0,L|128:352,2,64,12|8|8
256,192,117657,1,8
256,32,117990,1,4
