osu file format v7

[General]
AudioFilename: CAMELLIA! ~Dangerous Camellia Vacation~.mp3
AudioLeadIn: 0
PreviewTime: 282
Countdown: 0
SampleSet: Soft
StackLeniency: 0.4
Mode: 0
LetterboxInBreaks: 0

[Editor]
Bookmarks: 22324,32990,43657,54324,67657,78323,88990,96990,107657,117990
DistanceSpacing: 1
BeatDivisor: 4
GridSize: 32

[Metadata]
Title:CAMELLIA! ~Dangerous Camellia Vacation~
Artist:IOSYS
Creator:DJPop
Version:Insane
Source:Princess Party Camellia
Tags:Circus

[Difficulty]
HPDrainRate:5
CircleSize:5
OverallDifficulty:8
SliderMultiplier:1.92
SliderTickRate:2

[Events]
//Background and Video events
0,0,"CAMELLIA! ~Dangerous Camellia Vacation~.png"
Video,0,"CAMELLIA! ~Dangerous Camellia Vacation~.avi"
//Break Periods
//Storyboard Layer 0 (Background)
//Storyboard Layer 1 (Fail)
//Storyboard Layer 2 (Pass)
//Storyboard Layer 3 (Foreground)
//Storyboard Sound Samples
//Background Colour Transformations
3,100,0,0,0

[TimingPoints]
19575,333.333333333333,4,2,1,0,1,0
22240,-100,4,1,1,80,0,0
22324,333.333333333333,4,1,1,80,1,0
66657,-400,4,1,1,80,0,0
67490,-400,4,2,1,0,0,0
67573,-100,4,1,1,80,0,0
67657,-100,4,1,1,80,0,1
88323,-200,4,1,1,80,0,1
88823,-200,4,2,1,0,0,1
88907,-100,4,1,1,80,0,1
96240,-100,4,1,1,50,0,0
96907,-100,4,1,1,80,0,0

[Colours]
Combo1 : 0,255,0
Combo2 : 0,255,255
Combo3 : 255,0,255
Combo4 : 255,255,0

[HitObjects]
256,192,19616,12,0,22158
256,192,22324,5,4
256,192,22407,1,0
256,192,22490,1,0
256,192,22574,1,0
256,192,22657,1,0
168,64,22990,2,0,B|200:32|256:15|312:32|344:64|344:64,1,192
480,224,23657,5,0
416,256,23824,1,0
352,288,23990,1,0
288,320,24157,1,0
224,352,24324,1,0
32,224,24657,1,0
256,192,24990,5,4
256,192,25074,1,0
256,192,25157,1,0
256,192,25240,1,0
256,192,25324,1,0
344,64,25657,2,0,B|312:32|256:15|200:32|168:64|168:64,1,192
32,224,26324,5,0
96,256,26490,1,0
160,288,26657,1,0
224,320,26824,1,0
288,352,26990,2,0,C|384:352,1,96
448,352,27324,2,0,B|474:348|480:320|480:320|480:320,3,48
448,304,27657,5,4
448,288,27740,1,0
448,272,27824,1,0
448,256,27907,1,0
448,240,27990,1,0
448,32,28324,2,0,B|480:48|496:72|500:112|496:152|480:176|448:192|448:192,1,192
256,192,28990,5,0
160,352,29324,1,0
256,192,29657,1,0
160,32,29990,1,0
32,160,30324,5,4
32,176,30407,1,0
32,192,30490,1,0
32,208,30574,1,0
32,224,30657,1,0
96,224,30824,1,0
96,160,30990,1,0
160,192,31157,1,0
176,192,31240,1,0
192,192,31324,1,0
256,192,31490,1,0
272,192,31574,1,0
288,192,31657,5,12
320,128,31824,1,8
352,64,31990,1,8
352,320,32324,1,8
416,32,32990,5,4
432,40,33074,1,0
448,48,33157,1,0
456,64,33240,1,0
464,80,33324,1,0
456,96,33407,1,0
448,112,33490,1,0
432,120,33574,1,0
416,128,33657,1,2
448,192,33824,1,2
464,192,33907,1,2
480,192,33990,1,2
352,352,34324,5,0
320,288,34490,1,0
304,288,34574,1,0
288,288,34657,1,2
256,352,34824,1,2
240,352,34907,1,2
224,352,34990,1,0
192,288,35157,1,0
176,288,35240,1,0
160,288,35324,1,2
32,160,35657,5,0
40,224,35824,1,0
64,232,35907,1,0
88,224,35990,1,2
96,160,36157,1,2
64,96,36324,1,0
64,80,36407,1,0
64,64,36490,1,0
64,48,36574,1,0
64,32,36657,1,0
256,48,36990,5,2
272,32,37074,1,2
288,48,37157,1,2
304,32,37240,1,2
320,48,37324,1,2
336,112,37490,1,2
320,128,37574,1,2
304,112,37657,1,2
288,128,37740,1,2
272,112,37824,1,2
256,128,37907,1,2
240,112,37990,1,2
96,224,38324,5,4
160,224,38490,1,0
128,288,38657,1,2
192,288,38824,1,2
160,352,38990,1,0
224,352,39157,1,0
240,352,39240,1,0
256,352,39324,1,0
384,192,39657,5,0
376,208,39740,1,0
368,224,39824,1,0
360,240,39907,1,0
352,256,39990,1,0
384,320,40157,1,0
400,328,40240,1,0
416,336,40323,2,0,C|464:288,1,64
480,256,40546,2,0,C|432:208,1,64
464,32,40990,5,0
400,32,41157,1,0
368,32,41240,1,0
336,32,41324,1,0
304,32,41407,1,0
272,32,41490,1,0
240,32,41574,1,0
208,32,41657,1,2
176,32,41740,1,2
144,32,41824,1,2
112,32,41907,1,2
80,32,41990,1,2
48,32,42074,1,2
96,160,42324,5,2
112,176,42407,1,2
176,176,42574,1,2
192,160,42657,1,2
208,144,42740,2,0,C|280:144,1,72,2|2
304,160,42990,1,10
320,168,43074,1,2
336,176,43157,1,2
352,184,43240,1,2
368,192,43324,1,10
432,224,43490,1,8
432,288,43657,5,4
368,320,43824,1,0
360,336,43907,1,0
352,352,43990,1,0
288,320,44157,1,0
224,352,44324,1,2
208,344,44407,1,2
192,336,44490,1,0
176,328,44574,1,0
160,320,44657,1,0
32,192,44990,5,0
32,192,45074,1,0
96,160,45240,1,0
96,160,45324,1,2
32,128,45490,1,2
96,96,45657,1,0
32,64,45824,1,0
96,32,45990,1,2
288,64,46324,5,0
296,80,46407,1,0
288,96,46490,1,0
296,112,46574,1,0
288,128,46657,1,2
256,192,46824,1,2
224,256,46990,1,0
216,272,47074,1,0
224,288,47157,1,0
216,304,47240,1,0
224,320,47324,1,0
416,352,47657,5,2
440,352,47740,1,2
440,328,47824,1,2
464,328,47907,1,2
464,304,47990,1,2
432,240,48157,1,2
408,240,48240,1,2
408,264,48324,1,2
384,264,48407,1,2
384,288,48490,1,2
360,288,48574,1,2
360,312,48657,1,2
328,120,48990,5,4
320,104,49074,1,0
312,88,49157,1,0
304,72,49240,1,0
288,64,49324,1,2
272,56,49407,1,2
256,48,49490,1,2
240,56,49574,1,2
224,64,49657,1,0
208,72,49740,1,0
200,88,49824,1,0
192,104,49907,1,0
184,120,49990,1,0
256,304,50324,5,0
256,240,50490,1,0
256,224,50574,1,0
256,208,50657,2,0,C|256:144,2,64
208,208,50990,1,0
304,208,51157,1,0
256,144,51324,1,0
96,32,51657,5,2
32,64,51824,1,2
96,96,51990,1,2
32,128,52157,1,2
48,144,52240,1,2
64,160,52324,1,2
64,176,52407,1,2
80,192,52490,1,2
96,208,52574,1,2
288,256,52990,5,2
224,288,53157,1,2
208,296,53240,1,2
192,304,53324,1,2
240,352,53490,1,2
256,344,53574,1,2
272,336,53657,1,10
288,328,53740,1,2
304,320,53824,1,2
360,264,53990,1,10
360,264,54157,1,8
344,192,54323,6,0,B|312:160|256:143|200:160|168:192|168:192,3,192,4|0|0|0
32,32,55657,5,0
160,96,55907,1,0
288,32,56157,1,0
224,32,56323,1,0
352,96,56573,1,0
480,32,56823,1,0
480,96,56990,6,0,B|485:224|368:224|368:224,1,192
320,176,57490,1,0
272,224,57657,2,0,B|277:352|160:352|160:352,1,192
32,192,58323,5,2
256,32,58657,1,2
480,192,58990,1,2
256,352,59323,1,2
96,192,59657,6,0,B|96:59|224:96|224:96,1,192,4|0
416,32,60323,1,0
480,64,60490,1,0
416,96,60657,1,0
352,64,60823,1,0
352,256,61157,5,0
160,256,61490,1,0
160,64,61823,2,0,C|352:64,1,192
416,96,62323,5,2
480,128,62490,1,2
384,352,62823,1,2
320,320,62990,1,2
96,352,63323,1,2
160,320,63490,1,2
32,128,63823,5,2
64,64,63990,1,0
128,32,64157,1,2
192,64,64323,1,2
224,128,64490,1,2
288,160,64657,1,2
352,128,64823,1,6
416,352,65157,5,0
384,288,65323,1,0
320,288,65490,1,0
288,352,65657,1,0
224,352,65823,1,0
208,336,65907,1,0
192,320,65990,1,0
176,304,66073,1,0
160,288,66157,1,6
256,64,66490,5,6
256,288,66823,2,0,C|256:192,1,96,6|0
256,192,67657,5,4
320,192,67823,2,0,C|416:192,1,96,0|8
480,160,68157,1,0
416,128,68323,2,0,C|320:128,1,96
256,96,68657,1,10
256,32,68823,1,4
32,96,69157,6,0,C|128:96,1,96,0|8
192,128,69490,1,0
192,192,69657,1,0
128,224,69823,2,0,C|32:224,1,96,2|8
32,160,70157,1,4
160,352,70490,5,0
208,304,70657,1,8
256,352,70823,1,0
272,352,70907,1,0
288,352,70990,1,0
336,304,71157,1,0
384,352,71323,1,8
448,352,71490,1,2
480,128,71823,5,2
416,96,71990,1,2
352,64,72157,1,0
288,32,72323,1,2
256,256,72657,1,2
224,32,72990,5,4
160,32,73157,2,0,C|160:128,1,96,0|8
96,64,73490,1,0
32,32,73657,2,0,C|32:128,1,96
96,160,73990,1,10
96,224,74157,1,4
304,336,74490,6,0,C|304:240,1,96,0|8
240,288,74823,1,0
240,352,74990,1,0
176,336,75157,2,0,C|176:240,1,96,2|8
240,224,75490,1,4
480,192,75823,5,0
480,192,75907,1,0
480,192,75990,1,8
400,192,76157,1,0
400,192,76240,1,0
400,192,76323,1,0
440,256,76490,1,0
480,320,76657,1,8
400,320,76823,1,2
256,128,77157,5,2
320,96,77323,1,2
384,64,77490,1,0
448,32,77657,1,2
256,192,77990,1,2
64,32,78323,5,4
128,64,78490,2,0,B|117:120|64:128|64:128,1,96,0|8
32,192,78823,1,0
64,256,78990,2,0,B|119:266|128:320|128:320,1,96
64,352,79323,1,10
64,352,79489,1,4
288,288,79823,6,0,B|296:340|352:352|352:352,1,96,0|8
384,288,80156,1,0
384,288,80323,1,0
416,224,80490,2,0,B|471:234|480:288|480:288,1,96,2|8
480,287,80823,1,4
416,64,81156,5,0
480,32,81323,1,8
480,96,81489,1,0
480,96,81573,1,0
480,96,81656,1,0
416,128,81823,1,0
352,96,81989,1,8
352,32,82156,1,2
128,32,82489,5,2
96,96,82656,1,2
64,160,82823,1,0
32,224,82989,1,2
224,352,83323,1,2
160,128,83656,5,4
224,160,83823,2,0,C|320:208,1,96,0|8
368,232,84156,1,0
432,264,84323,2,0,B|459:289|464:320|448:352|448:352,1,96
384,320,84656,1,10
320,352,84823,1,4
96,352,85157,6,0,B|41:343|32:288|32:288,1,96,0|8
32,224,85489,1,0
96,192,85656,1,0
96,128,85823,1,2
32,96,85990,1,8
32,32,86156,1,4
256,32,86489,5,0
288,96,86656,1,8
320,160,86823,1,0
328,176,86907,1,0
320,192,86989,1,0
288,256,87156,1,0
280,272,87240,1,0
272,288,87323,1,8
264,304,87407,1,0
256,320,87490,1,2
480,240,87823,5,2
432,192,87989,1,2
480,144,88156,1,2
256,192,88490,2,0,C|160:192,1,96,2|0
160,128,88990,6,0,B|136:80|92:75|40:80|24:128|24:160|24:160,1,192,4|8
25,224,89490,2,0,B|24:224|24:256|40:304|92:309|136:304|160:256,1,192
96,224,89990,1,8
96,160,90157,1,4
320,224,90490,6,0,C|416:224,1,96,0|8
320,160,90823,2,0,C|416:160,1,96
480,128,91157,1,0
480,192,91323,1,8
480,256,91490,1,4
256,352,91823,5,0
256,352,91990,2,0,C|256:256,1,96,8|0
256,192,92323,1,0
256,128,92490,2,0,C|256:32,1,96,0|8
256,32,92823,1,4
32,32,93157,5,0
96,32,93323,2,0,C|96:128,1,96,8|0
32,128,93657,2,0,C|32:224,1,96
96,224,93990,1,8
96,288,94157,1,0
144,336,94323,5,4
176,272,94490,1,0
240,304,94657,1,8
272,240,94823,1,0
336,272,94990,1,0
368,208,95157,1,0
432,240,95323,1,8
464,176,95490,1,2
256,32,95823,1,2
256,32,95990,1,2
256,352,96490,5,0
256,352,96657,1,0
256,352,96823,1,0
256,256,96990,5,4
256,240,97073,1,0
256,224,97156,1,0
256,208,97240,1,0
256,192,97323,1,0
168,64,97656,2,0,B|200:32|256:15|312:32|344:64|344:64,1,192
480,256,98323,5,0
448,192,98490,1,0
416,256,98656,1,0
384,320,98823,1,0
352,256,98990,1,0
160,256,99323,1,0
256,128,99656,5,4
256,144,99740,1,0
256,160,99823,1,0
256,176,99906,1,0
256,192,99990,1,0
344,320,100323,2,0,B|312:352|256:369|200:352|168:320|168:320,1,192
32,128,100990,5,0
64,192,101156,1,0
96,128,101323,1,0
128,64,101490,1,0
160,128,101657,1,0
176,128,101740,1,0
240,128,101907,1,0
256,128,101990,2,0,C|296:88,3,48
320,128,102323,5,4
336,144,102406,1,0
352,160,102490,1,0
368,176,102573,1,0
384,192,102656,1,0
480,32,102990,2,0,C|480:224,1,192
256,352,103656,5,0
256,128,103990,1,0
256,192,104157,1,0
256,256,104323,1,0
256,32,104656,1,0
192,256,104990,5,4
176,240,105073,1,0
160,224,105156,1,0
144,208,105240,1,0
128,192,105323,1,0
32,352,105657,2,0,C|32:160,1,192
256,32,106323,5,0
256,96,106490,1,0
256,160,106656,1,0
256,352,106990,2,0,C|256:256,1,96
320,224,107323,2,0,C|360:184,3,48
384,192,107657,5,4
400,192,107740,1,0
416,192,107823,1,0
432,192,107907,1,0
448,192,107990,1,0
256,32,108323,2,0,B|208:64|190:112|208:160|256:192|256:192,1,192
416,352,108990,5,0
480,320,109157,1,0
448,256,109323,1,0
384,288,109490,1,0
416,352,109657,1,0
416,32,109990,1,0
128,192,110323,5,4
112,192,110407,1,0
96,192,110490,1,0
80,192,110573,1,0
64,192,110657,1,0
256,352,110990,2,0,B|304:320|322:271|304:224|256:192|256:192,1,192
96,32,111657,5,0
32,64,111823,1,0
64,128,111990,1,0
128,96,112157,1,0
96,32,112323,1,0
96,32,112407,1,0
160,32,112573,1,0
160,32,112656,2,0,C|200:72,3,48
224,32,112990,5,4
240,32,113073,1,0
256,32,113157,1,0
272,32,113240,1,0
288,32,113323,1,0
256,288,113657,2,0,C|256:96,1,192
480,192,114323,5,0
256,192,114657,1,0
32,192,114990,1,0
256,192,115323,1,0
96,352,115657,5,4
112,328,115740,1,0
128,304,115823,1,0
144,328,115907,1,0
160,352,115990,1,0
208,304,116157,1,0
256,352,116323,1,0
304,304,116490,1,0
312,328,116573,1,0
320,352,116657,1,0
384,352,116823,1,0
392,328,116907,1,0
400,304,116990,5,12
432,240,117157,1,8
400,176,117323,1,8
112,176,117657,1,8
256,32,117990,1,4
