osu file format v7

[General]
AudioFilename: CAMELLIA! ~Dangerous Camellia Vacation~.mp3
AudioLeadIn: 0
PreviewTime: 282
Countdown: 0
SampleSet: Normal
StackLeniency: 0.4
Mode: 0
LetterboxInBreaks: 0

[Editor]
Bookmarks: 22324,32990,43657,54324,67657,78323,88990,96990,107657,117990
DistanceSpacing: 1
BeatDivisor: 4
GridSize: 32

[Metadata]
Title:CAMELLIA! ~Dangerous Camellia Vacation~
Artist:IOSYS
Creator:DJPop
Version:Easy
Source:Princess Party Camellia
Tags:Circus

[Difficulty]
HPDrainRate:1
CircleSize:3
OverallDifficulty:2
SliderMultiplier:0.64
SliderTickRate:2

[Events]
//Background and Video events
0,0,"CAMELLIA! ~Dangerous Camellia Vacation~.png"
Video,0,"CAMELLIA! ~Dangerous Camellia Vacation~.avi"
//Break Periods
//Storyboard Layer 0 (Background)
//Storyboard Layer 1 (Fail)
//Storyboard Layer 2 (Pass)
//Storyboard Layer 3 (Foreground)
//Storyboard Sound Samples
//Background Colour Transformations
3,100,0,0,0

[TimingPoints]
19575,333.333333333333,4,1,1,80,1,0
22324,333.333333333333,4,1,1,80,1,0
31823,-100,4,1,2,80,0,0
32073,-100,4,1,1,80,0,0
67657,-100,4,1,1,80,0,1
95657,-100,4,1,2,80,0,1
95740,-100,4,1,1,80,0,1
96323,-100,4,1,1,80,0,0
117157,-100,4,1,2,80,0,0
117407,-100,4,1,1,80,0,0

[Colours]
Combo1 : 0,255,0
Combo2 : 0,255,255
Combo3 : 255,0,255
Combo4 : 255,255,0

[HitObjects]
256,32,22324,5,4
256,160,22990,1,2
128,192,23657,2,0,C|128:320,1,128
256,352,24990,5,4
256,224,25657,1,2
384,192,26323,2,0,C|384:64,1,128
256,32,27657,5,4
128,64,28323,1,2
128,192,28990,2,0,C|256:192,1,128
384,192,30324,5,4
384,320,30990,1,2
256,352,31657,2,0,C|128:352,1,128,12|8
32,256,32990,6,0,C|32:128,1,128,4|2
64,64,33990,1,2
128,32,34323,2,0,C|256:32,1,128
320,64,35324,1,2
352,128,35657,6,0,L|352:256,1,128
320,320,36657,1,0
256,352,36990,2,2,C|64:352,1,192,2|2
32,288,38324,5,4
64,224,38657,1,2
96,160,38990,2,0,L|224:160,1,128
256,224,39990,1,0
288,160,40323,2,0,C|416:160,1,128,2|0
448,224,41323,5,0
480,288,41657,1,2
448,352,41990,1,2
32,32,42990,1,8
32,32,43324,1,8
96,96,43657,6,0,L|96:160,2,64,4|0|2
256,96,44990,2,0,C|256:32,2,64,0|2|0
416,96,46323,2,0,C|416:160,2,64,0|2|0
256,160,47657,5,0
256,224,47990,1,0
256,288,48323,1,2
256,352,48657,1,2
192,352,48990,6,0,C|128:352,2,64,4|2|0
320,352,50323,2,0,C|384:352,2,64
256,240,51657,2,0,C|256:176,2,64,2|2|2
96,256,52990,5,0
96,128,53657,1,8
96,128,53990,1,8
130,64,54323,6,0,B|256:20|382:64|382:64,1,256,4|0
384,192,56323,1,0
256,192,56990,6,0,C|128:192,3,128,0|0|2|2
32,288,59657,5,4
128,352,60323,2,0,B|184:288|256:279|328:288|384:352|384:352,1,288
480,320,62323,5,2
448,224,62823,1,2
352,192,63323,1,2
256,160,63823,1,2
160,128,64323,1,2
128,32,64823,1,4
256,288,66157,6,0,C|256:352,2,64,6|6|6
96,288,67657,5,4
96,160,68323,1,0
192,160,68823,6,0,B|301:170|288:64|288:64,1,160,4|0
384,64,70157,6,0,L|480:160,2,128,4|0|2
384,224,72323,5,2
416,288,72657,1,2
480,320,72990,5,4
352,352,73657,1,0
256,352,74157,6,0,B|148:363|160:256|160:256,1,160,4|0
160,160,75490,6,0,C|160:32,2,128,4|0|2
32,64,77657,5,2
32,128,77990,1,2
32,192,78323,6,0,B|32:321|176:336|176:336,1,224,4|4
240,351,79823,2,0,B|304:367|367:352|367:352,1,128,0|2
424,328,80823,2,0,B|456:319|472:288|472:288,4,64,4|0|0|0|2
320,192,82989,5,2
256,192,83323,1,2
192,192,83657,6,0,B|144:192|112:176|85:128|112:80|144:64|192:64|192:64,1,224,4|4
256,64,85157,2,0,C|352:64,1,96
416,64,85990,2,0,C|448:64,1,32,0|4
256,192,86490,12,2,88490
64,320,88990,6,0,L|192:320,1,128,4|0
288,320,90157,1,4
448,328,90990,6,0,L|448:232,1,96,0|4
448,56,92323,2,0,L|448:152,1,96,0|4
256,64,93990,5,0
256,64,94323,2,0,C|256:192,1,128,4|0
160,192,95490,2,0,L|128:192,3,32,2|0|2|2
256,352,96990,5,4
384,320,97657,1,2
416,192,98323,2,0,C|384:64,1,128
256,32,99656,5,4
128,64,100323,1,2
96,192,100989,2,0,C|128:320,1,128
256,352,102323,5,4
384,352,102989,1,2
384,224,103656,2,0,C|256:192,1,128
128,160,104990,5,4
128,32,105656,1,2
256,32,106323,2,0,C|384:64,1,128
480,160,107657,5,4
384,256,108323,1,2
352,320,108657,1,2
288,352,108990,2,0,L|160:352,1,128
96,320,109990,1,2
64,256,110323,5,4
64,128,110989,1,2
96,64,111323,1,2
160,32,111656,2,0,L|288:32,1,128
352,64,112657,1,2
384,128,112990,5,4
448,240,113656,1,2
384,272,113990,1,2
319,304,114323,2,0,B|256:326|193:304|193:304,1,128
128,272,115323,1,2
64,240,115657,5,4
128,128,116323,1,2
128,128,116657,1,2
192,96,116990,2,0,B|256:74|318:96|318:96,1,128,12|8
384,128,117990,1,4
