osu file format v9

[General]
AudioFilename: Border of Death.mp3
AudioLeadIn: 0
PreviewTime: 138280
Countdown: 0
SampleSet: Normal
StackLeniency: 0.7
Mode: 0
LetterboxInBreaks: 0

[Editor]
DistanceSpacing: 1.1
BeatDivisor: 4
GridSize: 4

[Metadata]
Title:Border of Death
Artist:IOSYS
Creator:tieff
Version:Normal
Source:Touhou
Tags:

[Difficulty]
HPDrainRate:5
CircleSize:4
OverallDifficulty:5
ApproachRate:5
SliderMultiplier:1.4
SliderTickRate:2

[Events]
//Background and Video events
0,0,"bg.jpg"
//Break Periods
2,87528,98128
2,189328,215128
//Storyboard Layer 0 (Background)
//Storyboard Layer 1 (Fail)
//Storyboard Layer 2 (Pass)
//Storyboard Layer 3 (Foreground)
//Storyboard Sound Samples
//Background Colour Transformations
3,100,163,162,255

[TimingPoints]
24328,375,4,1,1,100,1,0
25030,-100,4,1,1,70,0,0
25217,-100,4,2,1,100,0,0
26530,-100,4,1,1,100,0,0
28405,-100,4,2,1,100,0,0
29342,-100,4,1,1,55,0,0
29529,-100,4,1,1,100,0,0
31030,-100,4,1,1,70,0,0
31217,-100,4,2,1,100,0,0
31780,-100,4,1,1,55,0,0
31967,-100,4,2,1,100,0,0
32342,-100,4,1,1,55,0,0
32529,-100,4,1,1,70,0,0
34404,-100,4,2,1,70,0,0
35529,-100,4,1,1,100,0,0
35716,-100,4,1,1,70,0,0
48280,-100,4,2,1,75,0,0
58780,-100,4,2,1,65,0,0
62530,-100,4,2,1,5,0,0
63328,-100,4,1,1,100,0,1
87328,-100,4,1,1,100,0,0
100216,-100,4,2,1,100,0,0
101528,-100,4,1,1,80,0,0
103403,-100,4,2,1,80,0,0
104528,-100,4,1,1,80,0,0
104715,-100,4,2,1,80,0,0
105090,-100,4,1,1,80,0,0
106215,-100,4,2,1,80,0,0
107527,-100,4,1,1,80,0,0
111655,-133.333333333333,4,2,1,85,0,0
120280,-133.333333333333,4,2,1,70,0,0
123280,-100,4,1,1,5,0,0
123467,-100,4,1,1,10,0,0
123654,-100,4,1,1,15,0,0
123841,-100,4,1,1,20,0,0
124028,-100,4,1,1,25,0,0
124215,-100,4,1,1,30,0,0
124402,-100,4,1,1,35,0,0
124589,-100,4,1,1,40,0,0
124776,-100,4,1,1,45,0,0
124963,-100,4,1,1,50,0,0
125150,-100,4,1,1,55,0,0
125337,-100,4,1,1,60,0,0
125524,-100,4,1,1,65,0,0
125711,-100,4,1,1,70,0,0
125898,-100,4,1,1,75,0,0
126085,-100,4,1,1,80,0,0
126272,-100,4,1,1,85,0,0
126459,-100,4,1,1,90,0,0
126646,-100,4,1,1,95,0,0
126833,-100,4,1,1,100,0,0
127020,-100,4,1,1,70,0,0
127207,-100,4,2,1,70,0,0
128061,-100,4,1,1,100,0,0
130214,-100,4,2,1,100,0,0
130776,-100,4,1,1,100,0,0
131713,-100,4,2,1,100,0,0
132275,-100,4,1,1,100,0,0
138328,-100,4,1,1,100,0,1
162328,-100,4,1,1,100,0,0
162655,-100,4,2,1,100,0,0
185525,-100,4,1,1,70,0,0
185712,-100,4,2,1,70,0,0
186087,-100,4,1,1,70,0,0
186274,-100,4,2,1,96,0,0
186836,-100,4,2,1,80,0,0
187399,-100,4,2,1,70,0,0
187774,-100,4,2,1,96,0,0
216328,-100,4,2,1,10,0,0
216649,-100,4,1,1,100,0,0
217030,-100,4,1,1,100,0,0
217211,-100,4,1,1,55,0,0
217780,-100,4,2,1,100,0,0
218530,-100,4,1,1,100,0,0
218717,-100,4,1,1,55,0,0
219280,-100,4,2,1,100,0,0
220030,-100,4,1,1,100,0,0
220217,-100,4,1,1,55,0,0
220780,-100,4,2,1,100,0,0
221530,-100,4,1,1,100,0,0
221717,-100,4,1,1,55,0,0
222280,-100,4,2,1,100,0,0
223030,-100,4,1,1,100,0,0
223405,-100,4,2,1,100,0,0
224530,-100,4,1,1,100,0,0
224623,-100,4,2,1,100,0,0
226030,-100,4,1,1,100,0,0
226405,-100,4,2,1,100,0,0
226780,-100,4,1,1,55,0,0
227155,-100,4,2,1,100,0,0
227530,-100,4,1,1,100,0,0
227717,-100,4,1,1,55,0,0
228280,-100,4,2,1,100,0,0
229030,-100,4,1,1,100,0,0
229405,-100,4,2,1,100,0,0
229780,-100,4,2,1,100,0,0
230530,-100,4,1,1,100,0,0
230717,-100,4,1,1,55,0,0
231280,-100,4,2,1,100,0,0
232030,-100,4,1,1,100,0,0
232217,-100,4,1,1,55,0,0
232780,-100,4,2,1,100,0,0
233530,-100,4,1,1,100,0,0
233717,-100,4,1,1,55,0,0
233905,-100,4,2,1,100,0,0
235030,-100,4,1,1,100,0,0
235405,-100,4,2,1,100,0,0
236530,-100,4,1,1,100,0,0
236905,-100,4,2,1,100,0,0
237280,-100,4,1,1,100,0,0
240328,-100,4,1,1,100,0,1
264328,-100,4,1,1,100,0,0

[Colours]
Combo1 : 255,255,91
Combo2 : 0,128,255
Combo3 : 128,128,192
Combo4 : 252,101,101

[HitObjects]
420,304,24328,2,4,B|416:164,1,140
360,20,25078,1,0
360,20,25265,2,0,B|268:28|296:116,1,140
300,192,25828,2,0,B|224:192|156:196,1,140,2|2
104,252,26390,1,0
36,216,26578,2,0,B|36:168|40:136,1,70
116,152,26953,2,0,B|120:104|120:64,1,70
180,36,27328,6,0,B|252:-8|336:52,1,140,4|0
368,92,27890,2,0,B|432:152|364:240,1,140
316,264,28453,6,0,B|168:260,2,140,2|2|2
376,312,29390,1,0
444,272,29578,2,0,B|448:224|440:180,1,70
432,124,29953,2,0,B|384:116|340:124,1,70
296,160,30328,6,0,B|216:156|128:156,1,140,4|4
76,288,31078,1,0
44,220,31265,2,0,B|0:152|64:76,1,140,2|2
112,40,31828,1,0
264,44,32203,1,0
332,84,32390,1,0
272,132,32578,1,0
204,168,32765,2,0,B|124:224|216:312,1,140,0|0
264,316,33328,6,0,B|420:312,1,140,4|0
476,284,33890,2,0,B|480:224|468:112,1,140
456,68,34453,1,2
384,96,34640,2,0,B|316:28|244:112,1,140
244,168,35203,1,2
240,320,35578,1,0
240,320,35765,2,0,B|92:328,1,140
32,292,36328,6,0,B|-8:224|48:144,1,140,4|8
116,152,36890,2,0,B|264:148,1,140,0|0
332,148,37453,1,8
408,148,37640,6,0,B|476:216|392:296,1,140,4|0
336,288,38203,1,8
260,276,38390,2,0,B|112:280,1,140
44,284,38953,2,0,B|40:208,1,70,8|0
40,136,39328,6,0,B|140:124,2,70,4|0|8
36,60,39890,2,0,B|180:44,1,140
244,80,40453,1,8
308,40,40640,2,4,B|376:96|316:164,1,140
272,224,41203,2,0,B|272:304,1,70,8|0
196,304,41578,2,0,B|128:308,1,70
48,312,41953,2,0,B|44:236,1,70,8|0
40,164,42328,6,0,B|192:156,1,140,4|8
256,156,42890,2,0,B|336:196|276:276,1,140,4|0
332,324,43453,1,8
408,312,43640,2,0,B|412:244|420:156,1,140
424,96,44203,2,0,B|364:88|328:88,1,70,8|0
316,156,44578,2,0,B|224:168,1,70
220,240,44953,2,0,B|152:236,1,70,8|0
76,260,45328,6,0,B|64:176|64:104,1,140,4|0
140,104,45890,2,0,B|224:88|292:84,1,140,4|0
356,80,46453,1,0
356,80,46640,6,0,B|440:132|372:196,1,140
244,268,47390,1,0
244,268,47578,2,0,B|160:268,1,70,8|0
96,280,47953,2,0,B|92:196,1,70,8|0
84,132,48328,5,4
316,116,48890,1,2
392,116,49078,2,0,B|484:160|404:236,2,140,8|2|0
260,40,50203,1,2
124,112,50578,2,0,B|48:160|112:248,1,140,8|2
228,328,51328,6,0,B|400:320,1,140,4|0
444,320,51890,2,0,B|452:168,1,140,4|0
376,172,52453,2,0,B|224:168,1,140,4|0
84,168,53203,5,2
72,320,53578,1,8
224,328,53953,2,0,B|376:328,1,140,2|0
460,208,54703,5,2
460,208,54890,2,0,B|452:56,1,140
376,84,55453,2,0,B|216:88,2,140,2|0|2
376,160,56390,2,0,B|292:212|392:288,1,140
316,324,56953,2,0,B|160:332,1,140,2|4
48,248,57703,5,2
48,248,57890,2,0,B|44:88,1,140
120,100,58453,2,0,B|284:100,1,140,2|4
256,192,60515,12,0,62578
72,344,63328,6,2,B|64:188,1,140,4|2
108,140,63890,1,0
108,140,64078,2,2,B|184:144|272:136,1,140,8|2
324,144,64640,2,0,B|332:216,2,70,2|0|0
396,120,65203,2,2,B|476:52|364:20,1,140,2|8
300,40,65765,2,2,B|152:44,1,140,2|2
88,68,66328,6,2,B|0:100|76:208,1,140,4|2
124,228,66890,1,0
192,192,67078,2,2,B|248:184|336:188,1,140,8|2
392,236,67640,2,0,B|484:224,2,70,2|0|2
352,304,68203,2,2,B|296:312|196:312,1,140,0|10
136,332,68765,1,0
64,304,68953,2,0,B|56:208,1,70,2|0
88,164,69328,6,2,B|172:160|244:152,1,140,4|2
300,124,69890,1,0
372,144,70078,2,2,B|392:200|384:288,1,140,8|2
320,324,70640,2,2,B|264:316|160:324,1,140,2|0
104,340,71203,2,0,B|48:332|24:336,1,70,2|0
24,260,71578,6,2,B|84:252|184:256,1,140,8|2
240,248,72140,2,2,B|312:184|224:112,1,140,2|0
272,56,72703,2,0,B|312:44|432:56,2,140,2|8|2
200,80,73640,2,0,B|156:72|44:80,1,140,2|0
28,148,74203,2,0,B|24:216,1,70
100,216,74578,2,0,B|96:308,1,70,8|0
172,268,74953,2,0,B|176:336,1,70,0|8
252,344,75328,6,2,B|256:292|256:192,1,140,4|2
316,156,75890,1,0
316,156,76078,2,2,B|364:152|464:152,1,140,8|2
476,76,76640,2,2,B|424:72|316:72,1,140,2|0
260,88,77203,2,0,B|216:84|176:88,1,70,2|0
112,92,77578,2,2,B|36:160|120:212,1,140,8|2
188,212,78140,6,2,B|240:204|336:208,1,140,2|0
404,224,78703,2,0,B|404:296,2,70,2|0|8
460,80,79453,1,0
384,76,79640,2,2,B|320:64|228:72,1,140,2|0
172,96,80203,2,0,B|160:144|164:184,1,70,2|0
84,164,80578,2,2,B|76:216|76:324,1,140,10|2
144,340,81140,6,2,B|192:336|288:336,1,140,6|0
360,332,81703,2,0,B|420:264|336:200,1,140,6|8
196,204,82453,1,8
120,204,82640,2,2,B|112:164|120:56,1,140,6|0
192,44,83203,2,0,B|256:40|356:44,1,140,6|8
472,44,83953,5,8
472,44,84140,1,4
256,192,84328,12,0,87328
88,320,99328,5,0
88,168,99703,2,0,B|168:164,1,70,0|0
232,148,100078,2,0,B|312:156,1,70,0|2
376,168,100453,1,2
452,152,100640,2,0,B|528:212|448:280,2,140,2|0|0
404,92,101578,2,0,B|368:84|328:88,1,70,0|0
256,84,101953,2,0,B|176:80,1,70
108,84,102328,6,0,B|32:148|120:220,1,140,4|0
180,212,102890,2,0,B|224:208|272:212,1,70
324,224,103265,2,0,B|368:220|416:220,1,70
464,188,103640,2,0,B|468:128|464:48,2,140,2|2|2
468,264,104578,1,0
472,340,104765,2,2,B|396:348,1,70
324,340,105140,1,0
248,344,105328,6,0,B|160:340|88:344,1,140,4|0
32,332,105890,1,0
40,256,106078,2,0,B|48:216|48:168,1,70,0|2
36,112,106453,1,2
80,48,106640,2,0,B|152:16|228:56,2,140
116,116,107578,2,0,B|260:132,1,140
332,120,108140,1,0
408,140,108328,6,0,B|416:196|412:296,1,140
344,316,108890,1,0
272,284,109078,2,0,B|200:288,2,70
332,236,109640,2,0,B|328:80,1,140,0|4
80,308,111328,5,4
80,136,111890,1,2
80,136,112078,2,0,B|188:136,1,104.999996870756,0|2
300,132,112828,5,0
412,264,113390,1,2
412,264,113578,2,0,B|428:212|404:152,1,104.999996870756,0|2
412,44,114328,6,0,B|360:52,1,52.4999984353781,2|0
312,84,114703,2,0,B|248:88,1,52.4999984353781,0|2
220,128,115078,2,0,B|160:132,1,52.4999984353781,0|0
116,156,115453,1,2
112,328,116015,6,6,B|240:316,1,104.999996870756,0|0
272,332,116578,2,2,B|396:340,1,104.999996870756,0|0
432,328,117140,1,0
488,340,117328,6,0,B|492:224,1,104.999996870756,0|2
380,260,118078,2,0,B|376:152,1,104.999996870756,0|2
276,212,118828,2,0,B|288:104,1,104.999996870756,0|2
184,160,119578,2,0,B|180:48,1,104.999996870756,0|2
68,88,120328,6,0,B|68:208,1,104.999996870756,0|2
68,252,120890,2,0,B|132:256|192:260,1,104.999996870756,0|0
228,272,121453,2,0,B|348:264,1,104.999996870756,2|4
452,140,122390,1,4
300,36,122953,1,4
192,80,123328,6,0,B|184:172,1,70
184,228,123703,2,0,B|256:232,1,70
332,236,124078,2,0,B|336:156,1,70
336,88,124453,2,0,B|432:92,1,70
484,96,124828,6,0,B|488:168,1,70
492,244,125203,2,0,B|408:240,1,70
344,240,125578,2,0,B|340:328,1,70
264,312,125953,2,0,B|184:316,1,70
116,320,126328,6,0,B|116:228,1,70
116,172,126703,2,0,B|196:172,1,70
264,168,127078,2,0,B|268:80,1,70
268,20,127453,1,4
352,336,129328,6,0,B|288:328|204:328,1,140,0|4
60,332,130078,1,0
60,256,130265,2,0,B|64:188|64:116,1,140
108,52,130828,6,0,B|168:44|252:52,1,140,0|4
400,60,131578,1,0
400,136,131765,2,0,B|404:204|400:284,1,140
324,284,132328,6,0,B|260:276|156:288,1,140,4|0
108,288,132890,2,0,B|44:232|120:168,1,140
196,168,133453,2,0,B|340:164,1,140
440,296,134390,5,0
208,312,134953,1,0
208,312,135140,1,0
256,192,135328,12,4,137015
440,344,138328,6,2,B|444:204,1,140,4|2
404,140,138890,1,0
404,140,139078,2,2,B|328:144|240:136,1,140,8|2
188,144,139640,2,0,B|180:216,2,70,2|0|0
116,120,140203,2,2,B|36:52|148:20,1,140,2|8
212,40,140765,2,2,B|360:44,1,140,2|2
424,68,141328,6,2,B|512:100|436:208,1,140,4|2
388,228,141890,1,0
320,192,142078,2,2,B|264:184|176:188,1,140,8|2
120,236,142640,2,0,B|28:224,2,70,2|0|2
160,304,143203,2,2,B|216:312|316:312,1,140,0|10
376,332,143765,1,0
448,304,143953,2,0,B|456:208,1,70,2|0
424,164,144328,6,2,B|340:160|268:152,1,140,4|2
212,124,144890,1,0
140,144,145078,2,2,B|120:200|128:288,1,140,8|2
192,324,145640,2,2,B|248:316|352:324,1,140,2|0
408,340,146203,2,0,B|464:332|488:336,1,70,2|0
488,260,146578,6,2,B|428:252|328:256,1,140,8|2
272,248,147140,2,2,B|200:184|288:112,1,140,2|0
240,56,147703,2,0,B|200:44|80:56,2,140,2|8|2
312,80,148640,2,0,B|356:72|468:80,1,140,2|0
484,148,149203,2,0,B|488:216,1,70
412,216,149578,2,0,B|416:308,1,70,8|0
340,268,149953,2,0,B|336:336,1,70,0|8
260,344,150328,6,2,B|256:292|256:192,1,140,4|2
196,156,150890,1,0
196,156,151078,2,2,B|148:152|48:152,1,140,8|2
36,76,151640,2,2,B|88:72|196:72,1,140,2|0
252,88,152203,2,0,B|296:84|336:88,1,70,2|0
400,92,152578,2,2,B|476:160|392:212,1,140,8|2
324,212,153140,6,2,B|272:204|176:208,1,140,6|0
108,224,153703,2,0,B|108:296,2,70,2|0|8
52,80,154453,1,0
128,76,154640,2,2,B|192:64|284:72,1,140,2|0
340,96,155203,2,0,B|352:144|348:184,1,70,2|0
428,164,155578,2,2,B|436:216|436:324,1,140,10|2
368,340,156140,6,2,B|320:336|224:336,1,140,6|0
152,332,156703,2,0,B|92:264|176:200,1,140,6|8
316,204,157453,1,8
392,204,157640,2,2,B|400:164|392:56,1,140,6|0
320,44,158203,2,0,B|256:40|156:44,1,140,6|8
40,44,158953,5,8
40,44,159140,1,4
256,192,159328,12,0,162328
64,272,162890,5,2
64,272,163078,2,0,B|60:128,1,140,8|2
192,52,163828,1,2
336,108,164203,1,0
240,228,164578,2,0,B|148:228|196:328,1,140,8|2
272,324,165140,6,0,B|416:320,1,140
468,264,165703,2,0,B|472:204|480:112,2,140,2|8|2
488,340,166640,1,0
336,344,167015,1,0
336,344,167203,2,0,B|248:284|376:232,1,140,2|8
480,156,167953,1,2
380,40,168328,6,0,B|316:36|232:40,2,140,4|2|8
380,192,169453,1,2
232,228,169828,2,0,B|192:220|88:224,2,140,0|2|8
376,284,170953,1,2
484,176,171328,6,0,B|492:120|484:32,2,140,0|2|8
488,332,172453,1,2
336,332,172828,2,0,B|248:328,1,70,0|8
192,308,173203,2,0,B|120:312,1,70,2|0
48,328,173578,2,0,B|44:252|44:184,1,140,8|2
64,116,174140,1,8
52,40,174328,5,4
204,32,174703,1,2
356,48,175078,2,0,B|296:108|352:172,1,140,8|2
400,112,175640,2,0,B|456:180|388:240,1,140
316,236,176203,2,0,B|264:228|164:232,2,140,2|8|2
316,312,177140,5,0
164,336,177515,1,0
88,320,177703,2,0,B|44:264|96:192,2,140,2|8|2
140,264,178640,2,0,B|216:260|296:264,1,140
356,264,179203,2,0,B|420:200|340:144,2,140,2|8|2
232,172,180328,6,0,B|144:164|80:176,2,140,4|2|8
384,204,181453,2,8,B|428:200|472:200,1,70,2|0
492,268,181828,2,0,B|496:304|496:352,1,70
420,336,182203,2,0,B|360:288|272:340,2,140,2|8|2
440,184,183328,5,4
288,200,183703,1,2
136,188,184078,2,0,B|56:132|156:64,1,140,8|8
216,88,184640,2,0,B|312:80|360:88,1,140,0|0
428,116,185203,6,0,B|436:168|440:192,1,70,2|0
412,256,185578,2,0,B|336:272,1,70
268,276,185953,2,0,B|180:272,1,70
120,276,186328,6,4,B|60:220|168:176|108:72,2,210,4|4|4
264,332,187828,1,4
84,328,216328,6,0,B|80:176,1,140,4|0
172,64,217078,1,0
172,64,217265,2,0,B|256:124|168:184,1,140
176,252,217828,1,2
328,256,218203,1,2
336,104,218578,1,0
336,104,218765,1,0
248,316,219328,5,2
96,316,219703,1,2
92,164,220078,1,0
92,164,220265,1,0
324,160,220828,1,2
476,164,221203,1,2
476,320,221578,1,0
476,320,221765,1,0
324,316,222140,1,0
264,268,222328,6,0,B|200:224|108:288,2,140,2|2|0
384,168,223453,1,2
276,56,223828,2,0,B|208:64|124:64,1,140,0|2
80,116,224390,1,0
80,116,224578,2,0,B|72:168|80:268,1,140,0|2
128,316,225140,6,0,B|220:292|160:204,1,140
212,148,225703,2,0,B|352:140,1,140,2|0
468,244,226453,1,2
336,324,226828,5,0
192,268,227203,1,2
52,336,227578,1,0
52,336,227765,1,0
48,184,228140,1,0
48,184,228328,5,4
176,96,228703,1,2
304,184,229078,2,0,B|448:176,2,140,0|2|0
176,268,230203,1,2
320,320,230578,1,0
320,320,230765,1,0
340,88,231328,6,0,B|404:136|356:216,2,140
264,92,232265,1,0
60,200,232828,6,0,B|8:128|92:64,2,140,0|2|0
132,228,233765,1,0
204,196,233953,2,0,B|352:192,1,140,2|4
456,296,234703,1,0
308,332,235078,6,0,B|148:332,1,140,0|0
32,256,235828,1,4
148,156,236203,2,0,B|300:152,1,140
420,72,236953,1,0
420,72,237140,1,0
256,192,237328,12,0,239578
440,40,240328,6,2,B|444:180,1,140,4|2
404,244,240890,1,0
404,244,241078,2,2,B|328:240|240:248,1,140,8|2
188,240,241640,2,0,B|180:168,2,70,2|0|0
116,264,242203,2,2,B|36:332|148:364,1,140,2|8
212,344,242765,2,2,B|360:340,1,140,2|2
424,316,243328,6,2,B|512:284|436:176,1,140,4|2
388,156,243890,1,0
320,192,244078,2,2,B|264:200|176:196,1,140,8|2
120,148,244640,2,0,B|28:160,2,70,2|0|2
160,80,245203,2,2,B|216:72|316:72,1,140,0|10
376,52,245765,1,0
448,80,245953,2,0,B|456:176,1,70,2|0
424,220,246328,6,2,B|340:224|268:232,1,140,4|2
212,260,246890,1,0
140,240,247078,2,2,B|120:184|128:96,1,140,8|2
192,60,247640,2,2,B|248:68|352:60,1,140,2|0
408,44,248203,2,0,B|464:52|488:48,1,70,2|0
488,124,248578,6,2,B|428:132|328:128,1,140,8|2
272,136,249140,2,2,B|200:200|288:272,1,140,2|0
240,328,249703,2,0,B|200:340|80:328,2,140,2|8|2
312,304,250640,2,0,B|356:312|468:304,1,140,2|0
484,236,251203,2,0,B|488:168,1,70
412,168,251578,2,0,B|416:76,1,70,8|0
340,116,251953,2,0,B|336:48,1,70,0|8
260,40,252328,6,2,B|256:92|256:192,1,140,4|2
196,228,252890,1,0
196,228,253078,2,2,B|148:232|48:232,1,140,8|2
36,308,253640,2,2,B|88:312|196:312,1,140,2|0
252,296,254203,2,0,B|296:300|336:296,1,70,2|0
400,292,254578,2,2,B|476:224|392:172,1,140,8|2
324,172,255140,6,2,B|272:180|176:176,1,140,6|0
108,160,255703,2,0,B|108:88,2,70,2|0|8
52,304,256453,1,0
128,308,256640,2,2,B|192:320|284:312,1,140,2|0
340,288,257203,2,0,B|352:240|348:200,1,70,2|0
428,220,257578,2,2,B|436:168|436:60,1,140,10|2
368,44,258140,6,2,B|320:48|224:48,1,140,6|0
152,52,258703,2,0,B|92:120|176:184,1,140,6|8
316,180,259453,1,8
392,180,259640,2,2,B|400:220|392:328,1,140,6|0
320,340,260203,2,0,B|256:344|156:340,1,140,6|8
40,340,260953,5,8
40,340,261140,1,4
256,192,261328,12,0,264328
