osu file format v9

[General]
AudioFilename: Border of Death.mp3
AudioLeadIn: 0
PreviewTime: 138280
Countdown: 0
SampleSet: Normal
StackLeniency: 0.7
Mode: 0
LetterboxInBreaks: 0

[Editor]
DistanceSpacing: 1.2
BeatDivisor: 4
GridSize: 8

[Metadata]
Title:Border of Death
Artist:IOSYS
Creator:tieff
Version:Hard
Source:Touhou
Tags:

[Difficulty]
HPDrainRate:6
CircleSize:4
OverallDifficulty:8
ApproachRate:8
SliderMultiplier:1.7
SliderTickRate:2

[Events]
//Background and Video events
0,0,"bg.jpg"
//Break Periods
2,87528,98578
2,189328,212578
//Storyboard Layer 0 (Background)
//Storyboard Layer 1 (Fail)
//Storyboard Layer 2 (Pass)
//Storyboard Layer 3 (Foreground)
//Storyboard Sound Samples
//Background Colour Transformations
3,100,163,162,255

[TimingPoints]
24328,375,4,1,1,100,1,0
48280,-66.6666666666667,4,2,1,100,0,0
58780,-200,4,2,1,100,0,0
62530,-133.333333333333,4,2,1,5,0,0
63328,-100,4,1,1,100,0,1
87328,-100,4,1,1,100,0,0
111655,-100,4,2,1,100,0,0
111842,-100,4,1,1,100,0,0
112217,-100,4,1,1,100,0,0
112404,-100,4,2,1,100,0,0
112780,-100,4,1,1,100,0,0
112967,-100,4,2,1,100,0,0
113342,-100,4,1,1,100,0,0
113436,-100,4,2,1,100,0,0
113717,-100,4,1,1,100,0,0
113905,-100,4,2,1,100,0,0
115967,-100,4,2,1,40,0,0
117092,-100,4,2,1,100,0,0
123280,-100,4,1,1,5,0,0
123467,-100,4,1,1,10,0,0
123654,-100,4,1,1,15,0,0
123841,-100,4,1,1,20,0,0
124028,-100,4,1,1,25,0,0
124215,-100,4,1,1,30,0,0
124402,-100,4,1,1,35,0,0
124589,-100,4,1,1,40,0,0
124776,-100,4,1,1,45,0,0
124963,-100,4,1,1,50,0,0
125150,-100,4,1,1,55,0,0
125337,-100,4,1,1,60,0,0
125524,-100,4,1,1,65,0,0
125711,-100,4,1,1,70,0,0
125898,-100,4,1,1,75,0,0
126085,-100,4,1,1,80,0,0
126272,-100,4,1,1,85,0,0
126459,-100,4,1,1,90,0,0
126646,-100,4,1,1,95,0,0
126833,-100,4,1,1,100,0,0
127020,-100,4,1,1,70,0,0
127207,-100,4,2,1,70,0,0
128061,-100,4,1,1,100,0,0
138328,-100,4,1,1,100,0,1
162328,-100,4,1,1,100,0,0
216280,-100,4,2,1,100,0,0
217030,-100,4,1,1,100,0,0
217217,-100,4,2,1,100,0,0
218529,-100,4,1,1,100,0,0
218716,-100,4,2,1,100,0,0
220028,-100,4,1,1,100,0,0
220215,-100,4,2,1,100,0,0
221527,-100,4,1,1,100,0,0
221714,-100,4,2,1,100,0,0
223026,-100,4,1,1,100,0,0
223213,-100,4,2,1,100,0,0
224525,-100,4,1,1,100,0,0
224712,-100,4,2,1,100,0,0
226024,-100,4,1,1,100,0,0
226211,-100,4,2,1,100,0,0
227523,-100,4,1,1,100,0,0
227710,-100,4,2,1,100,0,0
229022,-100,4,1,1,100,0,0
229209,-100,4,2,1,100,0,0
230521,-100,4,1,1,100,0,0
230708,-100,4,2,1,100,0,0
232020,-100,4,1,1,100,0,0
232395,-100,4,2,1,100,0,0
233520,-100,4,1,1,100,0,0
233895,-100,4,2,1,100,0,0
235020,-100,4,1,1,100,0,0
235207,-100,4,2,1,100,0,0
236519,-100,4,1,1,100,0,0
236706,-100,4,2,1,100,0,0
238956,-100,4,1,1,100,0,0
239331,-100,4,2,1,100,0,0
239518,-100,4,1,1,100,0,0
239705,-100,4,2,1,100,0,0
240080,-100,4,1,1,100,0,0
264140,-100,4,1,1,95,0,1
264280,-100,4,1,1,100,0,0

[Colours]
Combo1 : 255,255,91
Combo2 : 0,128,255
Combo3 : 128,128,192
Combo4 : 252,101,101

[HitObjects]
48,96,24328,2,0,B|136:88,1,85,4|0
216,32,24703,1,0
312,56,24890,2,0,B|440:104|312:208,1,170
240,192,25453,1,0
136,192,25640,2,0,B|8:240|136:344,1,170
208,328,26203,1,0
312,328,26390,1,0
312,328,26484,1,0
312,328,26578,1,0
480,264,26765,1,0
312,160,26953,1,0
472,80,27140,1,0
472,80,27328,6,0,B|368:72,1,85,4|0
368,176,27703,2,0,B|248:184,1,85,0|4
224,264,28078,2,0,B|112:280,1,85
56,336,28453,1,0
32,240,28640,2,0,B|24:120|160:152,1,170
136,147,29109,1,0
136,147,29203,1,0
376,168,29390,2,0,B|432:200|368:264,1,85
200,336,29765,2,0,B|144:304|208:240,1,85
328,264,30140,1,0
464,272,30328,6,0,B|520:240|456:176,1,85,4|0
456,96,30703,1,0
360,56,30890,2,0,B|240:48|160:56,1,170
96,96,31453,1,0
184,144,31640,2,0,B|280:208|176:296,1,170
96,336,32203,1,0
8,288,32390,1,0
344,256,32578,2,0,B|464:248,1,85
464,80,32953,2,4,B|360:80,1,85
128,80,33328,5,0
40,136,33515,1,0
128,184,33703,2,0,B|136:280,2,85,0|0|4
216,128,34265,1,0
216,128,34359,1,0
216,128,34453,2,0,B|320:120,1,85
464,112,34828,6,0,B|496:168|464:224,1,85
456,296,35203,1,0
352,296,35390,1,0
352,296,35484,1,0
352,296,35578,1,0
248,288,35765,1,0
144,288,35953,1,0
40,280,36140,1,0
48,64,36328,6,0,B|168:56,1,85,4|0
184,56,36609,1,0
232,56,36703,1,0
336,64,36890,2,0,B|448:104|352:192,1,170,4|0
256,200,37453,1,0
176,320,37640,2,0,B|64:280|160:192,1,170,4|0
64,248,38203,1,0
72,144,38390,2,0,B|136:128|264:128,1,170,4|0
344,136,38953,1,0
440,160,39140,1,0
336,176,39328,6,0,B|224:184,1,85,4|0
184,256,39703,1,0
280,296,39890,2,0,B|384:288|488:296,1,170
200,352,40453,1,0
104,312,40640,2,0,B|96:240|96:128,1,170,4|0
152,56,41203,1,0
192,152,41390,1,0
184,256,41578,2,0,B|296:264,1,85,4|0
368,224,41953,1,0
296,152,42140,1,0
384,96,42328,5,4
464,160,42515,2,0,B|472:224|472:272,1,85
480,48,42890,2,0,B|384:32|280:48,1,170,4|0
216,88,43453,1,0
232,192,43640,2,0,B|344:256|200:328,1,170,4|0
128,344,44203,1,0
152,248,44390,2,0,B|144:192|144:128,1,85
160,64,44765,1,0
64,104,44953,2,0,B|48:168|48:224,1,85,4|0
240,312,45328,6,0,B|304:320|352:320,1,85,4|0
424,296,45703,1,0
344,232,45890,1,0
344,232,45984,1,0
344,232,46078,2,0,B|344:168|352:136,1,85,4|0
440,192,46453,1,0
440,88,46640,2,0,B|344:64|232:72,1,170,4|0
176,96,47203,1,0
80,72,47390,2,0,B|72:120|72:176,1,85
184,312,47765,2,0,B|208:272|192:200,1,85
64,272,48140,1,0
64,272,48328,6,0,B|176:152|312:296,1,254.999992400408,0|2
400,328,48890,2,0,B|536:208|352:104,1,254.999992400408
381,122,49453,1,2
216,152,49828,6,0,B|8:264|280:320,1,254.999992400408,0|2
352,328,50390,1,0
352,328,50484,1,0
352,328,50578,2,0,B|352:248|344:184,1,127.499996200204
384,80,50953,1,2
464,184,51140,2,0,B|480:256|472:344,1,127.499996200204,0|4
216,336,51703,1,0
216,336,51890,1,4
224,80,52265,1,0
224,80,52453,1,4
280,192,52640,6,0,B|152:272|32:184,1,254.999992400408
40,190,53203,1,2
480,216,53578,1,0
368,280,53765,1,0
280,192,53953,1,2
144,328,54328,6,0,B|160:256|160:192,1,127.499996200204,0|2
120,80,54703,2,0,B|200:64|264:64,1,127.499996200204,0|2
376,72,55078,1,0
488,136,55265,2,0,B|472:208|480:272,1,127.499996200204,2|0
368,328,55640,1,2
248,288,55828,6,0,B|256:208|240:136,1,127.499996200204,0|2
160,64,56203,1,0
56,136,56390,2,0,B|64:224|64:272,1,127.499996200204,2|0
168,344,56765,1,2
296,328,56953,2,0,B|384:304|464:320,1,127.499996200204,0|2
480,200,57328,5,4
256,72,57703,1,2
256,72,57890,1,4
32,200,58265,1,2
32,200,58453,1,4
256,320,58828,2,0,B|256:176,2,127.499996200204,0|2|0
256,192,60328,12,0,62578
96,320,63328,6,0,B|40:232|112:144,2,170,4|0|8
224,344,64265,1,0
344,296,64453,1,0
232,240,64640,2,2,B|232:144|224:56,1,170
336,8,65203,1,4
456,48,65390,2,2,B|552:112|472:200,1,170
480,190,65859,1,0
480,190,65953,1,0
344,296,66140,1,0
320,136,66328,6,0,B|224:120|128:136,1,170,4|0
32,80,66890,2,0,B|16:184|24:280,1,170
120,336,67453,1,0
144,208,67640,2,0,B|232:144|304:232,1,170,4|0
376,320,68203,1,2
472,232,68390,1,0
232,280,68578,2,2,B|240:192|224:88,1,170,12|2
112,48,69140,6,0,B|96:128|96:240,1,170,2|2
160,328,69703,1,0
160,328,69890,2,0,B|256:320|368:328,1,170,2|2
456,336,70453,1,0
456,336,70640,2,0,B|456:256|464:152,1,170,2|2
480,40,71203,1,0
352,48,71390,1,0
360,176,71578,2,0,B|272:160|176:168,1,170,10|2
64,184,72140,5,0
64,184,72515,1,0
80,312,72703,2,0,B|168:296|256:312,1,170,2|12
376,328,73265,1,0
480,248,73453,2,0,B|480:184|488:128,1,85,0|4
264,40,74015,5,0
264,40,74109,1,0
264,40,74203,1,0
88,144,74390,1,0
184,328,74578,2,2,B|192:272|208:232,1,85,14|0
376,104,74953,2,2,B|400:160|384:216,1,85,4|2
312,288,75328,6,0,B|264:320|200:264|136:312,2,170,0|0|12
432,320,76265,1,0
448,192,76453,1,0
320,168,76640,2,2,B|232:144|136:184,1,170,6|0
152,177,77109,1,0
152,177,77203,1,0
64,264,77390,1,0
24,144,77578,1,8
112,56,77765,1,0
240,72,77953,1,4
280,192,78140,6,2,B|160:272|328:328,1,170,2|0
408,352,78703,2,0,B|416:248|416:160,1,170,2|12
336,80,79265,2,0,B|328:128|336:176,1,85
448,224,79640,2,2,B|464:160|448:32,1,170,2|0
328,24,80203,1,2
208,64,80390,2,0,B|152:56|88:64,1,85,0|10
40,160,80765,1,0
40,160,80859,1,0
40,160,80953,1,2
64,288,81140,6,2,B|160:304|264:304,1,170,2|0
233,303,81703,1,2
360,280,81890,1,4
424,168,82078,2,0,B|440:104|432:64,1,85,10|0
192,32,82453,2,0,B|168:80|192:144,1,85,4|2
296,152,82828,1,0
184,208,83015,2,0,B|64:240|144:336,1,170,2|2
264,344,83578,1,8
377,201,83765,1,0
258,96,83953,1,2
141,213,84140,1,4
256,192,84328,12,4,87328
432,72,99328,5,0
424,176,99515,2,2,B|416:216|416:272,1,85,2|0
328,320,99890,2,2,B|328:240|312:128,1,170,2|0
248,72,100453,2,2,B|192:64|152:72,1,85,0|2
24,192,101015,1,2
152,320,101390,1,0
152,320,101484,1,0
152,320,101578,5,4
304,304,101765,1,0
288,152,101953,1,0
136,168,102140,1,2
440,240,102328,6,2,B|456:144|432:56,1,170,2|0
352,16,102890,1,0
400,328,103078,2,2,B|352:320|312:320,1,85,2|0
216,320,103453,1,0
344,232,103640,2,2,B|272:224|168:232,2,170
448,248,104578,1,0
464,144,104765,1,0
360,128,104953,1,0
344,232,105140,1,2
424,48,105328,6,2,B|344:32|240:40,1,170,2|0
168,88,105890,1,0
72,56,106078,2,0,B|64:104|64:160,2,85,0|2|0
144,128,106640,2,0,B|144:192|152:304,1,170
352,296,107390,1,0
352,296,107484,1,0
352,296,107578,2,2,B|352:248|360:176,1,85,0|2
416,32,107953,2,2,B|464:48|448:112,1,85,2|0
248,96,108328,6,2,B|192:88|56:88,1,170,2|0
16,168,108890,1,0
120,184,109078,2,2,B|176:176|240:192,1,85,0|2
304,176,109453,1,0
344,272,109640,2,2,B|272:264|152:272,1,170,2|0
168,272,110109,1,0
160,272,110203,1,0
152,272,110296,1,0
144,272,110390,1,0
136,272,110484,1,0
128,272,110578,1,0
120,272,110671,1,0
112,272,110765,1,0
104,272,110859,1,0
96,272,110953,1,0
88,272,111046,1,0
80,272,111140,1,0
72,272,111234,1,0
64,272,111328,5,4
424,272,111703,1,2
424,272,111890,1,0
256,56,112265,1,0
256,56,112453,2,0,B|360:136|216:184,1,170,2|0
136,184,113015,2,0,B|88:192|32:192,1,85,0|2
16,288,113390,2,0,B|88:280|208:296,1,170
288,288,113953,1,2
392,72,114328,6,0,B|344:64|288:72,1,85,2|0
208,64,114703,1,0
80,184,114890,6,0,B|128:176|184:184,1,85,2|0
264,176,115265,1,0
368,176,115453,6,0,B|488:240|360:312,1,170,2|0
280,304,116015,2,0,B|184:288|96:296,1,170,4|4
8,320,116578,2,0,B|8:240|24:120,1,170,4|0
32,48,117140,1,0
32,48,117234,1,2
32,48,117328,5,0
136,56,117515,2,0,B|208:48|232:64,1,85,2|0
320,56,117890,1,0
416,80,118078,2,0,B|400:136|416:176,1,85,2|0
440,264,118453,2,0,B|384:272|344:288,1,85
312,304,118734,1,2
256,312,118828,5,0
152,320,119015,1,2
48,304,119203,2,0,B|48:248|56:200,1,85
152,216,119578,2,0,B|200:208|256:208,1,85,2|0
336,208,119953,1,0
432,184,120140,6,0,B|432:128|424:80,1,85,2|4
248,16,120703,2,0,B|192:16|144:24,1,85,2|4
80,200,121265,2,0,B|80:256|88:304,1,85,2|4
288,320,121828,6,0,B|256:272|344:232|264:152,2,170,0|2|0
288,320,122953,1,2
88,320,123328,6,0,B|80:248|88:216,1,85
168,176,123703,2,0,B|184:224|176:280,1,85
256,256,124078,2,0,B|248:208|264:144,1,85
368,128,124453,2,0,B|376:184|368:240,1,85
440,328,124828,6,0,B|448:272|448:216,1,85
312,264,125203,2,0,B|304:328|304:352,1,85
160,296,125578,2,0,B|160:248|152:192,1,85
72,64,125953,2,0,B|56:112|64:168,1,85
432,128,126328,6,0,B|360:120|320:128,1,85
144,224,126703,2,0,B|200:224|248:224,1,85
288,24,127078,6,0,B|240:16|176:32,1,85
176,328,127453,2,0,B|264:344|360:336,1,170,4|0
472,320,128015,1,0
472,320,128109,1,0
472,320,128203,1,4
480,216,128390,2,0,B|472:168|480:96,1,85
488,32,128765,1,0
400,80,128953,2,0,B|400:128|392:184,1,85
384,264,129328,6,0,B|304:256|200:264,1,170,4|0
16,136,130078,1,0
144,128,130265,1,0
152,248,130453,1,0
16,256,130640,1,0
96,336,130828,6,0,B|176:328|280:336,1,170,4|0
472,136,131578,1,0
344,128,131765,1,0
344,240,131953,1,0
464,248,132140,1,0
176,320,132328,6,0,B|232:328|360:328,2,170
96,256,133265,1,0
184,208,133453,1,0
264,264,133640,1,0
16,320,133828,6,0,B|8:264|8:152,1,127.5
48,160,134203,1,0
40,56,134390,2,0,B|112:48|176:48,1,127.5,4|0
216,40,134765,2,0,B|304:56,2,85,0|0|4
248,328,137015,5,0
472,192,137578,5,4
360,64,137765,1,0
216,160,137953,1,0
64,80,138140,1,0
16,240,138328,5,0
200,320,138703,2,2,B|280:312|392:320,1,170,2|10
496,336,139265,1,0
448,216,139453,2,2,B|448:152|456:112,1,85,0|2
360,40,139828,2,0,B|288:128|368:232,2,170,0|0|12
232,24,140765,1,0
216,152,140953,1,4
344,168,141140,1,2
128,72,141328,6,2,B|48:136|104:248,1,170,2|2
200,288,141890,1,0
320,256,142078,2,2,B|320:200|328:72,1,170,10|2
448,40,142640,2,2,B|464:144|464:224,1,170,2|0
480,336,143203,2,2,B|424:336|376:344,1,85,2|0
264,352,143578,2,2,B|208:336|144:344,1,85,8|2
56,344,143953,1,0
136,240,144140,6,2,B|216:160|96:80,1,170,2|0
56,152,144703,2,2,B|240:144,1,170,2|12
448,136,145265,1,2
456,264,145453,1,0
328,280,145640,6,2,B|240:224|152:304,1,170,2|0
280,344,146203,2,2,B|288:152,1,170,2|12
112,56,146765,2,2,B|96:104|104:176,1,85,0|2
96,264,147140,5,4
456,288,147703,1,0
472,48,148078,1,12
344,40,148265,1,0
216,32,148453,1,2
88,24,148640,6,2,B|8:88|80:192,1,170,6|0
192,200,149203,2,2,B|264:184|368:200,1,170,2|8
392,192,149671,1,0
416,200,149765,1,0
416,328,149953,1,0
384,328,150046,1,0
256,320,150234,1,0
232,304,150328,6,0,B|160:240|56:320,2,170,4|0|10
352,344,151265,1,0
432,248,151453,1,0
312,208,151640,2,2,B|240:192|128:192,1,170,2|4
16,200,152203,2,0,B|24:144|24:96,1,85,2|0
120,240,152578,2,2,B|112:296|112:344,1,85,8|2
240,200,152953,1,0
384,248,153140,6,2,B|464:176|376:104,1,170,6|0
272,40,153703,2,2,B|272:216,1,170,0|10
184,96,154265,2,0,B|176:192,1,85
224,304,154640,2,2,B|312:368|384:272,1,170,2|0
264,216,155203,2,0,B|184:216|80:224,1,170,2|14
360,232,155765,2,2,B|400:224|464:232,1,85,0|2
448,104,156140,1,2
336,40,156328,6,4,B|136:40,1,170,4|6
40,248,157078,1,10
184,256,157265,1,0
192,120,157453,1,0
40,112,157640,1,2
176,344,157828,6,4,B|376:344,1,170,4|6
448,56,158578,1,10
312,56,158765,1,0
320,208,158953,1,0
456,200,159140,1,2
224,128,159328,2,0,B|152:208|232:296,2,170,0|0|8
96,288,160453,5,0
16,168,160640,1,0
96,48,160828,1,8
240,64,161015,1,0
248,208,161203,1,0
352,112,161390,1,0
456,216,161578,1,6
352,312,161765,2,2,B|256:280|176:320,1,170,0|2
40,312,162328,6,0,B|32:112,1,170,4|0
224,80,163078,2,0,B|232:136|232:192,1,85,8|0
280,256,163453,1,0
360,192,163640,2,0,B|352:112|360:8,1,170
456,64,164203,2,0,B|456:112|464:184,1,85
240,176,164578,2,0,B|168:160|48:176,1,170,8|0
8,256,165140,5,0
200,320,165515,1,0
304,312,165703,2,0,B|360:304|416:312,1,85
464,240,166078,2,0,B|456:168|464:64,1,170,8|0
360,232,166640,2,0,B|296:224|184:232,1,170
88,256,167203,1,0
0,216,167390,1,0
64,136,167578,2,0,B|112:128|272:136,2,170,8|0|4
240,40,168703,5,0
336,72,168890,2,0,B|448:128|344:200,1,170
248,200,169453,1,0
144,200,169640,2,0,B|32:256|136:328,1,170
56,256,170203,2,0,B|64:176|64:72,1,170
152,40,170765,1,0
248,72,170953,2,0,B|312:64|432:80,1,170,0|4
432,280,171703,5,0
328,264,171890,2,0,B|248:336|152:264,2,170
328,264,172734,1,0
328,264,172828,1,0
344,160,173015,1,0
448,176,173203,1,0
432,280,173390,1,0
224,200,173578,6,2,B|192:160|240:120,1,85,2|0
88,256,173953,2,2,B|120:296|72:336,1,85,2|0
48,104,174328,6,0,B|128:24|216:104,2,170,4|0|8
128,168,175265,1,0
200,240,175453,2,0,B|120:320|32:240,2,170
256,152,176390,1,0
344,208,176578,1,8
288,288,176765,1,0
200,240,176953,1,0
344,96,177140,6,0,B|456:80|488:192,1,170
376,176,177703,2,0,B|384:0,1,170,0|8
288,24,178265,2,0,B|224:8|184:24,1,85
104,48,178640,2,0,B|96:144|104:232,1,170
192,272,179203,2,0,B|208:72,1,170,0|8
304,72,179765,1,0
376,144,179953,1,0
304,216,180140,6,0,B|208:280|296:376,2,170,0|0|0
368,296,181078,2,0,B|192:272,2,170,8|0|0
472,312,182015,1,0
400,120,182390,1,0
400,120,182578,1,8
200,128,182953,1,0
200,128,183046,1,0
200,128,183140,1,0
96,136,183328,6,0,B|-16:192|88:288,2,170,4|0|8
160,216,184265,2,0,B|200:232|280:216,1,85
336,176,184640,2,0,B|448:224|336:328,2,170
240,152,185578,1,8
312,80,185765,1,0
408,112,185953,1,0
336,176,186140,1,0
96,320,186515,5,0
96,320,186703,2,0,B|96:208,1,85,0|4
208,56,187078,2,0,B|216:152,1,85
336,320,187453,2,0,B|352:224,1,85,0|4
360,136,187828,1,4
256,192,213328,12,0,216328
80,320,216703,6,0,B|72:136,1,170,2|0
72,150,217265,1,2
184,272,217828,2,0,B|440:264,1,255,0|2
504,136,218578,1,0
400,32,218765,1,2
72,40,219328,5,0
56,328,219703,1,2
344,344,220078,1,0
352,200,220265,1,2
160,112,220640,1,0
160,112,220734,1,2
160,112,220828,2,0,B|288:24|416:120,1,255,0|2
488,224,221578,1,0
384,320,221765,2,0,B|192:312,1,170,2|2
72,304,222328,5,0
72,304,222703,1,2
208,48,223078,1,0
216,192,223265,1,0
448,320,223828,6,0,B|456:144,1,170,0|2
352,56,224390,1,0
232,136,224578,1,0
328,240,224765,1,0
192,280,225328,6,0,B|136:360|8:280,2,170,0|2|0
104,168,226265,1,0
392,160,226640,5,0
392,160,226734,1,0
392,160,226828,2,0,B|408:272,1,85
280,328,227203,2,0,B|288:216,1,85,2|0
296,96,227578,1,0
160,48,227765,2,0,B|48:88|160:184,1,170
328,176,228328,6,0,B|507:177,2,170,4|2|0
208,256,229265,1,0
208,256,229828,1,0
352,264,230203,1,2
472,192,230390,1,0
352,112,230578,1,0
232,192,230765,1,0
88,48,231328,6,0,B|80:232,1,170,0|2
176,328,231890,1,0
176,328,232078,2,0,B|344:320,1,170,0|0
464,232,232640,2,0,B|256:224,1,170,2|0
144,216,233203,1,0
24,144,233390,1,2
160,88,233578,2,0,B|328:88,1,170,0|2
472,88,234140,6,0,B|528:176|464:264,2,170
344,152,235078,1,0
216,88,235265,1,0
80,136,235453,1,0
32,272,235640,6,0,B|104:344|200:264,2,170
160,344,236578,1,0
288,280,236765,1,0
424,336,236953,1,0
256,192,237140,12,0,238828
64,176,239015,2,0,B|136:160|168:168,1,85,0|0
240,272,239390,1,0
320,152,239578,2,0,B|384:160|424:144,1,85
496,40,239953,1,0
400,144,240140,1,0
496,240,240328,5,0
312,320,240703,2,2,B|232:312|120:320,1,170,2|10
16,336,241265,1,0
64,216,241453,2,2,B|64:152|56:112,1,85,0|2
152,40,241828,2,0,B|224:128|144:232,2,170,0|0|12
280,24,242765,1,0
296,152,242953,1,4
168,168,243140,1,2
384,72,243328,6,2,B|464:136|408:248,1,170,2|2
312,288,243890,1,0
192,256,244078,2,2,B|192:200|184:72,1,170,10|2
64,40,244640,2,2,B|48:144|48:224,1,170,2|0
32,336,245203,2,2,B|88:336|136:344,1,85,2|0
248,352,245578,2,2,B|304:336|368:344,1,85,8|2
456,344,245953,1,0
376,240,246140,6,2,B|296:160|416:80,1,170,2|0
456,152,246703,2,2,B|272:144,1,170,2|12
64,136,247265,1,2
56,264,247453,1,0
184,280,247640,6,2,B|272:224|360:304,1,170,2|0
232,344,248203,2,2,B|224:152,1,170,2|12
400,56,248765,2,2,B|416:104|408:176,1,85,0|2
416,264,249140,5,4
56,288,249703,1,0
40,48,250078,1,8
168,40,250265,1,0
296,32,250453,1,2
424,24,250640,6,2,B|504:88|432:192,1,170,2|0
320,200,251203,2,2,B|248:184|144:200,1,170,2|8
120,192,251671,1,0
96,200,251765,1,0
96,328,251953,1,0
128,328,252046,1,8
256,320,252234,1,8
280,304,252328,6,0,B|352:240|456:320,2,170,4|0|10
160,344,253265,1,0
80,248,253453,1,0
200,208,253640,2,2,B|272:192|384:192,1,170,2|4
496,200,254203,2,0,B|488:144|488:96,1,85,2|0
392,240,254578,2,2,B|400:296|400:344,1,85,8|2
272,200,254953,1,0
128,248,255140,6,2,B|48:176|136:104,1,170,6|0
240,40,255703,2,2,B|240:216,1,170,0|10
328,96,256265,2,0,B|336:192,1,85
288,304,256640,2,2,B|200:368|128:272,1,170,2|0
248,216,257203,2,0,B|328:216|432:224,1,170,2|14
152,232,257765,2,2,B|112:224|48:232,1,85,0|2
64,104,258140,1,2
176,40,258328,6,4,B|376:40,1,170,4|6
472,248,259078,1,10
328,240,259265,1,0
328,112,259453,1,0
472,112,259640,1,2
336,344,259828,6,4,B|136:344,1,170,4|6
64,104,260578,1,10
192,112,260765,1,0
184,240,260953,1,0
48,232,261140,1,2
256,192,261328,12,0,264140
104,312,264328,5,0
64,216,264515,2,2,B|64:160|56:112,1,85,0|2
128,56,264890,2,2,B|152:120|160:240,1,170,0|2
248,280,265453,1,2
320,208,265640,2,2,B|320:144|336:32,1,170,0|2
335,38,266109,1,2
335,38,266203,1,0
432,56,266390,2,2,B|448:136|432:248,1,170,2|0
296,312,266953,1,2
136,240,267140,1,0
264,104,267328,6,2,B|208:104|160:96,1,85,4|2
80,80,267703,1,0
32,168,267890,2,2,B|24:240|32:344,1,170,0|2
128,296,268453,1,2
216,344,268640,2,2,B|288:320|400:344,1,170,0|2
384,340,269109,1,2
384,340,269203,1,0
472,296,269390,1,2
392,232,269578,6,0,B|328:216|288:224,1,85,0|2
40,64,269953,2,0,B|104:80|144:72,1,85,0|2
400,56,270328,5,4
304,96,270515,1,0
392,152,270703,1,2
304,200,270890,2,2,B|232:192|112:208,1,170,2|0
64,280,271453,1,2
160,320,271640,2,2,B|256:312|368:320,1,170,0|2
480,336,272203,5,0
496,160,272390,1,2
312,136,272578,1,2
280,304,272765,1,0
104,288,272953,1,2
112,104,273140,1,0
344,32,273328,6,2,B|392:56|448:56,1,85,0|2
488,264,273703,1,2
288,248,273890,2,2,B|216:232|112:224,1,170,0|2
376,312,274453,1,0
392,144,274828,1,4
