osu file format v5

[General]
AudioFilename: IOSYS_-_Bewildering_Impending_Spiriting_Away___Border_of_Death.mp3
AudioLeadIn: 0
PreviewTime: -1
Countdown: 1
SampleSet: Normal
StackLeniency: 0.7
Mode: 0
LetterboxInBreaks: 1
EditorBookmarks: 24326,48326,63326,87326,111326,123326,138326,162326,189326,216326,240326,264326,274826

[Metadata]
Title:Border of Death
Artist:IOSYS
Creator:buraimaster1234
Version:Easy
Source:
Tags:

[Difficulty]
HPDrainRate:4
CircleSize:3
OverallDifficulty:4
SliderMultiplier:0.9
SliderTickRate:1

[Events]
//Background and Video events
1,0,"Better timed Border of Death vid.wmv"
//Break Periods
//Storyboard Layer 0 (Background)
//Storyboard Layer 1 (Failing)
//Storyboard Layer 2 (Passing)
//Storyboard Layer 3 (Foreground)
//Storyboard Sound Samples
//Background Colour Transformations
3,100,163,162,255

[TimingPoints]
24326,375,4,1,0,100
48326,375,4,2,0,100
62576,375,4,1,0,100
111326,375,4,2,0,100
127451,375,4,1,0,100
274826,187.5,4,1,0,100

[HitObjects]
448,320,24326,1,0
256,320,25076,1,0
64,320,25826,1,0
64,224,26201,1,0
64,128,26576,1,0
160,128,26951,1,0
256,128,27326,5,0
256,320,28076,1,0
448,320,28826,1,0
448,224,29201,1,0
448,128,29576,1,0
352,128,29951,1,0
256,128,30326,5,0
256,320,31076,1,0
160,320,31451,1,0
64,320,31826,1,0
160,192,32576,5,0
256,192,32951,1,0
352,192,33326,1,0
448,64,34076,5,0
352,64,34451,1,0
256,64,34826,1,0
64,64,35576,1,0
64,64,35763,1,0
64,224,36326,5,4
160,224,36701,1,0
256,224,37076,1,0
448,224,37826,1,4
352,224,38201,1,0
256,224,38576,1,0
256,32,39326,5,4
256,128,39701,1,0
256,224,40076,1,4
256,320,40451,1,0
256,320,40826,1,4
64,320,41576,6,4,B|64:208|176:208,1,180
272,224,42701,1,0
336,288,43076,1,4
480,256,43826,5,4
448,160,44201,1,0
368,96,44576,1,4
272,80,44951,1,0
176,96,45326,2,4,B|82:123|128:176,4,90
288,192,48326,5,2
480,192,49076,1,0
480,288,49451,1,2
384,288,49826,1,2
192,288,50576,1,0
96,288,50951,1,2
96,192,51326,2,2,B|256:192,2,135
96,64,53576,5,2
224,64,54326,2,2,B|224:224,1,135
320,288,55451,1,2
320,192,55826,2,2,B|320:32,1,135
448,64,56951,1,2
448,160,57326,2,2,B|448:320,1,135
288,320,58451,5,2
192,320,58826,1,6
160,192,59388,1,2
288,160,59951,1,6
256,192,60044,12,0,62576
416,128,63326,1,4
416,224,63701,1,0
416,320,64076,1,0
320,320,64451,2,4,B|192:320|224:192,1,180
256,120,65576,1,0
160,96,65951,2,4,B|64:64|32:192,1,180
128,224,67076,6,4,B|201:323|288:224,2,180
160,96,69138,2,0,B|320:96,1,135
384,192,70638,2,0,B|224:192,1,135
160,288,72138,2,4,B|320:288,1,135
384,288,73076,5,0
480,288,73451,1,0
480,192,73826,2,4,B|288:192,1,180
128,192,75326,6,4,B|34:287|192:320,2,180
256,64,77576,1,0
384,192,78326,2,4,B|478:287|320:320,2,180
320,128,80201,1,0
256,64,80576,1,0
96,128,81326,6,4,B|96:224|192:224,1,135
288,192,82451,1,0
384,192,82826,2,4,B|480:192|480:288,1,135
352,320,83951,1,4
256,320,84326,2,4,B|96:320|192:224,2,180
352,320,86201,2,4,B|352:224,1,90
256,256,86951,2,4,B|256:160,1,90
160,128,87701,5,0
64,128,88076,1,0
64,320,88826,1,0
256,320,89576,1,0
352,320,89951,2,4,L|384:320|352:288|384:256,1,90
432,224,90701,5,0
432,32,91451,1,0
240,32,92201,1,0
144,32,92576,2,4,L|80:32|112:64,2,90
288,160,94076,6,0,L|352:256|320:320,1,180
224,160,95576,2,4,L|160:256|192:320,1,180
288,320,96701,2,0,L|320:333|320:256,2,90
192,320,97826,1,4
96,320,98201,1,0
96,224,98576,2,4,L|96:128,2,90
192,224,99701,5,0
288,224,100076,1,0
480,224,100826,2,0,L|480:128|384:128,1,180
304,128,101951,2,4,L|240:128|240:160,1,90
256,240,102701,5,0
256,336,103076,1,0
128,352,103638,1,0
128,256,104013,1,0
128,160,104388,2,4,L|128:32|160:32,1,135
224,32,105326,1,4
320,64,105701,6,0,L|384:96|384:128,3,90
384,208,107201,2,4,L|384:304,1,90
288,304,107951,2,4,L|192:304,1,90
64,192,109076,5,4
256,192,109826,5,4
448,192,110576,1,4
256,128,111326,5,2
128,128,111888,2,0,B|128:288,1,135
192,320,112826,2,2,B|192:128,1,180
192,48,113951,1,2
288,48,114326,2,2,B|384:48|416:112,2,135
240,128,115826,2,0,B|240:320,2,180
144,128,117701,1,2
48,128,118076,1,0
64,288,118826,5,2
160,288,119201,1,2
256,288,119576,1,4
352,288,119951,1,0
448,288,120326,2,2,B|448:160|320:192,2,180
320,320,122388,1,2
288,192,122951,1,6
256,96,123326,6,2,B|160:96|160:192,1,135
160,320,124451,1,4
256,320,124826,2,2,B|352:320|352:224,1,135
352,96,125951,5,4
256,96,126326,1,2
224,224,126888,1,4
112,160,127451,1,4
320,96,128201,5,0
320,192,128576,1,0
320,288,128951,1,0
224,288,129326,6,4,B|128:288,1,90
192,192,130076,1,0
288,96,130826,2,4,B|384:96,1,90
320,192,131576,1,0
160,224,132326,6,4,B|160:320,1,90
256,256,133076,1,0
256,160,133451,1,0
160,192,133826,2,4,B|128:288|224:288,1,135
320,224,134951,1,4
256,192,135326,12,4,137013
256,160,137576,1,4
256,256,137951,1,0
320,320,138326,2,4,B|384:320|384:256,1,90
352,192,139076,2,4,B|288:192|288:256,2,90
160,192,140576,6,0,B|160:0,1,180
256,32,141701,2,4,B|320:32|320:96,1,90
256,160,142451,1,0
352,160,142826,2,4,B|416:160|416:224,1,90
384,304,143576,2,4,B|288:304,1,90
192,304,144326,5,0
96,304,144701,1,0
0,304,145076,1,0
128,192,145826,1,4
224,192,146201,1,0
320,192,146576,1,0
480,304,147326,6,4,B|288:304,2,180
480,96,149576,1,4
384,96,149951,1,0
288,96,150326,6,4,B|192:96|224:128,2,90
288,192,151451,1,0
192,192,151826,2,4,B|0:192,1,180
160,288,153326,6,4,B|288:288,1,90
336,256,154076,1,0
416,320,154451,2,4,B|448:224,1,90
368,160,155201,1,0
384,64,155576,2,4,B|288:64,1,90
192,96,156326,6,4,B|192:192,2,90
320,288,157826,2,4,B|320:192,2,90
224,320,158951,1,0
128,320,159326,1,4
16,192,160076,1,0
128,64,160826,1,4
240,192,161576,1,0
416,192,162326,6,4,B|416:352|128:352,1,360
96,192,165326,2,0,B|96:32|384:32,1,360
448,192,167576,5,0
352,192,167951,1,0
256,192,168326,2,0,B|64:192,2,180
352,224,170201,1,0
320,320,170576,1,0
240,256,170951,1,0
224,160,171326,6,0,B|288:64|384:128,1,180
416,208,172451,1,0
352,272,172826,2,0,B|288:368|192:304,1,180
96,192,174326,6,4,B|96:32|384:32,1,360
416,192,177326,2,0,B|416:352|128:352,1,360
64,192,179576,5,0
160,192,179951,1,0
256,192,180326,2,0,B|448:192,2,180
160,160,182201,1,0
192,64,182576,1,0
272,128,182951,1,0
288,224,183326,2,0,B|265:333|88:343|34:223|128:128,2,360
256,192,186419,12,0,189326
