osu file format v8

[General]
AudioFilename: S-1uYgt50AE.mp3
AudioLeadIn: 1500
PreviewTime: 14437
Countdown: 0
SampleSet: Normal
StackLeniency: 0.7
Mode: 1
LetterboxInBreaks: 1

[Editor]
DistanceSpacing: 0.3
BeatDivisor: 4
GridSize: 8

[Metadata]
Title:Bad Apple & Good Orange
Artist:IOSYS
Creator:TKiller
Version:lepidon! - Taiko Oni
Source:Touhou
Tags:[DBF] Ari-chan Takuma lepidopodus lepidon

[Difficulty]
HPDrainRate:5
CircleSize:5
OverallDifficulty:5
ApproachRate:5
SliderMultiplier:1.4
SliderTickRate:2

[Events]
//Background and Video events
0,0,"bg-8.png"
Video,0,"video.flv"
//Break Periods
//Storyboard Layer 0 (Background)
//Storyboard Layer 1 (Fail)
//Storyboard Layer 2 (Pass)
//Storyboard Layer 3 (Foreground)
//Storyboard Sound Samples
//Background Colour Transformations
3,100,163,162,255

[TimingPoints]
534,434.782608695652,4,1,0,80,1,0
56176,-100,4,1,0,90,0,1
82055,-100,4,1,0,90,0,0
84229,-100,4,1,0,90,0,1
89012,-100,4,1,0,80,0,0

[Colours]
Combo1 : 255,128,0
Combo2 : 240,240,0
Combo3 : 240,5,5

[HitObjects]
152,160,534,1,0
176,160,751,1,8
200,160,968,1,0
184,176,1186,1,0
192,176,1294,1,8
264,176,1512,1,8
288,192,1729,1,8
304,192,1838,1,0
328,184,2055,1,8
328,160,2273,1,0
368,192,2490,1,8
384,200,2707,1,0
376,216,2925,1,0
368,224,3033,1,8
352,240,3251,1,8
336,256,3468,1,8
328,256,3577,1,0
320,256,3686,1,0
312,248,3794,1,8
296,232,4012,1,0
312,216,4229,1,8
328,208,4447,1,0
352,200,4664,1,0
360,200,4773,1,8
376,208,4990,1,8
384,224,5207,1,8
384,232,5316,1,0
400,216,5533,1,8
416,200,5751,1,0
408,184,5968,1,8
408,160,6186,1,0
424,144,6403,1,0
432,152,6512,1,8
432,176,6729,1,8
424,184,6838,1,8
424,192,6947,1,0
416,200,7055,1,0
408,216,7273,1,4
384,216,7490,5,0
376,232,7707,1,8
368,240,7816,1,0
360,248,7925,1,0
336,256,8142,1,0
328,248,8251,1,8
312,232,8468,1,8
328,216,8686,1,8
336,208,8794,1,0
352,200,9012,1,8
384,216,9229,1,0
376,232,9446,1,8
368,240,9555,1,0
360,248,9664,1,0
336,256,9881,1,0
328,248,9990,1,8
312,232,10207,1,8
328,216,10425,1,8
336,208,10533,1,0
328,208,10642,1,0
352,200,10751,1,8
360,184,10968,1,0
368,160,11186,1,8
376,160,11294,1,0
384,168,11403,1,0
384,192,11620,1,0
392,200,11729,1,8
392,208,11838,1,0
392,216,11947,1,0
384,224,12055,1,0
376,232,12164,1,0
368,240,12273,1,0
368,248,12381,1,0
360,256,12490,1,0
344,240,12707,1,8
304,240,13142,1,8
264,256,13577,1,8
272,136,14012,1,4
304,104,14447,5,0
320,120,14664,1,0
328,128,14773,1,8
336,136,14881,1,0
336,160,15099,1,0
336,184,15316,1,0
328,200,15533,1,0
320,208,15642,1,8
312,216,15751,1,0
296,232,15968,1,0
288,240,16077,1,0
280,248,16186,1,0
264,232,16403,1,0
256,224,16512,1,8
264,216,16620,1,0
280,200,16838,1,0
288,192,16947,1,8
296,184,17055,1,0
312,176,17273,1,0
304,176,17381,1,0
328,184,17490,1,0
336,184,17599,1,8
344,184,17707,1,0
360,184,17925,1,0
368,168,18142,1,8
376,168,18251,1,0
384,168,18360,1,8
400,184,18577,1,0
408,192,18686,1,8
416,200,18794,1,0
416,224,19012,1,0
416,232,19120,1,8
408,240,19229,1,0
392,256,19447,1,0
368,256,19664,1,0
360,256,19773,1,8
352,256,19881,1,0
344,256,19990,1,8
336,248,20099,1,0
320,240,20316,1,0
304,224,20533,1,0
312,216,20642,1,0
320,208,20751,1,8
312,200,20860,2,0,L|192:144,1,105
232,144,21403,5,0
256,144,21620,1,0
264,144,21729,1,8
272,144,21838,1,0
288,152,22055,1,0
304,144,22273,1,0
296,152,22381,1,0
320,160,22490,1,0
328,160,22599,1,8
336,160,22707,1,0
328,176,22925,1,0
336,200,23142,1,0
336,224,23360,1,0
344,224,23468,1,8
352,224,23577,1,0
368,240,23794,1,0
376,248,23903,1,0
384,256,24012,1,0
368,272,24229,1,0
360,264,24338,1,8
352,256,24447,1,0
344,264,24555,1,0
336,256,24664,1,0
320,232,24881,1,0
312,224,25026,1,0
304,216,25171,1,0
288,208,25316,1,0
272,200,25461,1,0
256,192,25606,1,0
240,184,25751,1,0
272,160,26186,1,0
280,152,26294,1,0
288,144,26403,1,0
296,136,26512,1,0
304,136,26620,1,0
320,152,26838,1,8
328,160,26947,1,0
352,184,27273,1,0
360,208,27490,1,0
352,208,27599,1,0
368,200,27816,1,8
320,192,27925,1,0
312,192,28033,1,0
304,192,28142,1,0
296,192,28251,1,0
288,192,28360,5,0
288,160,28686,1,0
312,136,29012,1,0
328,184,29555,1,8
320,216,29881,1,8
336,208,30099,1,0
368,224,30425,1,0
384,248,30751,1,0
360,200,31294,1,8
344,176,31620,1,8
344,200,31838,1,0
352,240,32164,1,0
320,240,32490,1,0
344,192,33033,1,8
392,208,33360,1,8
392,184,33577,1,0
400,216,33903,1,8
392,248,34229,1,8
368,248,34447,1,0
360,248,34519,1,0
352,248,34591,1,0
344,248,34664,1,0
312,208,35099,1,0
304,200,35171,1,0
296,192,35244,1,0
288,192,35316,5,0
280,160,35642,1,0
288,160,35751,1,8
312,160,35968,1,0
336,160,36186,1,8
368,176,36512,1,0
376,184,36620,1,8
384,200,36838,1,0
384,224,37055,1,0
368,248,37381,1,0
376,248,37490,1,8
392,232,37707,1,0
400,216,37925,1,8
408,184,38251,1,0
408,176,38360,1,8
400,192,38577,1,0
384,176,38794,1,4
352,152,39229,1,8
312,144,39664,1,4
280,176,40099,1,4
320,184,40533,1,4
376,120,41403,1,0
384,160,41838,1,0
344,176,42273,5,0
336,192,42490,1,8
344,200,42599,1,0
352,216,42816,1,0
360,224,42925,1,8
376,216,43142,1,0
392,208,43360,1,8
392,200,43468,1,0
376,184,43686,1,0
384,184,43794,1,8
384,160,44012,1,0
392,144,44229,1,8
400,144,44338,1,0
408,160,44447,1,0
416,168,44555,1,8
392,176,44773,1,0
424,184,44881,1,8
424,192,44990,1,0
416,208,45207,1,0
416,216,45316,1,8
416,224,45425,1,8
408,232,45533,1,0
384,232,45751,1,0
368,224,45968,1,8
360,224,46077,1,0
344,216,46294,1,0
336,208,46403,1,8
344,192,46620,1,0
360,176,46838,1,8
368,176,46947,1,0
392,176,47164,1,0
400,176,47273,1,8
408,192,47490,1,0
408,200,47599,1,0
416,208,47707,1,8
416,216,47816,1,0
400,232,48033,1,0
392,240,48142,1,8
376,248,48360,1,0
368,256,48468,1,0
360,256,48577,1,8
352,256,48686,2,0,L|232:240,1,105
248,224,49229,5,0
256,208,49447,1,8
264,200,49555,1,0
272,192,49664,1,0
280,192,49773,1,8
296,184,49990,1,8
320,192,50099,1,0
336,176,50316,1,8
344,176,50425,1,0
352,176,50533,1,0
360,176,50642,1,8
368,200,50860,1,8
384,184,50968,1,0
392,192,51077,1,0
400,200,51186,1,8
408,208,51294,1,0
400,232,51512,1,0
400,240,51620,1,8
384,232,51838,1,0
376,232,51947,1,8
368,232,52164,1,8
360,232,52273,1,0
344,240,52381,1,0
336,240,52490,1,8
320,232,52707,1,0
312,224,52816,1,0
304,224,52925,1,0
304,216,53033,1,8
288,208,53251,1,0
296,208,53360,1,8
264,200,53577,1,0
256,200,53686,1,0
248,192,53794,1,0
256,184,53903,1,8
272,192,54120,1,0
280,200,54229,1,0
368,208,54447,1,4
352,248,54773,1,4
320,280,55099,1,4
288,264,55425,1,4
248,200,56186,5,0
264,192,56403,1,8
272,192,56512,1,0
296,192,56729,1,0
304,192,56838,1,8
328,192,57055,1,0
320,200,57164,1,0
344,192,57273,1,8
352,192,57381,1,8
360,192,57490,1,0
368,192,57599,1,0
376,192,57707,1,8
384,176,57925,1,0
400,160,58142,1,8
408,160,58251,1,0
416,184,58468,1,0
416,192,58577,1,8
400,200,58794,1,0
408,208,58903,1,8
384,216,59012,1,8
376,224,59120,1,0
368,224,59229,1,0
360,240,59338,1,8
352,248,59447,1,8
344,232,59664,1,0
344,224,59881,1,8
336,200,59990,1,0
344,192,60099,1,0
360,176,60316,1,8
384,216,60425,1,0
376,168,60533,1,0
384,168,60642,1,8
400,160,60860,1,8
408,168,60968,1,0
416,176,61077,1,0
424,184,61186,1,8
416,192,61294,1,8
424,200,61403,1,0
416,216,61620,1,8
400,232,61838,1,0
400,160,61947,1,8
384,248,62164,1,8
368,264,62273,1,0
360,264,62381,1,0
352,264,62490,1,8
344,264,62599,2,0,L|232:216,1,105
248,200,63142,5,0
264,184,63360,1,0
272,176,63468,1,8
288,160,63686,1,8
296,160,63794,1,0
328,184,64012,1,8
336,184,64120,1,8
344,184,64229,1,0
352,184,64338,1,0
360,184,64447,1,8
368,184,64555,1,8
376,184,64664,1,0
384,208,64881,1,0
368,192,65099,1,0
368,184,65207,1,8
376,160,65425,1,8
384,160,65533,1,0
400,176,65751,1,8
408,184,65860,1,0
416,192,65968,1,0
416,200,66077,1,8
424,208,66186,1,8
416,216,66294,1,0
408,224,66403,1,0
384,224,66620,1,4
352,232,66947,1,4
320,232,67273,1,4
304,264,67599,1,4
264,232,68142,1,0
256,224,68251,1,0
280,224,68468,1,0
288,216,68577,1,8
304,208,68794,1,0
328,216,69012,1,0
336,224,69120,1,8
352,216,69338,1,0
360,208,69447,1,8
368,216,69555,1,0
368,224,69664,1,0
368,232,69773,1,0
368,240,69881,1,0
352,224,70099,5,0
344,200,70316,1,8
352,192,70425,1,0
344,192,70533,1,0
368,176,70642,1,8
376,176,70860,1,8
360,192,70968,1,0
352,200,71077,1,0
344,200,71186,1,8
336,200,71294,1,8
328,208,71403,1,0
320,216,71512,1,0
312,224,71620,1,8
304,240,71838,1,0
320,224,72055,1,8
328,224,72164,1,8
320,232,72273,1,0
352,224,72381,1,0
360,232,72490,1,8
368,216,72707,1,0
368,208,72816,1,8
376,200,72925,1,8
376,192,73033,1,0
376,184,73142,1,0
384,176,73251,1,8
392,168,73360,1,8
384,176,73468,1,0
400,176,73577,1,0
416,192,73794,1,8
416,200,73903,1,0
416,208,74012,1,0
416,216,74229,1,8
416,240,74338,1,8
408,248,74447,1,0
400,256,74555,1,8
376,256,74773,1,8
368,256,74881,1,0
360,256,74990,1,0
352,256,75099,1,8
344,248,75207,1,8
336,248,75316,1,0
320,232,75533,1,8
312,224,75642,1,0
304,216,75751,1,0
320,200,75968,1,8
328,192,76077,1,0
336,192,76186,1,0
344,192,76294,1,0
352,184,76403,1,8
344,184,76512,2,0,L|232:168,1,105
248,152,77055,5,0
264,144,77273,1,8
288,144,77490,1,0
312,152,77707,1,8
320,152,77816,1,0
336,168,78033,1,0
344,176,78142,1,8
360,192,78360,1,0
376,200,78577,1,8
384,216,78686,1,0
360,224,78903,1,0
400,232,79012,1,8
408,216,79229,1,0
416,200,79338,1,0
416,192,79447,1,8
416,184,79555,1,0
400,176,79773,1,0
392,168,79881,1,8
392,192,80099,1,0
400,208,80316,1,8
256,192,80425,12,0,81838
432,192,82055,5,4
408,192,82273,1,8
400,200,82381,1,0
392,208,82490,1,0
392,216,82599,1,8
392,224,82707,1,0
376,232,82925,1,0
368,240,83033,1,0
352,256,83251,1,0
344,264,83360,1,8
336,248,83577,1,0
328,240,83686,1,8
320,232,83794,1,8
328,224,83903,1,0
352,200,84229,1,4
336,224,84555,1,4
320,248,84881,1,4
336,280,85207,1,4
368,296,85533,1,4
328,280,85968,1,4
304,264,86294,1,4
280,248,86620,1,4
280,248,86947,1,4
280,248,87273,1,4
280,208,87707,1,4
288,176,88033,1,4
312,176,88360,1,4
336,160,88686,1,4
360,184,89012,1,4
264,224,90099,1,0
304,240,90533,1,0
304,104,90968,5,0
320,120,91185,1,0
328,128,91294,1,8
336,136,91402,1,0
336,160,91620,1,0
328,160,91729,1,0
336,184,91837,1,0
328,200,92054,1,0
320,208,92163,1,8
312,216,92272,1,0
296,232,92489,1,0
280,248,92707,1,0
264,232,92924,1,0
256,224,93033,1,8
264,216,93141,1,0
280,200,93359,1,0
288,192,93468,1,8
296,184,93576,1,0
312,176,93794,1,0
304,176,93902,1,0
328,184,94011,1,0
336,184,94120,1,8
344,184,94228,1,0
360,184,94446,1,0
368,168,94663,1,8
376,168,94772,1,0
384,168,94881,1,8
400,184,95098,1,0
408,192,95207,1,8
416,200,95315,1,0
416,224,95533,1,0
416,232,95641,1,8
408,240,95750,1,0
400,240,95860,1,0
392,256,95968,1,0
368,256,96185,1,0
360,256,96294,1,8
352,256,96402,1,0
344,256,96511,1,8
336,248,96620,1,0
320,240,96837,1,0
304,224,97054,1,0
312,216,97163,1,0
320,208,97272,1,8
312,200,97381,2,0,L|192:144,1,105
232,144,97924,5,0
256,144,98141,1,0
264,144,98250,1,8
272,144,98359,1,0
264,152,98468,1,0
288,152,98576,1,0
304,144,98794,1,0
296,152,98902,1,0
320,160,99011,1,0
328,160,99120,1,8
336,160,99228,1,0
328,176,99446,1,0
336,200,99663,1,0
336,224,99881,1,0
344,224,99989,1,8
352,224,100098,1,0
368,240,100315,1,8
376,248,100424,1,0
384,256,100533,1,0
368,272,100750,1,0
360,264,100859,1,8
352,256,100968,1,0
344,264,101076,1,0
336,256,101185,1,0
320,232,101402,1,0
312,224,101547,1,0
304,216,101692,1,0
288,208,101837,1,0
272,200,101982,1,0
256,192,102127,1,0
240,184,102272,1,0
272,160,102707,1,0
280,152,102815,1,0
288,144,102924,1,0
296,136,103033,1,0
304,136,103141,1,0
320,152,103359,1,8
328,160,103468,1,0
352,184,103794,1,0
360,208,104011,1,0
352,208,104120,1,0
368,200,104337,1,8
320,192,104446,1,0
312,192,104554,1,0
304,192,104663,1,0
296,192,104772,1,0
