osu file format v8

[General]
AudioFilename: S-1uYgt50AE.mp3
AudioLeadIn: 1500
PreviewTime: 14437
Countdown: 0
SampleSet: Normal
StackLeniency: 0.7
Mode: 0
LetterboxInBreaks: 1

[Editor]
Bookmarks: 7470,14427,21383,28340,35296,40514,56166,70079,83992,90948,97905
DistanceSpacing: 1
BeatDivisor: 4
GridSize: 8

[Metadata]
Title:Bad Apple & Good Orange
Artist:IOSYS
Creator:TKiller
Version:Easy
Source:Touhou
Tags:[DBF] Ari-chan Takuma lepidopodus lepidon

[Difficulty]
HPDrainRate:3
CircleSize:3
OverallDifficulty:3
ApproachRate:3
SliderMultiplier:1
SliderTickRate:2

[Events]
//Background and Video events
0,0,"bg-8.png"
Video,0,"video.flv"
//Break Periods
2,14647,19953
2,70299,82779
//Storyboard Layer 0 (Background)
//Storyboard Layer 1 (Fail)
//Storyboard Layer 2 (Pass)
//Storyboard Layer 3 (Foreground)
Sprite,Foreground,Centre,"Ari.png",320,240 M,0,0,,497,87 S,0,0,,0.7039999 F,0,0,524,0,1 F,0,524,104871,1 F,0,104871,105197,1,0
//Storyboard Sound Samples
//Background Colour Transformations
3,100,163,162,255

[TimingPoints]
534,434.782608695652,4,1,0,50,1,0
28784,-100,4,2,0,50,0,0
35306,-100,4,1,0,50,0,0
39447,-100,4,1,1,50,0,0
40958,-100,4,2,0,24,0,0
42045,-100,4,1,0,50,0,0
66403,-100,4,1,1,50,0,0
91403,-100,4,1,0,50,0,0
100968,-100,4,1,1,50,0,0
104002,-100,4,1,0,0,0,0

[Colours]
Combo1 : 255,128,0
Combo2 : 240,240,0
Combo3 : 240,5,5

[HitObjects]
192,104,534,2,0,B|192:16|320:16|320:120,1,200,0|8
408,256,2273,2,0,B|496:256|496:128|392:128,1,200,0|8
192,280,4012,2,0,B|192:368|320:368|320:264,1,200,0|8
104,128,5751,2,0,B|16:128|16:256|120:256,1,200,0|8
256,128,7490,5,0
72,216,8360,1,0
152,272,8794,1,8
352,272,9664,1,0
432,216,10099,1,0
352,152,10533,1,8
432,96,10968,2,0,B|328:8|248:56|248:56|168:8|56:96,1,400
256,192,13142,12,4,14447
120,192,21403,6,0,B|96:240|32:248,2,100,0|8|0
224,192,22707,2,0,B|248:144|312:136,1,100
392,192,23577,2,0,B|416:240|480:248,2,100,8|0|0
256,192,24881,12,0,26620
256,192,26729,12,4,28360
256,104,29229,5,2
80,192,30099,1,0
256,280,30968,1,2
432,192,31838,1,0
256,104,32707,1,2
256,192,33142,12,4,35316
144,112,36186,5,0
80,192,36620,1,8
144,272,37055,1,0
368,272,37925,1,0
432,192,38360,1,8
368,112,38794,1,0
256,280,39664,2,0,B|256:72,1,200,0|4
160,256,41403,5,2
256,296,41838,1,2
360,256,42273,1,0
256,72,43142,5,0
256,176,43577,2,0,B|256:232,2,50
88,264,44881,1,0
152,344,45316,1,8
256,344,45751,5,0
424,120,46620,1,0
360,40,47055,1,8
256,40,47490,1,0
256,192,47925,12,4,49229
56,192,50099,6,0,B|264:192,1,200
456,192,51838,2,0,B|248:192,1,200
160,40,53577,1,0
256,72,54012,1,8
352,40,54447,1,0
256,192,54881,12,4,56186
256,96,57055,5,0
168,144,57490,1,8
80,192,57925,2,0,L|16:232|80:272,1,150,0|0
256,126,59447,2,0,L|256:334,2,200
256,326,61838,1,0
344,280,62273,1,8
432,232,62707,5,8
344,176,63142,2,0,L|416:128|344:80,1,150
168,176,64881,2,0,L|96:128|168:80,1,150
256,264,66620,2,0,L|256:64,2,200
256,192,68794,12,4,70099
192,152,84229,6,0,L|256:192,4,75
320,232,85968,6,0,L|256:192,4,75
296,128,87707,6,0,L|256:192,4,75
256,192,89229,12,0,90968
160,104,91838,6,0,B|72:192|160:288,1,200,0|8
352,280,93577,2,0,B|440:192|352:96,1,200,0|8
256,248,95316,5,0
256,144,95751,1,0
256,40,96186,1,8
256,144,96620,1,0
208,231,97055,2,0,B|259:259|320:223,1,100
184,136,98794,5,0
256,64,99229,1,8
328,248,100099,1,0
256,320,100534,1,0
104,192,101403,2,0,B|416:192,1,300
256,192,103142,12,0,104664
