osu file format v5

[General]
AudioFilename: Alice Sweet - IOSYS.mp3
AudioLeadIn: 0
PreviewTime: -1
Countdown: 1
SampleSet: Normal
StackLeniency: 0.7
Mode: 0
LetterboxInBreaks: 1

[Metadata]
Title:Alice > Dere
Artist:IOSYS
Creator:Nya
Version:Normal
Source:
Tags:alice dere sweet iosys

[Difficulty]
HPDrainRate:2
CircleSize:3
OverallDifficulty:5
SliderMultiplier:1.1
SliderTickRate:0.5

[Events]
//Background and Video events
0,0,"Konachan_com%20-%2037125%20alice_margatroid%20capura_lin%20fairy%20touhou.jpg"
//Break Periods
2,30500,44719
2,95627,104540
2,120500,134719
2,186359,217219
//Storyboard Layer 0 (Background)
//Storyboard Layer 1 (Failing)
//Storyboard Layer 2 (Passing)
//Storyboard Layer 3 (Foreground)
//Storyboard Sound Samples
//Background Colour Transformations
3,100,0,0,0

[TimingPoints]
15740,468.75,4,1,0,100,1

[Colours]
Combo1 : 128,0,0
Combo2 : 0,128,255
Combo3 : 255,0,128
Combo4 : 255,217,0

[HitObjects]
96,96,15740,1,0
192,96,16677,1,0
288,96,17615,1,0
384,96,18552,1,8
384,96,19021,1,8
384,96,19490,1,0
384,288,20427,1,0
288,288,21365,1,0
96,288,22302,1,8
96,288,22771,1,8
96,288,23240,5,0
96,96,24177,1,0
288,96,25115,1,0
288,96,25583,1,0
288,96,26052,1,8
288,96,26521,1,8
320,128,26990,2,0,B|366:274|323:338|189:267|128:224,1,330
96,192,28865,1,0
96,192,29333,1,0
96,192,29802,1,8
96,192,30271,1,8
96,64,45740,5,0
184,64,46208,1,0
280,64,46677,1,0
368,64,47146,1,0
368,144,47615,1,0
368,224,48083,1,0
368,304,48552,1,0
288,312,49021,1,2
232,256,49490,5,0
168,208,49958,1,0
96,160,50427,1,0
96,80,50896,1,0
176,80,51365,1,0
256,80,51833,1,0
336,80,52302,1,0
336,160,52771,1,2
336,240,53240,5,0
256,240,53708,1,0
176,240,54177,1,0
176,160,54646,1,0
176,80,55115,1,0
256,80,55583,1,0
336,80,56052,1,0
336,168,56521,5,2
256,168,56990,1,0
176,168,57458,1,0
96,168,57927,1,0
96,248,58396,1,0
176,248,58865,1,0
256,248,59333,1,0
336,248,59802,1,0
416,248,60271,1,0
256,192,60740,12,0,63552
96,64,64490,5,0
192,64,64958,1,0
288,64,65427,1,0
384,64,65896,1,0
480,64,66365,1,0
480,160,66833,1,0
480,256,67302,1,0
384,320,68005,6,2,B|160:320,1,220
128,256,69177,5,0
128,160,69646,1,0
128,64,70115,1,0
224,64,70583,1,0
320,64,71052,1,0
416,64,71521,1,0
416,64,71990,6,0,B|192:64,1,220
128,64,73396,5,0
128,160,73865,1,0
128,256,74333,1,0
224,256,74802,1,0
256,192,75505,12,0,79021
96,64,79490,5,0
160,128,79958,1,0
224,192,80427,1,0
288,256,80896,1,0
352,320,81365,1,0
352,224,81833,1,0
352,128,82302,1,0
352,32,82771,6,0,B|128:32,1,220
128,128,84177,5,0
128,224,84646,1,0
128,320,85115,1,0
208,272,85583,1,0
280,216,86052,1,0
312,128,86521,1,0
64,64,86990,6,0,B|64:288,1,220
160,288,88396,5,0
256,288,88865,1,0
352,288,89333,1,8
352,192,89802,1,8
256,192,90505,12,0,95427
64,64,105740,5,0
64,160,106208,1,0
64,256,106677,1,0
144,200,107146,1,0
216,152,107615,1,0
288,104,108083,1,0
352,160,108552,1,8
352,160,109021,1,8
96,64,109490,5,0
184,64,109958,1,0
272,64,110427,1,0
368,64,110896,1,0
448,64,111365,1,0
448,64,111833,1,0
368,192,112302,1,8
368,192,112771,1,8
256,64,113240,6,0,B|82:22|21:161|48:240,1,330
128,192,115115,5,0
128,192,115583,1,0
224,192,116052,5,8
224,192,116521,5,8
64,64,116990,5,0
160,64,117458,1,0
256,64,117927,1,0
352,64,118396,1,0
288,128,118865,1,0
224,192,119333,1,0
160,256,119802,1,8
160,256,120271,1,8
64,64,135740,5,0
160,64,136208,1,0
256,64,136677,1,0
352,64,137146,1,0
448,64,137615,1,0
448,160,138083,1,0
448,256,138552,1,0
384,320,139021,1,2
320,256,139490,5,0
256,192,139958,1,0
192,128,140427,1,0
128,64,140896,1,0
32,64,141365,1,0
32,160,141833,1,0
32,256,142302,1,0
128,256,142771,1,2
192,320,143240,5,0
288,320,143708,1,0
384,320,144177,1,0
448,256,144646,1,0
448,160,145115,1,0
384,96,145583,1,0
288,96,146052,1,0
192,96,146521,1,2
96,96,146990,5,0
96,192,147458,1,0
96,288,147927,1,0
192,288,148396,1,0
288,288,148865,1,0
384,288,149333,1,0
480,288,149802,1,0
480,192,150271,1,0
256,192,150740,12,0,153552
64,64,154490,5,0
160,64,154958,1,0
256,64,155427,1,0
352,64,155896,1,0
352,160,156365,1,0
352,256,156833,1,0
288,192,157302,1,0
224,128,157771,5,0
160,64,158240,5,0
64,64,158708,5,0
64,160,159177,5,0
64,256,159646,5,0
160,256,160115,5,0
256,256,160583,5,0
352,256,161052,5,0
416,192,161521,5,0
416,96,161990,5,0
352,32,162458,5,0
256,32,162927,5,0
160,32,163396,5,0
64,32,163865,5,0
0,96,164333,5,0
0,192,164802,5,0
0,288,165271,5,0
256,192,165505,12,0,168552
64,32,169490,5,0
64,128,169958,1,0
64,224,170427,1,0
64,320,170896,1,0
160,320,171365,1,0
256,320,171833,1,0
352,320,172302,1,0
352,224,172771,5,8
352,128,173240,5,0
352,32,173708,1,0
256,32,174177,1,0
160,32,174646,1,0
64,32,175115,1,0
64,128,175583,1,0
64,224,176052,1,0
64,320,176521,1,8
160,320,176990,5,0
256,320,177458,1,0
352,320,177927,1,0
352,224,178396,1,0
448,224,178865,1,0
512,160,179333,1,0
512,64,179802,1,0
416,64,180271,1,0
320,64,180740,5,0
224,64,181208,5,0
128,64,181677,5,0
32,64,182146,5,0
256,192,182615,12,0,186130
32,64,218240,5,0
128,64,218708,1,0
224,64,219177,1,0
320,64,219646,1,0
416,64,220115,1,0
480,128,220583,1,0
480,224,221052,1,0
416,288,221521,1,2
320,288,221990,5,0
224,288,222458,1,0
128,288,222927,1,0
64,224,223396,1,0
64,128,223865,1,0
64,32,224333,1,0
160,32,224802,1,0
256,32,225271,1,2
352,32,225740,5,0
448,32,226208,1,0
448,128,226677,1,0
448,224,227146,1,0
448,320,227615,1,0
352,320,228083,1,0
256,320,228552,1,0
256,224,229021,1,2
352,224,229490,5,0
352,128,229958,1,0
352,32,230427,1,0
256,32,230896,1,0
160,32,231365,1,0
256,192,232302,12,0,236521
64,64,236990,5,0
64,160,237458,1,0
64,256,237927,1,0
64,352,238396,1,0
128,288,238865,1,0
192,224,239333,1,0
256,160,239802,1,0
320,96,240271,1,0
384,32,240740,5,0
288,32,241208,1,0
192,32,241677,1,0
96,32,242146,1,0
0,32,242615,1,0
0,128,243083,1,0
96,128,243552,1,0
96,224,244021,1,0
0,224,244490,5,0
96,224,244958,1,0
96,320,245427,1,0
160,256,245896,1,0
224,192,246365,1,0
288,128,246833,1,0
288,32,247302,1,0
192,32,247771,1,0
96,32,248240,5,0
96,128,248708,1,0
96,224,249177,1,0
96,320,249646,1,0
192,320,250115,2,0,B|320:284|364:158|264:56,1,330
96,128,251990,5,0
96,128,252224,5,0
96,224,252693,1,0
96,320,253161,1,0
160,256,253630,1,0
224,192,254099,1,0
288,128,254568,1,0
352,64,255036,1,8
352,64,255271,1,8
256,192,255505,12,0,259021
96,64,259490,6,0,B|160:64,1,55
146,64,259958,2,0,B|192:128,1,55
178,108,260427,2,0,B|128:288,1,165
133,266,261365,1,0
221,267,261833,1,8
306,266,262302,1,8
256,192,263005,12,0,268865
